osu file format v14

[General]
AudioFilename: audio.mp3
AudioLeadIn: 0
PreviewTime: 1
Countdown: 0
SampleSet: Normal
StackLeniency: 0.7
Mode: 1
LetterboxInBreaks: 0
WidescreenStoryboard: 0

[Editor]
Bookmarks: 40167
DistanceSpacing: 0.4
BeatDivisor: 16
GridSize: 32
TimelineZoom: 1.8

[Metadata]
Title:11 P.M.
TitleUnicode:11 P.M.
Artist:Kenta Nagata
ArtistUnicode:永田権太
Creator:yenmaster
Version:Night
Source:どうぶつの森
Tags:animal crossing gamecube nintendo 64 video game electronic instrumental
BeatmapID:2812120
BeatmapSetID:1358998

[Difficulty]
HPDrainRate:7
CircleSize:2
OverallDifficulty:4.5
ApproachRate:5
SliderMultiplier:1.6
SliderTickRate:1

[Events]
//Background and Video events
0,0,"nicole-keane-streamendloopvideo-004-1280x720-30fps-256colors-0.png",0,0
//Break Periods
//Storyboard Layer 0 (Background)
//Storyboard Layer 1 (Fail)
//Storyboard Layer 2 (Pass)
//Storyboard Layer 3 (Foreground)
//Storyboard Layer 4 (Overlay)
//Storyboard Sound Samples

[TimingPoints]
18,627.943485086342,4,1,0,20,1,0

[HitObjects]
256,192,18,5,8,0:0:0:0:
256,192,1273,1,0,0:0:0:0:
256,192,2215,1,0,0:0:0:0:
256,192,2294,1,0,0:0:0:0:
256,192,2451,1,8,0:0:0:0:
256,192,3157,1,0,0:0:0:0:
256,192,3550,1,8,0:0:0:0:
256,192,3628,1,0,0:0:0:0:
256,192,3707,1,0,0:0:0:0:
256,192,3785,1,8,0:0:0:0:
256,192,5041,1,0,0:0:0:0:
256,192,5512,1,8,0:0:0:0:
256,192,5590,1,8,0:0:0:0:
256,192,5669,1,0,0:0:0:0:
256,192,6297,1,8,0:0:0:0:
256,192,7317,1,0,0:0:0:0:
256,192,7474,1,0,0:0:0:0:
256,192,7592,1,8,0:0:0:0:
256,192,7762,1,8,0:0:0:0:
256,192,8809,1,0,0:0:0:0:
256,192,9829,1,8,0:0:0:0:
256,192,9908,1,8,0:0:0:0:
256,192,10065,1,0,0:0:0:0:
256,192,10693,1,0,0:0:0:0:
256,192,11320,1,0,0:0:0:0:
256,192,12498,1,0,0:0:0:0:
256,192,12576,1,0,0:0:0:0:
256,192,12655,1,8,0:0:0:0:
256,192,13832,1,0,0:0:0:0:
256,192,14853,1,8,0:0:0:0:
256,192,14970,1,8,0:0:0:0:
256,192,15088,1,0,0:0:0:0:
256,192,15716,1,0,0:0:0:0:
256,192,16344,1,8,0:0:0:0:
256,192,18699,1,8,0:0:0:0:
256,192,18856,1,0,0:0:0:0:
256,192,20112,1,8,0:0:0:0:
256,192,20308,1,0,0:0:0:0:
256,192,21368,1,8,0:0:0:0:
256,192,23801,1,8,0:0:0:0:
256,192,23879,1,0,0:0:0:0:
256,192,24036,1,8,0:0:0:0:
256,192,24193,1,0,0:0:0:0:
256,192,25135,1,0,0:0:0:0:
256,192,25763,1,0,0:0:0:0:
256,192,26391,1,8,0:0:0:0:
256,192,27647,1,8,0:0:0:0:
256,192,27726,1,0,0:0:0:0:
256,192,27961,1,8,0:0:0:0:
256,192,28039,1,0,0:0:0:0:
256,192,28157,1,0,0:0:0:0:
256,192,28393,1,8,0:0:0:0:
256,192,28903,1,0,0:0:0:0:
256,192,31336,1,8,0:0:0:0:
256,192,31415,1,0,0:0:0:0:
256,192,32671,1,8,0:0:0:0:
256,192,33926,1,0,0:0:0:0:
256,192,34554,1,8,0:0:0:0:
256,192,35182,1,0,0:0:0:0:
256,192,35732,1,8,0:0:0:0:
256,192,35850,1,8,0:0:0:0:
256,192,35967,1,0,0:0:0:0:
256,192,36438,1,0,0:0:0:0:
256,192,36517,1,8,0:0:0:0:
256,192,37066,1,0,0:0:0:0:
256,192,38322,1,8,0:0:0:0:
256,192,38950,1,0,0:0:0:0:
256,192,39578,1,0,0:0:0:0:
256,192,40206,1,8,0:0:0:0:
