osu file format v14

[General]
AudioFilename: audio.mp3
AudioLeadIn: 0
PreviewTime: 45333
Countdown: 0
SampleSet: Soft
StackLeniency: 0.7
Mode: 3
LetterboxInBreaks: 0
SpecialStyle: 1
WidescreenStoryboard: 1

[Editor]
Bookmarks: 81796,85625,89375,93204,96994,100744,104533,110644,112641,113111,113543,114015,115193,115540,116441,117456
DistanceSpacing: 1
BeatDivisor: 4
GridSize: 8
TimelineZoom: 1.5

[Metadata]
Title:lit(var)
TitleUnicode:lit(var)
Artist:Kensuke Ushio
ArtistUnicode:牛尾憲輔
Creator:Chrisse
Version:Happy Ending
Source:聲の形
Tags:koe no katachi shouko nishimiya 西宮 硝子 shouya ishida 石田 将也 the shape of voice piano ost soundtrack ending theme light original sound track extended full version a silent voice anime instrumental litvar RuleBlazing
BeatmapID:3958518
BeatmapSetID:1918297

[Difficulty]
HPDrainRate:7
CircleSize:4
OverallDifficulty:7.5
ApproachRate:5
SliderMultiplier:1.4
SliderTickRate:1

[Events]
//Background and Video events
0,0,"bg.jpg",0,0
//Break Periods
//Storyboard Layer 0 (Background)
//Storyboard Layer 1 (Fail)
//Storyboard Layer 2 (Pass)
//Storyboard Layer 3 (Foreground)
//Storyboard Layer 4 (Overlay)
//Storyboard Sound Samples

[TimingPoints]
189,857.143,3,2,1,30,1,0
189,-73.5294117647059,3,2,1,30,0,0
45333,631.578947368421,3,2,1,30,1,1
45333,-100,3,2,1,30,0,1
75658,631.578947368421,3,2,1,30,1,0
75658,-100,3,2,1,30,0,0
109723,918.836,3,2,1,30,1,0
109723,-68.9655172413793,3,2,1,30,0,0
110641,909.091,3,2,1,30,1,0
110641,-69.4444444444444,3,2,1,30,0,0
111095,1034.48,3,2,1,30,1,0
111095,-60.9756097560976,3,2,1,30,0,0
111612,967.742,3,2,1,30,1,0
111612,-65.359477124183,3,2,1,30,0,0
112337,1111.11,3,2,1,30,1,0
112337,-56.8181818181818,3,2,1,30,0,0
112614,1000,3,2,1,30,1,0
112614,-63.2911392405063,3,2,1,30,0,0
113114,857.143,3,2,1,30,1,0
113114,-73.5294117647059,3,2,1,30,0,0
113542,898.876,3,2,1,30,1,0
113542,-70.4225352112676,3,2,1,30,0,0
113991,1034.48,3,2,1,30,1,0
113991,-60.9756097560976,3,2,1,30,0,0
114508,902.256,3,2,1,30,1,0
114508,-69.9300699300699,3,2,1,30,0,0
115184,1395.35,3,2,1,30,1,0
115184,-45.2488687782805,3,2,1,30,0,0
115532,967.742,3,2,1,30,1,0
115532,-65.359477124183,3,2,1,30,0,0
116015,863.309,3,2,1,30,1,0
116015,-72.992700729927,3,2,1,30,0,0
116446,1054.7,3,2,1,30,1,0
116446,-59.8802395209581,3,2,1,30,0,0
116973,1111.11,3,2,1,30,1,0
116973,-56.8181818181818,3,2,1,30,0,0
117528,1379.31,3,2,1,30,1,0
117528,-45.8715596330275,3,2,1,30,0,0
118562,1000,3,2,1,30,1,0
118562,-63.2911392405063,3,2,1,30,0,0
120562,950.119,3,2,1,30,1,0
120562,-66.6666666666667,3,2,1,30,0,0

[HitObjects]
448,192,189,128,0,617:0:0:0:70:G#5R_Ab5R.wav
64,192,189,1,0,0:0:0:0:
192,192,189,1,0,0:0:0:0:
320,192,617,128,0,1046:0:0:0:70:B4R.wav
192,192,617,1,0,0:0:0:0:
448,192,1046,1,0,0:0:0:70:F#5R_Gb5R.wav
64,192,1046,128,0,1474:0:0:0:0:
192,192,1474,128,0,1903:0:0:0:70:B4R.wav
320,192,1474,1,0,0:0:0:0:
448,192,1903,128,0,2546:0:0:0:70:A5R.wav
320,192,1903,1,0,0:0:0:0:
64,192,2546,128,0,2760:0:0:0:70:G#5R_Ab5R.wav
192,192,2760,1,0,0:0:0:70:G#5R_Ab5R.wav
320,192,2760,128,0,3189:0:0:0:0:
448,192,2760,1,0,0:0:0:0:
448,192,3189,1,0,0:0:0:0:
64,192,3189,128,0,3617:0:0:0:70:B4R.wav
192,192,3617,128,0,4046:0:0:0:70:F#5R_Gb5R.wav
320,192,3617,1,0,0:0:0:0:
320,192,4046,128,0,4474:0:0:0:70:B4R.wav
448,192,4046,1,0,0:0:0:0:
64,192,4474,1,0,0:0:0:70:A5R.wav
448,192,4474,128,0,5117:0:0:0:0:
192,192,5117,128,0,5331:0:0:0:70:G#5R_Ab5R.wav
320,192,5331,1,0,0:0:0:70:G#5R_Ab5R.wav
64,192,5331,128,0,5760:0:0:0:0:
448,192,5331,1,0,0:0:0:0:
320,192,5760,128,0,6189:0:0:0:70:B4R.wav
448,192,5760,1,0,0:0:0:0:
64,192,6189,1,0,0:0:0:70:F#5R_Gb5R.wav
192,192,6189,128,0,6617:0:0:0:0:
448,192,6617,128,0,7046:0:0:0:70:B4R.wav
320,192,6617,1,0,0:0:0:0:
64,192,7046,1,0,0:0:0:70:A5R.wav
192,192,7046,128,0,7689:0:0:0:0:
448,192,7689,128,0,7903:0:0:0:70:G#5R_Ab5R.wav
192,192,7903,1,0,0:0:0:70:C#5R_Db5R.wav
64,192,7903,128,0,8760:0:0:0:0:
320,192,7903,1,0,0:0:0:0:
192,192,8760,1,0,0:0:0:70:D#5R_Eb5R.wav
448,192,8760,1,0,0:0:0:0:
320,192,8760,128,0,9617:0:0:0:0:
64,192,9617,1,0,0:0:0:70:E5R.wav
448,192,9617,1,0,0:0:0:0:
192,192,9617,128,0,10474:0:0:0:0:
448,192,10474,128,0,10903:0:0:0:70:G#5R_Ab5R.wav
64,192,10474,1,0,0:0:0:0:
320,192,10474,1,0,0:0:0:0:
192,192,10903,128,0,11331:0:0:0:70:B4R.wav
320,192,10903,1,0,0:0:0:0:
448,192,11331,1,0,0:0:0:70:F#5R_Gb5R.wav
64,192,11331,128,0,11760:0:0:0:0:
448,192,11760,128,0,12189:0:0:0:70:B4R.wav
192,192,11760,1,0,0:0:0:0:
320,192,12189,1,0,0:0:0:0:
64,192,12189,128,0,12831:0:0:0:70:A5R.wav
448,192,12831,128,0,13046:0:0:0:70:G#5R_Ab5R.wav
320,192,13046,1,0,0:0:0:70:G#5R_Ab5R.wav
192,192,13046,128,0,13474:0:0:0:0:
64,192,13046,1,0,0:0:0:0:
64,192,13474,128,0,13903:0:0:0:70:B4R.wav
448,192,13474,1,0,0:0:0:0:
448,192,13903,1,0,0:0:0:70:D#5R_Eb5R.wav
320,192,13903,128,0,14331:0:0:0:0:
64,192,14331,128,0,14760:0:0:0:70:B4R.wav
192,192,14331,1,0,0:0:0:0:
448,192,14760,1,0,0:0:0:70:A5R.wav
320,192,14760,128,0,15403:0:0:0:0:
448,192,15403,128,0,15617:0:0:0:70:G#5R_Ab5R.wav
192,192,15617,1,0,0:0:0:70:G#5R_Ab5R.wav
64,192,15617,128,0,16046:0:0:0:0:
320,192,15617,1,0,0:0:0:0:
448,192,16046,128,0,16474:0:0:0:70:B4R.wav
192,192,16046,1,0,0:0:0:0:
320,192,16474,128,0,16903:0:0:0:70:F#5R_Gb5R.wav
64,192,16474,1,0,0:0:0:0:
64,192,16903,128,0,17331:0:0:0:70:B4R.wav
192,192,16903,1,0,0:0:0:0:
320,192,17331,1,0,0:0:0:70:A5R.wav
448,192,17331,128,0,17974:0:0:0:0:
192,192,17974,128,0,18189:0:0:0:70:G#5R_Ab5R.wav
320,192,18189,128,0,19046:0:0:0:70:C#5R_Db5R.wav
448,192,18189,1,0,0:0:0:0:
64,192,18189,1,0,0:0:0:0:
192,192,19046,1,0,0:0:0:70:D#5R_Eb5R.wav
448,192,19046,1,0,0:0:0:0:
64,192,19046,128,0,19903:0:0:0:0:
320,192,19903,1,0,0:0:0:70:E5R.wav
448,192,19903,1,0,0:0:0:0:
192,192,19903,128,0,20760:0:0:0:0:
448,192,20760,128,0,23331:0:0:0:35:C#5R_Db5R.wav
320,192,20760,1,0,0:0:0:35:G#5R_Ab5R.wav
64,192,20760,1,0,0:0:0:0:
192,192,23331,1,0,0:0:0:70:C#5R_Db5R.wav
64,192,23331,128,0,25903:0:0:0:0:
320,192,23331,1,0,0:0:0:0:
192,192,25903,1,0,0:0:0:35:D#5R_Eb5R.wav
320,192,25903,1,0,0:0:0:35:B4R.wav
448,192,25903,128,0,26760:0:0:0:0:
64,192,26760,1,0,0:0:0:70:C#5R_Db5R.wav
192,192,26760,128,0,27617:0:0:0:0:
448,192,27617,1,0,0:0:0:70:D#5R_Eb5R.wav
320,192,27617,128,0,28474:0:0:0:0:
64,192,27617,1,0,0:0:0:0:
192,192,28474,1,0,0:0:0:70:E5R.wav
64,192,28474,128,0,31046:0:0:0:0:
448,192,28474,1,0,0:0:0:0:
448,192,31046,128,0,33617:0:0:0:70:E4R.wav
320,192,31046,1,0,0:0:0:0:
64,192,33617,1,0,0:0:0:70:C#5R_Db5R.wav
320,192,33617,1,0,0:0:0:0:
192,192,33617,128,0,36189:0:0:0:0:
320,192,36189,1,0,0:0:0:35:B4R.wav
448,192,36189,128,0,37046:0:0:0:0:
64,192,36189,1,0,0:0:0:35:D#5R_Eb5R.wav
320,192,37046,1,0,0:0:0:70:C#5R_Db5R.wav
64,192,37046,1,0,0:0:0:0:
192,192,37046,128,0,38331:0:0:0:0:
448,192,38331,128,0,38760:0:0:0:35:D#5R_Eb5R.wav
320,192,38331,1,0,0:0:0:35:B4R.wav
64,192,38331,1,0,0:0:0:0:
192,192,38760,1,0,0:0:0:35:A5R.wav
320,192,38760,128,0,40474:0:0:0:35:E5R.wav
64,192,38760,1,0,0:0:0:0:
192,192,40474,128,0,41331:0:0:0:70:E6R.wav
64,192,40474,1,0,0:0:0:0:
448,192,41331,1,0,0:0:0:70:E7R.wav
64,192,42617,128,0,45331:0:0:0:0:
448,192,45331,128,0,45648:0:0:0:70:G#6R_Ab6R.wav
192,192,45331,1,0,0:0:0:0:
320,192,45331,1,0,0:0:0:0:
192,192,45648,128,0,45964:0:0:0:70:B5R.wav
320,192,45648,1,0,0:0:0:0:
320,192,45964,128,0,46280:0:0:0:70:F#6R_Gb6R.wav
64,192,45964,1,0,0:0:0:0:
192,192,46280,128,0,46596:0:0:0:70:B5R.wav
448,192,46280,1,0,0:0:0:0:
64,192,46596,128,0,46911:0:0:0:70:A6R.wav
448,192,46596,1,0,0:0:0:0:
192,192,46911,1,0,0:0:0:0:
320,192,47069,1,0,0:0:0:70:G#6R_Ab6R.wav
320,192,47227,128,0,47543:0:0:0:70:G#6R_Ab6R.wav
448,192,47227,1,0,0:0:0:0:
64,192,47227,1,0,0:0:0:0:
192,192,47543,128,0,47859:0:0:0:70:B5R.wav
64,192,47543,1,0,0:0:0:0:
448,192,47859,128,0,48175:0:0:0:70:F#6R_Gb6R.wav
320,192,47859,1,0,0:0:0:0:
192,192,48175,128,0,48490:0:0:0:70:B5R.wav
64,192,48175,1,0,0:0:0:0:
64,192,48490,128,0,48806:0:0:0:70:A6R.wav
320,192,48490,1,0,0:0:0:0:
448,192,48806,1,0,0:0:0:0:
320,192,48964,1,0,0:0:0:70:G#6R_Ab6R.wav
320,192,49122,128,0,49438:0:0:0:70:G#6R_Ab6R.wav
192,192,49122,1,0,0:0:0:0:
64,192,49122,1,0,0:0:0:0:
448,192,49438,128,0,49754:0:0:0:70:B5R.wav
192,192,49438,1,0,0:0:0:0:
192,192,49754,128,0,50069:0:0:0:70:F#6R_Gb6R.wav
64,192,49754,1,0,0:0:0:0:
448,192,50069,128,0,50385:0:0:0:70:B5R.wav
320,192,50069,1,0,0:0:0:0:
64,192,50385,128,0,50701:0:0:0:70:A6R.wav
320,192,50385,1,0,0:0:0:0:
448,192,50701,1,0,0:0:0:0:
320,192,50859,1,0,0:0:0:70:G#6R_Ab6R.wav
64,192,51017,1,0,0:0:0:70:F#6R_Gb6R.wav
448,192,51017,128,0,51333:0:0:0:0:
192,192,51017,1,0,0:0:0:0:
64,192,51333,128,0,51648:0:0:0:70:B5R.wav
320,192,51333,1,0,0:0:0:0:
448,192,51648,1,0,0:0:0:70:E6R.wav
192,192,51648,128,0,51964:0:0:0:0:
64,192,51964,128,0,52280:0:0:0:70:B5R.wav
320,192,51964,1,0,0:0:0:0:
192,192,52280,1,0,0:0:0:70:D#6R_Eb6R.wav
448,192,52280,128,0,52596:0:0:0:0:
320,192,52596,1,0,0:0:0:70:E6R.wav
192,192,52596,128,0,52911:0:0:0:0:
320,192,52911,1,0,0:0:0:70:G#6R_Ab6R.wav
448,192,52911,128,0,53227:0:0:0:0:
64,192,52911,1,0,0:0:0:0:
64,192,53227,128,0,53543:0:0:0:70:B5R.wav
192,192,53227,1,0,0:0:0:0:
320,192,53543,128,0,53859:0:0:0:70:F#6R_Gb6R.wav
192,192,53543,1,0,0:0:0:0:
64,192,53859,128,0,54175:0:0:0:70:B5R.wav
448,192,53859,1,0,0:0:0:0:
448,192,54175,128,0,54490:0:0:0:70:A6R.wav
320,192,54175,1,0,0:0:0:0:
64,192,54490,1,0,0:0:0:0:
192,192,54648,1,0,0:0:0:70:G#6R_Ab6R.wav
320,192,54806,1,0,0:0:0:0:
192,192,54806,128,0,55122:0:0:0:70:G#6R_Ab6R.wav
448,192,54806,1,0,0:0:0:0:
448,192,55122,128,0,55438:0:0:0:70:B5R.wav
64,192,55122,1,0,0:0:0:0:
64,192,55438,128,0,55754:0:0:0:70:F#6R_Gb6R.wav
320,192,55438,1,0,0:0:0:0:
192,192,55754,128,0,56069:0:0:0:70:B5R.wav
448,192,55754,1,0,0:0:0:0:
448,192,56069,128,0,56385:0:0:0:70:A6R.wav
320,192,56069,1,0,0:0:0:0:
64,192,56385,1,0,0:0:0:0:
192,192,56543,1,0,0:0:0:70:G#6R_Ab6R.wav
192,192,56701,128,0,57017:0:0:0:70:G#6R_Ab6R.wav
64,192,56701,1,0,0:0:0:0:
448,192,56701,1,0,0:0:0:0:
448,192,57017,128,0,57333:0:0:0:70:B5R.wav
320,192,57017,1,0,0:0:0:0:
192,192,57333,128,0,57648:0:0:0:70:F#6R_Gb6R.wav
64,192,57333,1,0,0:0:0:0:
448,192,57648,128,0,57964:0:0:0:70:B5R.wav
320,192,57648,1,0,0:0:0:0:
64,192,57964,128,0,58280:0:0:0:70:A6R.wav
192,192,57964,1,0,0:0:0:0:
320,192,58280,1,0,0:0:0:0:
448,192,58438,1,0,0:0:0:70:G#6R_Ab6R.wav
192,192,58596,128,0,58911:0:0:0:70:F#6R_Gb6R.wav
320,192,58596,1,0,0:0:0:0:
64,192,58596,1,0,0:0:0:0:
320,192,58911,128,0,59227:0:0:0:70:B5R.wav
448,192,58911,1,0,0:0:0:0:
64,192,59227,128,0,59543:0:0:0:70:E6R.wav
192,192,59227,1,0,0:0:0:0:
320,192,59543,128,0,59859:0:0:0:70:B5R.wav
448,192,59543,1,0,0:0:0:0:
448,192,59859,128,0,60175:0:0:0:70:D#6R_Eb6R.wav
64,192,59859,1,0,0:0:0:0:
64,192,60175,128,0,60490:0:0:0:70:E6R.wav
320,192,60175,1,0,0:0:0:0:
192,192,60490,128,0,60806:0:0:0:70:G#6R_Ab6R.wav
448,192,60490,1,0,0:0:0:0:
320,192,60490,1,0,0:0:0:0:
320,192,60806,128,0,61122:0:0:0:70:B5R.wav
64,192,60806,1,0,0:0:0:0:
448,192,61122,128,0,61438:0:0:0:70:F#6R_Gb6R.wav
192,192,61122,1,0,0:0:0:0:
320,192,61438,128,0,61754:0:0:0:70:B5R.wav
64,192,61438,1,0,0:0:0:0:
64,192,61754,128,0,62069:0:0:0:70:A6R.wav
192,192,61754,1,0,0:0:0:0:
320,192,62069,1,0,0:0:0:0:
448,192,62227,1,0,0:0:0:70:G#6R_Ab6R.wav
448,192,62385,128,0,62701:0:0:0:70:G#6R_Ab6R.wav
64,192,62385,1,0,0:0:0:0:
192,192,62385,1,0,0:0:0:0:
192,192,62701,128,0,63017:0:0:0:70:B5R.wav
320,192,62701,1,0,0:0:0:0:
64,192,63017,128,0,63333:0:0:0:70:F#6R_Gb6R.wav
448,192,63017,1,0,0:0:0:0:
448,192,63333,128,0,63648:0:0:0:70:B5R.wav
320,192,63333,1,0,0:0:0:0:
192,192,63648,128,0,63964:0:0:0:70:A6R.wav
64,192,63648,1,0,0:0:0:0:
320,192,63964,1,0,0:0:0:0:
448,192,64122,1,0,0:0:0:70:G#6R_Ab6R.wav
448,192,64280,128,0,64596:0:0:0:70:G#6R_Ab6R.wav
192,192,64280,1,0,0:0:0:0:
64,192,64280,1,0,0:0:0:0:
64,192,64596,128,0,64911:0:0:0:70:B5R.wav
320,192,64596,1,0,0:0:0:0:
448,192,64911,128,0,65227:0:0:0:70:F#6R_Gb6R.wav
192,192,64911,1,0,0:0:0:0:
320,192,65227,1,0,0:0:0:0:
64,192,65227,128,0,65543:0:0:0:70:B5R.wav
192,192,65543,128,0,65859:0:0:0:70:A6R.wav
448,192,65543,1,0,0:0:0:0:
320,192,65859,1,0,0:0:0:0:
448,192,66017,1,0,0:0:0:70:G#6R_Ab6R.wav
320,192,66175,128,0,66490:0:0:0:70:F#6R_Gb6R.wav
192,192,66175,1,0,0:0:0:0:
64,192,66175,1,0,0:0:0:0:
192,192,66490,128,0,66806:0:0:0:70:B5R.wav
64,192,66490,1,0,0:0:0:0:
448,192,66806,128,0,67122:0:0:0:70:E6R.wav
320,192,66806,1,0,0:0:0:0:
192,192,67122,128,0,67438:0:0:0:70:B5R.wav
64,192,67122,1,0,0:0:0:0:
64,192,67438,128,0,67754:0:0:0:70:D#6R_Eb6R.wav
448,192,67438,1,0,0:0:0:0:
448,192,67754,128,0,68069:0:0:0:70:E6R.wav
320,192,67754,1,0,0:0:0:0:
192,192,68069,128,0,68385:0:0:0:70:G#6R_Ab6R.wav
320,192,68069,1,0,0:0:0:0:
64,192,68069,1,0,0:0:0:0:
320,192,68385,128,0,68701:0:0:0:70:B5R.wav
448,192,68385,1,0,0:0:0:0:
192,192,68701,128,0,69017:0:0:0:70:F#6R_Gb6R.wav
64,192,68701,1,0,0:0:0:0:
320,192,69017,128,0,69333:0:0:0:70:B5R.wav
448,192,69017,1,0,0:0:0:0:
448,192,69333,128,0,69648:0:0:0:70:A6R.wav
64,192,69333,1,0,0:0:0:0:
192,192,69648,1,0,0:0:0:0:
64,192,69806,1,0,0:0:0:70:G#6R_Ab6R.wav
64,192,69964,128,0,70280:0:0:0:70:G#6R_Ab6R.wav
320,192,69964,1,0,0:0:0:0:
192,192,69964,1,0,0:0:0:0:
448,192,70280,128,0,70596:0:0:0:70:B5R.wav
320,192,70280,1,0,0:0:0:0:
64,192,70596,128,0,70911:0:0:0:70:F#6R_Gb6R.wav
192,192,70596,1,0,0:0:0:0:
448,192,70911,128,0,71227:0:0:0:70:B5R.wav
320,192,70911,1,0,0:0:0:0:
320,192,71227,128,0,71543:0:0:0:70:A6R.wav
64,192,71227,1,0,0:0:0:0:
192,192,71543,1,0,0:0:0:0:
64,192,71701,1,0,0:0:0:70:G#6R_Ab6R.wav
64,192,71859,128,0,72175:0:0:0:70:G#6R_Ab6R.wav
320,192,71859,1,0,0:0:0:0:
448,192,71859,1,0,0:0:0:0:
192,192,72175,128,0,72490:0:0:0:70:B5R.wav
448,192,72490,128,0,72806:0:0:0:70:F#6R_Gb6R.wav
320,192,72490,1,0,0:0:0:0:
64,192,72806,128,0,73122:0:0:0:70:B5R.wav
192,192,72806,1,0,0:0:0:0:
320,192,73122,128,0,73438:0:0:0:70:A6R.wav
448,192,73122,1,0,0:0:0:0:
192,192,73438,1,0,0:0:0:0:
448,192,73596,1,0,0:0:0:70:G#6R_Ab6R.wav
192,192,73754,128,0,74069:0:0:0:70:F#6R_Gb6R.wav
320,192,73754,1,0,0:0:0:0:
64,192,73754,1,0,0:0:0:0:
448,192,74069,128,0,74385:0:0:0:70:B5R.wav
320,192,74069,1,0,0:0:0:0:
64,192,74385,128,0,74701:0:0:0:70:E6R.wav
192,192,74385,1,0,0:0:0:0:
320,192,74701,128,0,75017:0:0:0:70:B5R.wav
448,192,74701,1,0,0:0:0:0:
192,192,75017,128,0,75333:0:0:0:70:D#6R_Eb6R.wav
64,192,75017,1,0,0:0:0:0:
448,192,75333,128,0,75658:0:0:0:70:E6R.wav
320,192,75333,1,0,0:0:0:0:
320,192,75658,1,0,0:0:0:0:
192,192,75658,1,0,0:0:0:0:
64,192,75658,1,0,0:0:0:70:C#6R_Db6R.wav
64,192,76289,1,0,0:0:0:0:
448,192,76921,1,0,0:0:0:0:
320,192,77079,1,0,0:0:0:0:
192,192,77236,1,0,0:0:0:0:
448,192,77552,128,0,78184:0:0:0:70:D#6R_Eb6R.wav
320,192,77552,1,0,0:0:0:0:
64,192,78184,128,0,79131:0:0:0:70:C#6R_Db6R.wav
192,192,78184,1,0,0:0:0:0:
192,192,78815,1,0,0:0:0:0:
448,192,79131,128,0,79447:0:0:0:70:D#6R_Eb6R.wav
320,192,79131,1,0,0:0:0:0:
192,192,79447,128,0,81342:0:0:0:70:E6R.wav
320,192,79447,1,0,0:0:0:0:
448,192,80079,1,0,0:0:0:0:
448,192,80710,1,0,0:0:0:0:
320,192,80868,1,0,0:0:0:0:
64,192,81026,1,0,0:0:0:0:
448,192,81342,1,0,0:0:0:70:E5R.wav
320,192,81342,128,0,83236:0:0:0:0:
64,192,81815,1,0,0:0:0:0:
192,192,81973,1,0,0:0:0:0:
448,192,82184,1,0,0:0:0:0:
192,192,82605,1,0,0:0:0:0:
192,192,83236,1,0,0:0:0:70:C#6R_Db6R.wav
64,192,83236,128,0,85131:0:0:0:0:
448,192,83868,1,0,0:0:0:0:
448,192,84500,1,0,0:0:0:0:
320,192,84658,1,0,0:0:0:0:
192,192,84815,1,0,0:0:0:0:
320,192,85131,1,0,0:0:0:70:D#6R_Eb6R.wav
448,192,85131,128,0,85763:0:0:0:0:
64,192,85605,1,0,0:0:0:0:
320,192,85763,1,0,0:0:0:70:C#6R_Db6R.wav
192,192,85763,128,0,86710:0:0:0:0:
64,192,85973,1,0,0:0:0:0:
64,192,86394,1,0,0:0:0:0:
320,192,86710,1,0,0:0:0:70:F#6R_Gb6R.wav
448,192,86710,128,0,87026:0:0:0:0:
64,192,87026,128,0,88921:0:0:0:70:E6R.wav
192,192,87026,1,0,0:0:0:0:
448,192,87658,1,0,0:0:0:0:
448,192,88289,1,0,0:0:0:0:
320,192,88447,1,0,0:0:0:0:
192,192,88605,1,0,0:0:0:0:
448,192,88921,1,0,0:0:0:70:E5R.wav
320,192,88921,128,0,90500:0:0:0:0:
192,192,89394,1,0,0:0:0:0:
64,192,89552,1,0,0:0:0:0:
192,192,89763,1,0,0:0:0:0:
64,192,90184,1,0,0:0:0:0:
192,192,90500,128,0,90815:0:0:0:70:A5R.wav
448,192,90500,1,0,0:0:0:0:
64,192,90815,128,0,92710:0:0:0:70:C#6R_Db6R.wav
320,192,90815,1,0,0:0:0:0:
448,192,91447,1,0,0:0:0:0:
192,192,92079,1,0,0:0:0:0:
320,192,92236,1,0,0:0:0:0:
448,192,92394,1,0,0:0:0:0:
320,192,92710,1,0,0:0:0:70:D#6R_Eb6R.wav
448,192,92710,128,0,93342:0:0:0:0:
64,192,93184,1,0,0:0:0:0:
320,192,93342,1,0,0:0:0:70:C#6R_Db6R.wav
192,192,93342,128,0,94289:0:0:0:0:
448,192,93552,1,0,0:0:0:0:
64,192,93973,1,0,0:0:0:0:
320,192,94289,128,0,94605:0:0:0:70:D#6R_Eb6R.wav
448,192,94289,1,0,0:0:0:0:
448,192,94605,128,0,96184:0:0:0:70:E6R.wav
64,192,94605,1,0,0:0:0:0:
320,192,95236,1,0,0:0:0:0:
192,192,95868,1,0,0:0:0:0:
64,192,96026,1,0,0:0:0:0:
192,192,96184,128,0,96500:0:0:0:70:A5R.wav
320,192,96184,1,0,0:0:0:0:
448,192,96500,1,0,0:0:0:70:G#6R_Ab6R.wav
64,192,96500,128,0,97131:0:0:0:0:
448,192,96973,1,0,0:0:0:0:
192,192,97131,1,0,0:0:0:70:F#6R_Gb6R.wav
320,192,97131,128,0,98394:0:0:0:0:
448,192,97342,1,0,0:0:0:0:
64,192,97763,1,0,0:0:0:0:
448,192,98394,1,0,0:0:0:70:C#6R_Db6R.wav
64,192,98394,128,0,99973:0:0:0:0:
320,192,99026,1,0,0:0:0:0:
192,192,99658,1,0,0:0:0:0:
448,192,99815,1,0,0:0:0:0:
192,192,99973,128,0,100289:0:0:0:70:A5R.wav
320,192,99973,1,0,0:0:0:0:
320,192,100289,1,0,0:0:0:70:D#6R_Eb6R.wav
448,192,100289,128,0,100921:0:0:0:0:
320,192,100763,1,0,0:0:0:0:
64,192,100921,128,0,101868:0:0:0:70:C#6R_Db6R.wav
192,192,100921,1,0,0:0:0:0:
320,192,101131,1,0,0:0:0:0:
448,192,101552,1,0,0:0:0:0:
192,192,101868,128,0,102184:0:0:0:70:F#6R_Gb6R.wav
320,192,101868,1,0,0:0:0:0:
448,192,102184,128,0,104079:0:0:0:70:E6R.wav
64,192,102184,1,0,0:0:0:0:
64,192,102815,1,0,0:0:0:0:
320,192,103447,1,0,0:0:0:0:
192,192,103605,1,0,0:0:0:0:
64,192,103763,1,0,0:0:0:0:
192,192,104079,1,0,0:0:0:70:E5R.wav
320,192,104079,128,0,105973:0:0:0:0:
64,192,104552,1,0,0:0:0:0:
192,192,104710,1,0,0:0:0:0:
448,192,104921,1,0,0:0:0:0:
192,192,105342,1,0,0:0:0:0:
64,192,105973,128,0,109723:0:0:0:70:E7R.wav
448,192,105973,1,0,0:0:0:0:
448,192,109723,128,0,110182:0:0:0:70:G#5R_Ab5R.wav
192,192,109723,1,0,0:0:0:0:
64,192,110182,128,0,110641:0:0:0:70:B4R.wav
320,192,110182,1,0,0:0:0:0:
320,192,110641,128,0,111095:0:0:0:70:F#5R_Gb5R.wav
192,192,110641,1,0,0:0:0:0:
448,192,111095,128,0,111612:0:0:0:70:B4R.wav
64,192,111095,1,0,0:0:0:0:
320,192,111612,128,0,112337:0:0:0:0:
192,192,111612,1,0,0:0:0:70:A5R.wav
64,192,112337,128,0,112614:0:0:0:70:G#5R_Ab5R.wav
192,192,112337,1,0,0:0:0:0:
448,192,112614,128,0,113114:0:0:0:0:
320,192,112614,1,0,0:0:0:70:G#5R_Ab5R.wav
64,192,113114,1,0,0:0:0:0:
320,192,113114,128,0,113542:0:0:0:70:B4R.wav
192,192,113542,1,0,0:0:0:0:
64,192,113542,128,0,113991:0:0:0:70:F#5R_Gb5R.wav
320,192,113991,128,0,114508:0:0:0:0:
448,192,113991,1,0,0:0:0:70:B4R.wav
192,192,114508,128,0,115184:0:0:0:70:A5R.wav
64,192,114508,1,0,0:0:0:0:
448,192,115184,128,0,115532:0:0:0:70:G#5R_Ab5R.wav
320,192,115184,1,0,0:0:0:0:
64,192,115532,128,0,116015:0:0:0:0:
192,192,115532,1,0,0:0:0:70:G#5R_Ab5R.wav
320,192,116015,128,0,116446:0:0:0:0:
192,192,116015,1,0,0:0:0:70:B4R.wav
448,192,116446,1,0,0:0:0:70:F#5R_Gb5R.wav
64,192,116446,128,0,116973:0:0:0:0:
192,192,116973,1,0,0:0:0:70:B4R.wav
448,192,116973,128,0,117528:0:0:0:0:
64,192,117528,128,0,118562:0:0:0:0:
320,192,117528,1,0,0:0:0:70:A5R.wav
320,192,118562,128,0,120395:0:0:0:30:G#5R_Ab5R.wav
448,192,118562,1,0,0:0:0:0:
192,192,120395,128,0,123412:0:0:0:35:B4R.wav
64,192,120562,128,0,123412:0:0:0:70:E5R.wav
448,192,123412,128,0,129271:0:0:0:70:E4R.wav
