osu file format v14

[General]
AudioFilename: audio.mp3
AudioLeadIn: 0
PreviewTime: 8911
Countdown: 0
SampleSet: Soft
StackLeniency: 0.7
Mode: 0
LetterboxInBreaks: 0
WidescreenStoryboard: 0

[Editor]
Bookmarks: 10267,10329,10390,14816,16783,18751,20718,22685,24652,26620,28584
DistanceSpacing: 0.5
BeatDivisor: 4
GridSize: 4
TimelineZoom: 1

[Metadata]
Title:Ping Pong Phase
TitleUnicode:Ping Pong Phase
Artist:Kensuke Ushio
ArtistUnicode:Kensuke Ushio
Creator:-NeBu-
Version:People Can Fly
Source:ピンポン THE ANIMATION
Tags:ping pong the animation ppta
BeatmapID:1833818
BeatmapSetID:877016

[Difficulty]
HPDrainRate:4
CircleSize:4
OverallDifficulty:9.6
ApproachRate:10
SliderMultiplier:1.9
SliderTickRate:1

[Events]
//Background and Video events
0,0,"4cdwnqv.jpg",0,0
//Break Periods
//Storyboard Layer 0 (Background)
//Storyboard Layer 1 (Fail)
//Storyboard Layer 2 (Pass)
//Storyboard Layer 3 (Foreground)
//Storyboard Sound Samples

[TimingPoints]
1289,491.803278688525,4,2,1,50,1,0
9161,245.901639344262,4,2,1,70,1,0
9161,-71.4285714285714,4,2,1,70,0,0
16783,-71.4285714285714,4,2,1,75,0,0
18751,-71.4285714285714,4,2,1,80,0,0
20718,-71.4285714285714,4,2,1,85,0,0
22685,-71.4285714285714,4,2,1,90,0,0
24652,-71.4285714285714,4,2,1,95,0,0

[Colours]
Combo1 : 255,0,128
Combo2 : 12,159,190
SliderBorder : 186,85,211
SliderTrackOverride : 75,106,125

[HitObjects]
89,242,1289,5,8,0:0:0:0:
423,142,2149,5,8,0:0:0:0:
89,242,2272,1,8,0:0:0:0:
89,242,3133,5,8,0:0:0:0:
423,142,3256,1,8,0:0:0:0:
51,51,3748,5,8,0:0:0:0:
202,320,4116,5,8,0:0:0:0:
256,1,4239,1,8,0:0:0:0:
392,211,4731,5,8,0:0:0:0:
107,131,5100,5,8,0:0:0:0:
380,214,5223,5,8,0:0:0:0:
163,263,5346,1,8,0:0:0:0:
397,182,5469,1,8,0:0:0:0:
171,41,5715,5,8,0:0:0:0:
207,343,5961,1,8,0:0:0:0:
184,162,6084,1,8,0:0:0:0:
115,373,6207,5,8,0:0:0:0:
10,120,6452,1,8,0:0:0:0:
316,247,6698,1,8,0:0:0:0:
308,236,6760,2,2,L|287:239,1,16.25
182,315,6944,5,8,0:0:0:0:
383,367,7067,1,8,0:0:0:0:
247,102,7190,1,8,0:0:0:0:
341,346,7313,1,8,0:0:0:0:
432,125,7436,1,8,0:0:0:0:
263,308,7559,1,8,0:0:0:0:
509,230,7682,1,8,0:0:0:0:
152,112,7928,5,8,0:0:0:0:
261,230,8051,1,8,0:0:0:0:
307,42,8174,1,8,0:0:0:0:
123,222,8297,1,8,0:0:0:0:
138,227,8358,1,8,0:0:0:0:
154,232,8420,2,0,P|113:262|93:304,1,95,8|0,0:0|0:0,0:0:0:0:
164,138,8911,2,2,P|144:136|128:128,2,23.75
280,56,9161,5,12,0:0:0:0:
156,168,9283,1,8,0:0:0:0:
384,56,9406,1,8,0:0:0:0:
140,176,9529,1,8,0:0:0:0:
408,69,9652,2,0,L|432:200,1,132.999995941162,8|0,0:0|0:0,0:0:0:0:
264,32,9898,5,8,0:0:0:0:
348,344,10021,1,8,0:0:0:0:
120,92,10144,1,8,0:0:0:0:
192,320,10267,2,8,L|120:332,2,66.4999979705811
436,228,10513,1,8,0:0:0:0:
144,112,10636,1,8,0:0:0:0:
344,244,10759,1,8,0:0:0:0:
72,192,10882,5,12,0:0:0:0:
440,48,11005,1,8,0:0:0:0:
72,192,11128,2,0,P|48:220|16:316,1,132.999995941162,8|0,0:0|0:0,0:0:0:0:
440,192,11374,1,8,0:0:0:0:
72,48,11497,1,8,0:0:0:0:
440,192,11620,2,0,P|464:220|496:316,1,132.999995941162,8|0,0:0|0:0,0:0:0:0:
239,200,11865,5,8,0:0:0:0:
440,64,11988,1,8,0:0:0:0:
356,320,12111,1,8,0:0:0:0:
184,48,12234,1,8,0:0:0:0:
465,201,12357,2,0,L|325:229,1,132.999995941162,8|0,0:0|0:0,0:0:0:0:
40,36,12603,2,0,L|180:64,1,132.999995941162,8|0,0:0|0:0,0:0:0:0:
328,240,12849,5,12,0:0:0:0:
380,12,12972,1,8,0:0:0:0:
140,88,13095,1,8,0:0:0:0:
352,256,13218,1,8,0:0:0:0:
200,20,13341,1,8,0:0:0:0:
112,304,13464,1,8,0:0:0:0:
200,20,13587,1,8,0:0:0:0:
360,340,13710,1,8,0:0:0:0:
7,103,13833,6,0,B|72:93|72:93|69:98|69:98|143:87,1,132.999995941162,8|0,0:0|0:0,0:0:0:0:
505,103,14079,2,0,B|440:93|440:93|443:98|443:98|369:87,1,132.999995941162,8|0,0:0|0:0,0:0:0:0:
7,281,14324,2,0,B|72:291|72:291|69:286|69:286|143:297,1,132.999995941162,8|0,0:0|0:0,0:0:0:0:
505,281,14570,2,0,B|440:291|440:291|443:286|443:286|369:297,1,132.999995941162,8|0,0:0|0:0,0:0:0:0:
208,152,14816,5,12,0:0:0:0:
392,108,14939,1,8,0:0:0:0:
152,280,15062,1,8,0:0:0:0:
412,316,15185,1,8,0:0:0:0:
184,136,15308,1,8,0:0:0:0:
412,80,15431,1,8,0:0:0:0:
280,292,15554,1,8,0:0:0:0:
168,40,15677,1,8,0:0:0:0:
433,60,15800,6,0,L|413:196,1,132.999995941162,8|0,0:0|0:0,0:0:0:0:
108,336,16046,2,0,L|88:204,1,132.999995941162,8|0,0:0|0:0,0:0:0:0:
208,364,16292,1,8,0:0:0:0:
296,96,16415,1,8,0:0:0:0:
396,336,16538,1,8,0:0:0:0:
424,12,16660,1,8,0:0:0:0:
30,84,16783,6,0,B|93:90|93:90|97:98|97:98|166:107,1,132.999995941162,14|0,0:0|0:0,0:0:0:0:
468,152,17029,1,8,0:0:0:0:
140,224,17152,1,8,0:0:0:0:
440,152,17275,1,8,0:0:0:0:
192,32,17398,1,8,0:0:0:0:
324,340,17521,1,8,0:0:0:0:
192,32,17644,1,8,0:0:0:0:
140,224,17767,6,0,L|116:368,1,132.999995941162,8|0,0:0|0:0,0:0:0:0:
284,88,18013,2,0,L|312:220,1,132.999995941162,8|0,0:0|0:0,0:0:0:0:
112,64,18259,1,8,0:0:0:0:
456,20,18382,1,8,0:0:0:0:
44,182,18505,1,8,0:0:0:0:
388,226,18628,1,8,0:0:0:0:
132,40,18751,5,14,0:0:0:0:
176,332,18874,1,8,0:0:0:0:
135,60,18997,1,8,0:0:0:0:
179,352,19120,1,8,0:0:0:0:
396,72,19242,1,8,0:0:0:0:
352,364,19365,1,8,0:0:0:0:
393,92,19488,1,8,0:0:0:0:
349,384,19611,1,8,0:0:0:0:
208,16,19734,5,8,0:0:0:0:
408,292,19857,1,8,0:0:0:0:
129,102,19980,2,0,P|113:202|113:250,2,132.999995941162,8|0|0,0:0|0:0|0:0,0:0:0:0:
320,16,20349,1,8,0:0:0:0:
128,364,20472,2,0,P|124:298|112:233,1,132.999995941162,8|0,0:0|0:0,0:0:0:0:
56,48,20718,5,14,0:0:0:0:
408,96,20841,1,8,0:0:0:0:
72,56,20964,1,8,0:0:0:0:
332,152,21087,1,8,0:0:0:0:
84,68,21210,1,8,0:0:0:0:
244,168,21333,1,8,0:0:0:0:
136,0,21456,1,8,0:0:0:0:
256,288,21579,1,8,0:0:0:0:
148,12,21701,5,8,0:0:0:0:
172,360,21824,1,8,0:0:0:0:
240,64,21947,1,8,0:0:0:0:
56,308,22070,1,8,0:0:0:0:
260,68,22193,1,8,0:0:0:0:
12,192,22316,1,8,0:0:0:0:
276,80,22439,1,8,0:0:0:0:
36,68,22562,1,8,0:0:0:0:
332,280,22685,5,14,0:0:0:0:
156,8,22808,1,8,0:0:0:0:
308,304,22931,1,8,0:0:0:0:
376,4,23054,1,8,0:0:0:0:
176,296,23177,1,8,0:0:0:0:
452,60,23300,1,8,0:0:0:0:
76,156,23423,1,8,0:0:0:0:
432,336,23546,1,8,0:0:0:0:
128,80,23669,5,8,0:0:0:0:
252,352,23792,1,8,0:0:0:0:
336,8,23915,1,8,0:0:0:0:
48,144,24038,1,8,0:0:0:0:
412,324,24160,1,8,0:0:0:0:
48,144,24283,1,8,0:0:0:0:
368,16,24406,1,8,0:0:0:0:
252,352,24529,1,8,0:0:0:0:
184,8,24652,5,14,0:0:0:0:
488,276,24775,1,8,0:0:0:0:
56,152,24898,1,8,0:0:0:0:
488,276,25021,1,8,0:0:0:0:
192,24,25144,1,8,0:0:0:0:
388,360,25267,1,8,0:0:0:0:
464,0,25390,1,8,0:0:0:0:
388,360,25513,1,8,0:0:0:0:
104,64,25636,5,8,0:0:0:0:
480,176,25759,1,8,0:0:0:0:
44,312,25882,1,8,0:0:0:0:
416,124,26005,1,8,0:0:0:0:
20,8,26128,1,8,0:0:0:0:
136,368,26251,1,8,0:0:0:0:
352,12,26374,1,8,0:0:0:0:
0,160,26497,1,8,0:0:0:0:
500,320,26620,5,14,0:0:0:0:
180,8,26742,1,8,0:0:0:0:
56,376,26865,1,8,0:0:0:0:
448,40,26988,1,8,0:0:0:0:
8,168,27111,1,8,0:0:0:0:
408,368,27234,1,8,0:0:0:0:
256,0,27357,1,8,0:0:0:0:
132,376,27480,1,8,0:0:0:0:
512,88,27603,5,8,0:0:0:0:
4,24,27726,1,8,0:0:0:0:
504,308,27849,1,8,0:0:0:0:
0,344,27972,1,8,0:0:0:0:
500,64,28095,1,8,0:0:0:0:
4,112,28218,1,8,0:0:0:0:
504,336,28341,1,8,0:0:0:0:
32,8,28464,1,8,0:0:0:0:
256,384,28587,5,14,0:0:0:0:
360,60,28833,5,8,0:0:0:0:
360,60,28956,1,8,0:0:0:0:
76,196,29386,5,8,0:0:0:0:
116,348,29755,5,8,0:0:0:0:
96,172,30062,1,8,0:0:0:0:
188,300,30370,1,8,0:0:0:0:
80,184,30615,5,8,0:0:0:0:
252,244,30861,5,8,0:0:0:0:
220,144,31107,5,8,0:0:0:0:
172,296,31292,5,8,0:0:0:0:
248,148,31476,5,8,0:0:0:0:
268,256,31660,5,8,0:0:0:0:
340,232,31783,5,8,0:0:0:0:
400,276,31906,5,8,0:0:0:0:
399,353,32029,5,8,0:0:0:0:
435,357,32152,5,8,0:0:0:0:
435,357,32214,5,8,0:0:0:0:
435,357,32275,6,8,L|507:365,8,66.4999979705811
