osu file format v14

[General]
AudioFilename: audio.mp3
AudioLeadIn: 0
PreviewTime: -1
Countdown: 1
SampleSet: None
StackLeniency: 0.7
Mode: 0
LetterboxInBreaks: 0
WidescreenStoryboard: 0

[Editor]
Bookmarks: 22360
DistanceSpacing: 1
BeatDivisor: 4
GridSize: 8
TimelineZoom: 1

[Metadata]
Title:Devilman No Uta
TitleUnicode:Devilman No Uta
Artist:Kensuke Ushio
ArtistUnicode:Kensuke Ushio
Creator:Dingamer12
Version:Hard
Source:
Tags:
BeatmapID:2057159
BeatmapSetID:983019

[Difficulty]
HPDrainRate:4
CircleSize:4
OverallDifficulty:6
ApproachRate:8
SliderMultiplier:1.8
SliderTickRate:1

[Events]
//Background and Video events
0,0,"wallapper.jpg",0,0
Video,0,"Backvid.mp4"
//Break Periods
2,101640,131410
//Storyboard Layer 0 (Background)
//Storyboard Layer 1 (Fail)
//Storyboard Layer 2 (Pass)
//Storyboard Layer 3 (Foreground)
//Storyboard Sound Samples

[TimingPoints]
1600,480,4,2,1,100,1,0
17200,-100,4,2,1,100,0,1
64960,-100,4,2,1,100,0,0

[HitObjects]
128,64,1600,6,0,L|280:176,1,180,6|2,0:0|0:0,0:0:0:0:
344,224,2320,1,0,0:0:0:0:
416,280,2560,2,0,L|472:104,1,180,2|2,0:0|0:0,0:0:0:0:
496,24,3280,1,0,0:0:0:0:
416,64,3520,2,0,P|344:136|248:136,1,180,2|2,0:0|0:0,0:0:0:0:
184,128,4240,1,0,0:0:0:0:
224,208,4480,2,0,P|320:272|384:304,1,180,2|2,0:0|0:0,0:0:0:0:
424,312,5080,1,0,0:0:0:0:
424,312,5200,2,0,L|344:344,1,45
344,344,5440,6,0,P|280:368|160:320,1,180,6|2,0:0|0:0,0:0:0:0:
104,288,6160,1,0,0:0:0:0:
160,216,6400,2,0,P|232:168|312:208,1,180,2|2,0:0|0:0,0:0:0:0:
272,288,7120,1,0,0:0:0:0:
192,240,7360,2,0,P|176:144|248:96,1,180,2|2,0:0|0:0,0:0:0:0:
320,96,8080,1,0,0:0:0:0:
384,160,8320,2,0,P|320:256|288:320,1,180,2|2,0:0|0:0,0:0:0:0:
256,352,8920,1,0,0:0:0:0:
256,352,9040,2,0,L|190:352,1,45
160,352,9280,6,0,P|108:328|99:204,1,180,6|2,0:0|0:0,0:0:0:0:
136,136,10000,1,0,0:0:0:0:
216,96,10240,2,0,P|276:127|263:241,1,180,2|2,0:0|0:0,0:0:0:0:
224,304,10960,1,0,0:0:0:0:
136,296,11200,2,0,P|121:230|216:166,1,180,2|2,0:0|0:0,0:0:0:0:
288,168,11920,1,0,0:0:0:0:
376,168,12160,2,0,P|447:108|497:26,1,180,2|2,0:0|0:0,0:0:0:0:
456,8,12760,1,0,0:0:0:0:
456,8,12880,2,0,L|396:12,1,45
368,8,13120,6,0,P|384:72|274:109,1,180,6|2,0:0|0:0,0:0:0:0:
208,112,13840,1,0,0:0:0:0:
120,88,14080,2,0,P|139:181|232:184,1,180,2|2,0:0|0:0,0:0:0:0:
296,160,14800,1,0,0:0:0:0:
368,104,15040,2,0,P|389:198|313:215,1,180,2|2,0:0|0:0,0:0:0:0:
240,200,15760,5,0,0:0:0:0:
240,200,16000,2,8,L|180:174,1,45,10|8,0:0|0:0,0:0:0:0:
160,160,16240,2,8,L|155:99,1,45
152,72,16480,2,8,L|96:48,1,45,10|8,0:0|0:0,0:0:0:0:
72,40,16720,2,8,L|176:32,1,90,8|14,0:0|0:0,0:0:0:0:
208,0,17200,5,0,0:0:0:0:
272,64,17440,2,0,L|345:152,1,90,2|0,0:0|0:0,0:0:0:0:
329,133,17800,1,0,0:0:0:0:
329,133,17920,2,0,L|422:101,1,90,2|0,0:0|0:0,0:0:0:0:
496,80,18400,1,6,0:0:0:0:
496,80,18760,5,0,0:0:0:0:
496,80,18880,2,0,L|434:167,1,90,2|0,0:0|0:0,0:0:0:0:
384,224,19360,1,6,0:0:0:0:
384,224,19720,5,0,0:0:0:0:
384,224,19840,2,0,L|271:172,1,90,2|0,0:0|0:0,0:0:0:0:
224,160,20320,1,6,0:0:0:0:
224,160,20800,6,0,B|168:145|168:145|138:175,2,90,2|0|2,0:0|0:0|0:0,0:0:0:0:
304,192,21520,1,0,0:0:0:0:
384,160,21760,2,0,B|440:145|440:145|470:175,2,90,2|0|2,0:0|0:0|0:0,0:0:0:0:
304,192,22480,5,0,0:0:0:0:
208,208,22720,1,0,0:0:0:0:
128,240,22960,1,0,0:0:0:0:
48,288,23200,2,0,B|130:373|130:373|226:381,1,180,2|0,0:0|0:0,0:0:0:0:
288,384,23920,1,0,0:0:0:0:
384,384,24160,2,0,P|308:318|299:237,1,180,2|0,0:0|0:0,0:0:0:0:
304,160,24880,6,8,L|419:191,1,90
390,183,25360,2,8,L|436:233,1,45
420,216,25720,2,8,L|405:274,1,45
408,259,26080,2,0,P|352:304|224:304,1,180,2|0,0:0|0:0,0:0:0:0:
160,304,26800,6,8,L|219:195,1,90
272,144,27280,2,8,L|356:211,1,90
352,288,27760,2,8,P|429:348|498:305,1,180
480,224,28480,5,0,0:0:0:0:
480,224,28720,1,0,0:0:0:0:
480,224,28960,2,0,B|428:182|434:134|374:102,1,135,2|0,0:0|0:0,0:0:0:0:
368,80,29440,6,0,P|315:58|305:60,2,45,2|0|0,0:0|0:0|0:0,0:0:0:0:
432,144,29920,1,2,0:0:0:0:
480,224,30160,1,0,0:0:0:0:
496,304,30400,2,0,P|413:362|319:365,1,180,2|2,0:0|0:0,0:0:0:0:
336,368,31240,1,0,0:0:0:0:
336,368,31360,2,0,P|209:367|143:340,1,180,2|2,0:0|0:0,0:0:0:0:
160,349,32320,6,0,P|106:364|58:340,2,90,2|0|2,0:0|0:0|0:0,0:0:0:0:
160,349,33160,1,0,0:0:0:0:
160,349,33280,2,0,L|215:289,1,45,2|0,0:0|0:0,0:0:0:0:
224,276,33520,2,0,P|297:261|338:159,1,180
320,83,34240,5,2,0:0:0:0:
232,104,34480,1,0,0:0:0:0:
170,169,34720,1,2,0:0:0:0:
136,252,34960,1,0,0:0:0:0:
132,341,35200,2,0,P|100:303|61:166,1,180,2|2,0:0|0:0,0:0:0:0:
60,180,36160,6,0,L|115:134,1,45,2|0,0:0|0:0,0:0:0:0:
129,123,36400,2,0,P|180:77|222:78,1,90,0|2,0:0|0:0,0:0:0:0:
333,64,37000,2,0,L|377:110,1,45,0|2,0:0|0:0,0:0:0:0:
407,271,37600,1,2,0:0:0:0:
499,116,38080,6,0,L|464:87,1,45,2|0,0:0|0:0,0:0:0:0:
430,59,38320,2,0,P|402:24|360:10,1,90,0|2,0:0|0:0,0:0:0:0:
226,1,38920,2,0,L|194:33,1,45,0|2,0:0|0:0,0:0:0:0:
157,58,39160,2,0,L|186:108,1,45
152,206,39520,1,2,0:0:0:0:
311,289,40000,6,0,L|346:221,1,45,2|0,0:0|0:0,0:0:0:0:
348,207,40240,2,0,L|293:182,1,45
262,181,40480,2,0,L|239:228,1,45,2|0,0:0|0:0,0:0:0:0:
224,262,40720,2,0,L|285:296,1,45
305,298,40960,2,0,L|296:243,1,45,2|0,0:0|0:0,0:0:0:0:
296,208,41200,2,0,L|232:223,1,45
209,233,41440,2,0,P|274:295|317:298,1,135,2|0,0:0|0:0,0:0:0:0:
359,305,41920,6,0,L|397:263,1,45,2|0,0:0|0:0,0:0:0:0:
409,231,42160,2,0,L|363:201,1,45
330,186,42400,2,0,L|408:167,1,45,2|0,0:0|0:0,0:0:0:0:
417,161,42640,2,0,L|351:143,1,45
330,136,42880,1,2,0:0:0:0:
242,156,43120,1,0,0:0:0:0:
163,200,43360,2,0,P|221:271|160:344,1,180,2|2,0:0|0:0,0:0:0:0:
72,336,44080,5,0,0:0:0:0:
104,136,44320,1,2,0:0:0:0:
16,256,44560,1,0,0:0:0:0:
168,232,44800,1,2,0:0:0:0:
24,176,45040,1,0,0:0:0:0:
128,288,45280,1,2,0:0:0:0:
128,288,45640,1,0,0:0:0:0:
128,288,45760,2,0,P|216:321|321:324,2,180,2|2|2,0:0|0:0|0:0,0:0:0:0:
128,288,47200,6,0,P|112:183|166:103,1,180,2|2,2:0|2:0,2:0:0:0:
146,121,48160,2,0,P|250:152|312:222,1,180,2|2,0:0|0:0,0:0:0:0:
299,200,49120,2,0,P|270:91|182:65,1,180,2|2,0:0|0:0,0:0:0:0:
215,64,50080,2,0,P|181:177|214:235,1,180,2|2,0:0|0:0,0:0:0:0:
206,226,51040,5,2,0:0:0:0:
206,226,51520,2,0,L|304:288,2,90,2|0|2,0:0|0:0|0:0,0:0:0:0:
128,176,52240,1,0,0:0:0:0:
128,176,52720,5,0,0:0:0:0:
128,176,52960,2,0,B|125:277|125:277|213:303,1,180,2|2,0:0|0:0,0:0:0:0:
352,336,53680,1,0,0:0:0:0:
272,208,53920,1,2,0:0:0:0:
424,208,54160,1,0,0:0:0:0:
424,208,54400,6,0,L|453:263,1,45,2|0,0:0|0:0,0:0:0:0:
480,280,54640,2,0,L|449:341,1,45
424,352,54880,2,0,L|310:365,1,90,2|0,0:0|0:0,0:0:0:0:
242,361,55360,2,0,P|190:358|137:323,1,90,2|0,0:0|0:0,0:0:0:0:
113,326,55720,2,0,L|198:254,1,90
216,239,56080,6,0,L|279:264,1,45
301,265,56320,2,0,L|356:254,1,45,2|0,0:0|0:0,0:0:0:0:
388,245,56560,2,0,L|325:234,1,45
298,230,56800,2,0,L|263:289,2,45,2|0|0,0:0|0:0|0:0,0:0:0:0:
298,230,57280,2,0,P|371:167|307:146,1,180,2|2,0:0|0:0,0:0:0:0:
251,105,58240,1,2,0:0:0:0:
77,152,58720,1,2,0:0:0:0:
219,261,59200,6,8,L|279:308,1,45,10|8,0:0|0:0,0:0:0:0:
288,317,59440,2,8,L|223:264,1,45
219,261,59680,2,8,L|279:308,1,45,10|8,0:0|0:0,0:0:0:0:
288,317,59920,2,8,L|223:264,1,45
218,259,60160,2,8,L|171:319,1,45,10|8,0:0|0:0,0:0:0:0:
157,325,60400,2,8,L|126:253,1,45
123,241,60640,2,8,L|83:296,1,45,10|8,0:0|0:0,0:0:0:0:
65,309,60880,2,8,L|31:248,1,45
27,227,61120,6,8,L|58:164,1,45,10|8,0:0|0:0,0:0:0:0:
64,145,61360,2,8,L|36:213,1,45
27,227,61600,2,8,L|58:164,1,45,10|8,0:0|0:0,0:0:0:0:
64,145,61840,2,8,L|36:213,1,45
27,227,62080,2,8,L|58:164,1,45,10|8,0:0|0:0,0:0:0:0:
64,145,62320,2,8,L|36:213,1,45
27,227,62560,2,8,L|58:164,1,45,10|8,0:0|0:0,0:0:0:0:
64,145,62800,2,8,L|36:213,1,45
30,228,63040,6,8,L|83:284,1,45,10|8,0:0|0:0,0:0:0:0:
93,292,63280,2,8,L|96:219,1,45
93,202,63520,2,8,L|153:264,1,45,10|8,0:0|0:0,0:0:0:0:
158,264,63760,2,8,L|161:191,1,45
158,174,64000,2,8,L|218:236,1,45,10|8,0:0|0:0,0:0:0:0:
220,238,64240,2,8,L|223:165,1,45
220,148,64480,2,8,L|280:210,1,45,10|8,0:0|0:0,0:0:0:0:
285,210,64720,2,8,L|288:137,1,45
285,120,64960,2,8,L|355:194,1,90,14|8,0:0|0:0,0:0:0:0:
407,252,65440,5,2,0:0:0:0:
407,252,65800,1,0,0:0:0:0:
407,252,65920,6,0,B|381:302|381:302|333:288,2,90,2|0|2,0:0|0:0|0:0,0:0:0:0:
433,165,66640,1,0,0:0:0:0:
444,75,66880,2,0,L|301:57,1,135,2|0,0:0|0:0,0:0:0:0:
310,58,67360,2,0,L|206:176,1,135,2|0,0:0|0:0,0:0:0:0:
220,159,67840,2,0,L|255:254,1,90,2|0,0:0|0:0,0:0:0:0:
251,243,68200,2,0,L|319:264,1,45,0|2,0:0|0:0,0:0:0:0:
337,271,68440,2,0,L|371:231,1,45
409,157,68800,6,0,L|325:89,1,90,2|0,0:0|0:0,0:0:0:0:
272,39,69280,2,0,B|247:89|247:89|193:73,1,90,2|0,0:0|0:0,0:0:0:0:
169,72,69640,1,0,0:0:0:0:
169,72,69760,1,2,0:0:0:0:
169,72,69880,2,0,L|95:70,3,45,0|0|0|2,0:0|0:0|0:0|0:0,0:0:0:0:
34,71,70480,5,0,0:0:0:0:
52,159,70720,1,2,0:0:0:0:
141,148,70960,2,0,L|153:229,2,45,0|0|2,0:0|0:0|0:0,0:0:0:0:
230,140,71440,1,0,0:0:0:0:
243,229,71680,2,0,B|241:285|241:285|178:283,1,90,2|0,0:0|0:0,0:0:0:0:
162,286,72040,2,0,P|176:328|186:324,1,45,0|2,0:0|0:0,0:0:0:0:
171,367,72280,2,0,P|212:349|207:339,1,45
287,322,72640,5,2,0:0:0:0:
287,322,72760,2,0,L|393:336,1,90
420,340,73120,2,0,L|309:273,1,90,2|0,0:0|0:0,0:0:0:0:
255,271,73600,1,2,0:0:0:0:
310,200,73840,1,0,0:0:0:0:
310,200,73960,1,0,0:0:0:0:
310,200,74080,2,0,P|351:251|433:253,1,135,2|0,0:0|0:0,0:0:0:0:
461,255,74560,5,2,0:0:0:0:
461,255,74680,2,0,L|391:151,1,90
387,142,75040,2,0,L|281:162,1,90,2|0,0:0|0:0,0:0:0:0:
210,180,75520,1,2,0:0:0:0:
210,180,75640,2,0,B|153:227|153:227|104:219,1,90
92,216,76000,2,0,B|75:110|75:110|116:62,1,135,2|0,0:0|0:0,0:0:0:0:
133,68,76480,5,2,0:0:0:0:
133,68,76600,2,0,L|239:54,1,90
266,50,76960,2,0,L|155:117,1,90,2|0,0:0|0:0,0:0:0:0:
101,119,77440,1,2,0:0:0:0:
156,177,77680,1,0,0:0:0:0:
156,177,77800,1,0,0:0:0:0:
156,177,77920,2,0,P|197:126|279:124,1,135,2|0,0:0|0:0,0:0:0:0:
304,133,78400,5,2,0:0:0:0:
304,133,78520,2,0,L|253:207,1,90
230,246,78880,2,0,L|141:229,1,90,2|0,0:0|0:0,0:0:0:0:
52,215,79360,2,0,L|40:259,1,45,2|0,0:0|0:0,0:0:0:0:
23,300,79600,2,0,L|75:353,1,45
92,356,79840,2,0,L|293:358,1,180,2|2,0:0|0:0,0:0:0:0:
271,357,80800,5,2,0:0:0:0:
271,357,81040,1,0,0:0:0:0:
340,300,81280,1,2,0:0:0:0:
295,221,81520,1,0,0:0:0:0:
340,143,81760,1,2,0:0:0:0:
340,143,82120,1,0,0:0:0:0:
340,143,82240,2,0,L|126:94,1,180,2|2,0:0|0:0,0:0:0:0:
164,102,83200,6,0,L|265:258,1,180,2|2,0:0|0:0,0:0:0:0:
261,253,84160,2,0,L|441:226,1,180,2|2,0:0|0:0,0:0:0:0:
439,226,85120,2,0,L|475:46,1,180,2|2,0:0|0:0,0:0:0:0:
474,49,85840,1,0,0:0:0:0:
474,49,86080,2,0,L|382:224,1,180,2|2,0:0|0:0,0:0:0:0:
390,208,87040,2,0,L|207:211,1,180,2|2,0:0|0:0,0:0:0:0:
210,210,88000,5,2,0:0:0:0:
248,291,88240,1,0,0:0:0:0:
320,237,88480,1,2,0:0:0:0:
281,155,88720,1,0,0:0:0:0:
127,60,89200,5,0,0:0:0:0:
127,60,89440,2,0,L|69:154,1,90,2|0,0:0|0:0,0:0:0:0:
59,177,89800,1,0,0:0:0:0:
59,177,89920,2,0,P|67:250|141:328,2,180,2|2|2,0:0|0:0|0:0,0:0:0:0:
94,94,91120,5,0,0:0:0:0:
165,148,91360,2,0,L|261:202,1,90,2|0,0:0|0:0,0:0:0:0:
283,212,91720,1,0,0:0:0:0:
283,212,91840,2,0,L|242:117,1,90,2|0,0:0|0:0,0:0:0:0:
231,87,92200,2,0,L|352:113,1,90
361,120,92560,2,0,L|301:222,1,90,0|2,0:0|0:0,0:0:0:0:
267,274,93040,1,0,0:0:0:0:
267,274,93280,2,0,L|171:210,1,90,2|0,0:0|0:0,0:0:0:0:
113,179,93760,6,0,L|144:278,1,90,2|0,0:0|0:0,0:0:0:0:
150,354,94240,2,0,L|263:326,1,90,2|0,0:0|0:0,0:0:0:0:
323,306,94720,2,0,L|274:202,1,90,2|0,0:0|0:0,0:0:0:0:
254,139,95200,2,0,L|174:213,1,90,2|0,0:0|0:0,0:0:0:0:
122,262,95680,6,8,P|146:308|163:302,1,45,10|8,0:0|0:0,0:0:0:0:
170,317,95920,2,8,P|211:331|215:318,1,45
243,351,96160,2,8,P|294:346|295:328,1,45,10|8,0:0|0:0,0:0:0:0:
312,328,96400,2,8,P|340:295|330:286,1,45
379,280,96640,2,8,P|400:232|385:223,1,45,10|8,0:0|0:0,0:0:0:0:
393,208,96880,2,8,P|378:167|366:171,1,45
375,130,97120,2,8,P|339:91|325:101,1,45,10|8,0:0|0:0,0:0:0:0:
314,90,97360,2,8,P|270:87|270:100,1,45
233,78,97600,6,8,P|258:125|247:140,1,45,10|8,0:0|0:0,0:0:0:0:
256,160,97840,2,8,P|211:189|195:180,1,45
181,190,98080,2,8,P|156:142|167:127,1,45,10|8,0:0|0:0,0:0:0:0:
158,108,98320,2,8,P|202:78|218:87,1,45
231,68,98560,2,8,P|206:115|217:130,1,45,10|8,0:0|0:0,0:0:0:0:
208,150,98800,2,8,P|252:179|268:170,1,45
283,180,99040,2,8,P|308:132|297:117,1,45,10|8,0:0|0:0,0:0:0:0:
306,98,99280,2,8,P|261:68|245:77,6,45,8|8|10|8|8|8|10,0:0|0:0|0:0|0:0|0:0|0:0|0:0,0:0:0:0:
306,98,100360,5,8,0:0:0:0:
306,98,100480,2,8,L|339:162,8,45,10|8|8|8|10|8|8|8|10,0:0|0:0|0:0|0:0|0:0|0:0|0:0|0:0|0:0,0:0:0:0:
347,369,132160,5,0,0:0:0:0:
347,369,132400,1,0,0:0:0:0:
286,304,132640,2,0,L|213:215,1,90
229,235,133000,1,0,0:0:0:0:
229,235,133120,2,0,L|136:267,1,90
57,287,133600,1,0,0:0:0:0:
57,287,133960,5,0,0:0:0:0:
57,287,134080,2,0,L|119:200,1,90
173,150,134560,1,0,0:0:0:0:
173,150,134920,5,0,0:0:0:0:
173,150,135040,2,0,L|286:202,1,90
339,222,135520,1,0,0:0:0:0:
339,222,136000,6,0,B|395:237|395:237|425:207,2,90
252,202,136720,1,0,0:0:0:0:
163,210,136960,2,0,B|107:225|107:225|77:195,2,90
252,202,137680,5,0,0:0:0:0:
339,177,137920,1,0,0:0:0:0:
422,142,138160,1,0,0:0:0:0:
504,104,138400,2,0,B|422:19|422:19|326:11,1,180
270,12,139120,1,0,0:0:0:0:
181,20,139360,2,0,P|257:86|266:167,1,180
272,251,140080,6,0,L|157:220,1,90
115,172,140560,2,0,L|69:122,1,45
28,69,140920,2,0,L|43:11,1,45
128,8,141280,2,0,P|247:9|309:51,1,180
371,91,142000,6,0,L|312:200,1,90
293,253,142480,2,0,L|209:186,1,90
194,112,142960,2,0,P|117:52|48:95,1,180
58,177,143680,5,0,0:0:0:0:
58,177,143920,1,0,0:0:0:0:
58,177,144160,2,0,B|110:219|104:267|164:299,1,135
180,306,144640,2,0,P|233:328|243:326,2,45
135,229,145120,1,0,0:0:0:0:
89,152,145360,1,0,0:0:0:0:
36,80,145600,2,0,P|119:22|213:19,1,180
196,16,146440,1,0,0:0:0:0:
196,16,146560,2,0,P|323:17|389:44,1,180
372,35,147520,6,0,P|426:20|480:57,2,90
372,35,148360,1,0,0:0:0:0:
372,35,148480,2,0,L|317:95,1,45
314,104,148720,2,0,P|241:119|200:221,1,180
218,297,149440,5,0,0:0:0:0:
306,276,149680,1,0,0:0:0:0:
368,211,149920,1,0,0:0:0:0:
402,128,150160,1,0,0:0:0:0:
406,39,150400,2,0,P|438:77|477:214,1,180
478,200,151360,6,0,L|423:246,1,45
409,257,151600,2,0,P|358:303|316:302,1,90
205,316,152200,2,0,L|161:270,1,45
131,109,152800,1,0,0:0:0:0:
39,264,153280,6,0,L|74:293,1,45
108,321,153520,2,0,P|136:356|178:370,1,90
312,379,154120,2,0,L|344:347,1,45
381,322,154360,2,0,L|352:272,1,45
386,174,154720,1,0,0:0:0:0:
227,91,155200,6,0,L|192:159,1,45
190,173,155440,2,0,L|245:198,1,45
276,199,155680,2,0,L|299:152,1,45
314,118,155920,2,0,L|253:84,1,45
233,82,156160,2,0,L|242:137,1,45
242,172,156400,2,0,L|306:157,1,45
329,147,156640,2,0,P|264:85|221:82,1,135
179,75,157120,6,0,L|141:117,1,45
129,149,157360,2,0,L|175:179,1,45
208,194,157600,2,0,L|130:213,1,45
121,219,157840,2,0,L|187:237,1,45
208,244,158080,1,0,0:0:0:0:
296,224,158320,1,0,0:0:0:0:
375,180,158560,2,0,P|317:109|320:20,1,180
499,28,159520,5,0,0:0:0:0:
489,118,159760,1,0,0:0:0:0:
407,82,160000,1,0,0:0:0:0:
384,169,160240,1,0,0:0:0:0:
298,143,160480,1,0,0:0:0:0:
298,143,160840,1,0,0:0:0:0:
298,143,160960,2,0,P|210:110|105:107,2,180
298,143,162400,6,0,P|388:198|415:291,1,180
236,290,163360,2,0,P|132:259|70:189,1,180
203,77,164320,2,0,P|232:186|320:212,1,180
378,57,165280,2,0,P|412:170|379:228,1,180
387,220,166240,1,0,0:0:0:0:
387,220,166720,6,0,L|301:182,2,90
473,248,167440,1,0,0:0:0:0:
473,248,167920,1,0,0:0:0:0:
473,248,168160,2,0,B|476:147|476:147|388:121,1,180
331,183,168880,5,0,0:0:0:0:
250,145,169120,1,0,0:0:0:0:
190,212,169360,1,0,0:0:0:0:
104,187,169600,2,0,L|75:132,1,45
63,107,169840,2,0,L|94:46,1,45
116,35,170080,2,0,L|230:22,1,90
296,19,170560,6,0,P|348:22|401:57,1,90
425,54,170920,2,0,L|340:126,1,90
322,141,171280,2,0,L|259:116,1,45
237,115,171520,2,0,L|182:126,1,45
150,135,171760,2,0,L|213:146,1,45
240,150,172000,2,0,L|275:91,2,45
240,150,172480,2,0,P|167:213|231:234,1,180
287,275,173440,5,0,0:0:0:0:
461,228,173920,1,0,0:0:0:0:
319,119,174400,6,0,L|259:72,1,45
250,63,174640,2,0,L|315:116,1,45
319,119,174880,2,0,L|259:72,1,45
250,63,175120,2,0,L|315:116,1,45
320,121,175360,2,0,L|367:61,1,45
381,55,175600,2,0,L|412:127,1,45
415,139,175840,2,0,L|455:84,1,45
473,71,176080,2,0,L|507:132,1,45
511,153,176320,6,0,L|480:216,1,45
474,235,176560,2,0,L|502:167,1,45
511,153,176800,2,0,L|480:216,1,45
474,235,177040,2,0,L|502:167,1,45
511,153,177280,2,0,L|480:216,1,45
474,235,177520,2,0,L|502:167,1,45
511,153,177760,2,0,L|480:216,1,45
474,235,178000,2,0,L|502:167,1,45
508,152,178240,6,0,L|455:96,1,45
445,88,178480,2,0,L|442:161,1,45
445,178,178720,2,0,L|385:116,1,45
380,116,178960,2,0,L|377:189,1,45
380,206,179200,2,0,L|320:144,1,45
318,142,179440,2,0,L|315:215,1,45
318,232,179680,2,0,L|258:170,1,45
253,170,179920,2,0,L|250:243,1,45
253,260,180160,2,0,L|183:186,1,90
