osu file format v14

[General]
AudioFilename: audio.ogg
AudioLeadIn: 0
PreviewTime: 33438
Countdown: 0
SampleSet: Soft
StackLeniency: 0.2
Mode: 3
LetterboxInBreaks: 0
SpecialStyle: 0
WidescreenStoryboard: 0

[Editor]
Bookmarks: 2718,18078,33438,48798,64158,79518,94878,110238
DistanceSpacing: 0.8
BeatDivisor: 8
GridSize: 32
TimelineZoom: 1.6

[Metadata]
Title:China
TitleUnicode:China
Artist:Kensuke Ushio
ArtistUnicode:牛尾憲輔
Creator:Falcon
Version:Jesuren's Insane
Source:ピンポン THE ANIMATION
Tags:DoNotMess Jesuren JesusMD24 うしおけんすけ 牛尾 憲輔 うしお けんすけ agraph アグラフ Pin Pon Ping Pong PPTA anime electronic instrumental Wenge Kong 孔文革 rice longjack longjacks chordjack chord jack chordjacks jacks cj technical tech
BeatmapID:3884843
BeatmapSetID:1859696

[Difficulty]
HPDrainRate:8
CircleSize:4
OverallDifficulty:9
ApproachRate:5
SliderMultiplier:1.4
SliderTickRate:1

[Events]
//Background and Video events
0,0,"bg.jpg",0,0
//Break Periods
//Storyboard Layer 0 (Background)
//Storyboard Layer 1 (Fail)
//Storyboard Layer 2 (Pass)
//Storyboard Layer 3 (Foreground)
//Storyboard Layer 4 (Overlay)
//Storyboard Sound Samples

[TimingPoints]
2700,480,4,2,1,70,1,0

[HitObjects]
64,192,2700,5,0,0:0:0:0:
192,192,2700,1,0,0:0:0:0:
448,192,2700,1,0,0:0:0:0:
320,192,2740,1,0,0:0:0:0:
192,192,3180,1,0,0:0:0:0:
448,192,3180,1,0,0:0:0:0:
192,192,3660,1,0,0:0:0:0:
192,192,4140,1,0,0:0:0:0:
448,192,4140,1,0,0:0:0:0:
448,192,4260,1,0,0:0:0:0:
64,192,4380,1,0,0:0:0:0:
64,192,4500,1,0,0:0:0:0:
320,192,4620,1,0,0:0:0:0:
320,192,5100,1,0,0:0:0:0:
64,192,5100,1,0,0:0:0:0:
320,192,5580,1,0,0:0:0:0:
320,192,6060,1,0,0:0:0:0:
64,192,6060,1,0,0:0:0:0:
64,192,6180,1,0,0:0:0:0:
448,192,6300,1,0,0:0:0:0:
192,192,6300,1,0,0:0:0:0:
192,192,6420,1,0,0:0:0:0:
64,192,6540,1,0,0:0:0:0:
320,192,6580,1,0,0:0:0:0:
64,192,7020,1,0,0:0:0:0:
320,192,7020,1,0,0:0:0:0:
64,192,7500,1,0,0:0:0:0:
64,192,7980,1,0,0:0:0:0:
320,192,7980,1,0,0:0:0:0:
320,192,8100,1,0,0:0:0:0:
192,192,8220,1,0,0:0:0:0:
192,192,8340,1,0,0:0:0:0:
448,192,8460,1,0,0:0:0:0:
448,192,8940,1,0,0:0:0:0:
192,192,8940,1,0,0:0:0:0:
448,192,9420,1,0,0:0:0:0:
448,192,9900,1,0,0:0:0:0:
192,192,9900,1,0,0:0:0:0:
192,192,10020,1,0,0:0:0:0:
448,192,10140,1,0,0:0:0:0:
64,192,10140,1,0,0:0:0:0:
448,192,10260,1,0,0:0:0:0:
192,192,10380,1,0,0:0:0:0:
320,192,10420,1,0,0:0:0:0:
192,192,10860,1,0,0:0:0:0:
448,192,10860,1,0,0:0:0:0:
192,192,11340,1,0,0:0:0:0:
192,192,11820,1,0,0:0:0:0:
448,192,11820,1,0,0:0:0:0:
448,192,11940,1,0,0:0:0:0:
64,192,12060,1,0,0:0:0:0:
64,192,12180,1,0,0:0:0:0:
320,192,12300,1,0,0:0:0:0:
320,192,12780,1,0,0:0:0:0:
64,192,12780,1,0,0:0:0:0:
320,192,13260,1,0,0:0:0:0:
320,192,13740,1,0,0:0:0:0:
64,192,13740,1,0,0:0:0:0:
64,192,13860,1,0,0:0:0:0:
448,192,13980,1,0,0:0:0:0:
192,192,13980,1,0,0:0:0:0:
192,192,14100,1,0,0:0:0:0:
64,192,14220,1,0,0:0:0:0:
320,192,14260,1,0,0:0:0:0:
64,192,14700,1,0,0:0:0:0:
320,192,14700,1,0,0:0:0:0:
64,192,15180,1,0,0:0:0:0:
320,192,15660,1,0,0:0:0:0:
64,192,15660,1,0,0:0:0:0:
320,192,15780,1,0,0:0:0:0:
64,192,15900,1,0,0:0:0:0:
64,192,16020,1,0,0:0:0:0:
448,192,16140,1,0,0:0:0:0:
448,192,16620,1,0,0:0:0:0:
192,192,16620,1,0,0:0:0:0:
448,192,17100,1,0,0:0:0:0:
448,192,17580,1,0,0:0:0:0:
192,192,17580,1,0,0:0:0:0:
192,192,17700,1,0,0:0:0:0:
320,192,17820,1,0,0:0:0:0:
320,192,17940,1,0,0:0:0:0:
64,192,18060,1,0,0:0:0:0:
192,192,18100,1,0,0:0:0:0:
448,192,18180,1,0,0:0:0:0:
320,192,18300,1,0,0:0:0:0:
64,192,18540,1,0,0:0:0:0:
448,192,18540,1,0,0:0:0:0:
448,192,18780,1,0,0:0:0:0:
64,192,19020,1,0,0:0:0:0:
448,192,19260,1,0,0:0:0:0:
192,192,19380,1,0,0:0:0:0:
320,192,19500,1,0,0:0:0:0:
64,192,19500,1,0,0:0:0:0:
64,192,19620,1,0,0:0:0:0:
320,192,19740,1,0,0:0:0:0:
320,192,19860,1,0,0:0:0:0:
448,192,19980,1,0,0:0:0:0:
64,192,20100,1,0,0:0:0:0:
192,192,20220,1,0,0:0:0:0:
64,192,20460,1,0,0:0:0:0:
448,192,20460,1,0,0:0:0:0:
64,192,20700,1,0,0:0:0:0:
448,192,20940,1,0,0:0:0:0:
64,192,21180,1,0,0:0:0:0:
320,192,21300,1,0,0:0:0:0:
448,192,21420,1,0,0:0:0:0:
192,192,21420,1,0,0:0:0:0:
448,192,21540,1,0,0:0:0:0:
64,192,21660,1,0,0:0:0:0:
320,192,21660,1,0,0:0:0:0:
320,192,21780,1,0,0:0:0:0:
192,192,21900,1,0,0:0:0:0:
64,192,21940,1,0,0:0:0:0:
448,192,22020,1,0,0:0:0:0:
320,192,22140,1,0,0:0:0:0:
448,192,22380,1,0,0:0:0:0:
64,192,22380,1,0,0:0:0:0:
448,192,22620,1,0,0:0:0:0:
64,192,22860,1,0,0:0:0:0:
448,192,23100,1,0,0:0:0:0:
192,192,23220,1,0,0:0:0:0:
320,192,23340,1,0,0:0:0:0:
64,192,23340,1,0,0:0:0:0:
64,192,23460,1,0,0:0:0:0:
320,192,23580,1,0,0:0:0:0:
320,192,23700,1,0,0:0:0:0:
448,192,23820,1,0,0:0:0:0:
64,192,23940,1,0,0:0:0:0:
192,192,24060,1,0,0:0:0:0:
64,192,24300,1,0,0:0:0:0:
448,192,24300,1,0,0:0:0:0:
64,192,24540,1,0,0:0:0:0:
448,192,24780,1,0,0:0:0:0:
192,192,25020,1,0,0:0:0:0:
448,192,25140,1,0,0:0:0:0:
320,192,25260,1,0,0:0:0:0:
64,192,25260,1,0,0:0:0:0:
64,192,25380,1,0,0:0:0:0:
192,192,25500,1,0,0:0:0:0:
448,192,25500,1,0,0:0:0:0:
448,192,25620,1,0,0:0:0:0:
64,192,25740,1,0,0:0:0:0:
192,192,25780,1,0,0:0:0:0:
448,192,25860,1,0,0:0:0:0:
320,192,25980,1,0,0:0:0:0:
448,192,26220,1,0,0:0:0:0:
64,192,26220,1,0,0:0:0:0:
448,192,26460,1,0,0:0:0:0:
64,192,26700,1,0,0:0:0:0:
448,192,26940,1,0,0:0:0:0:
192,192,27060,1,0,0:0:0:0:
320,192,27180,1,0,0:0:0:0:
64,192,27180,1,0,0:0:0:0:
64,192,27300,1,0,0:0:0:0:
320,192,27420,1,0,0:0:0:0:
320,192,27540,1,0,0:0:0:0:
448,192,27660,1,0,0:0:0:0:
64,192,27780,1,0,0:0:0:0:
192,192,27900,1,0,0:0:0:0:
64,192,28140,1,0,0:0:0:0:
448,192,28140,1,0,0:0:0:0:
64,192,28380,1,0,0:0:0:0:
448,192,28620,1,0,0:0:0:0:
64,192,28860,1,0,0:0:0:0:
320,192,28980,1,0,0:0:0:0:
192,192,29100,1,0,0:0:0:0:
448,192,29100,1,0,0:0:0:0:
448,192,29220,1,0,0:0:0:0:
320,192,29340,1,0,0:0:0:0:
64,192,29340,1,0,0:0:0:0:
320,192,29460,1,0,0:0:0:0:
192,192,29580,1,0,0:0:0:0:
64,192,29620,1,0,0:0:0:0:
448,192,29700,1,0,0:0:0:0:
320,192,29820,1,0,0:0:0:0:
448,192,30060,1,0,0:0:0:0:
64,192,30060,1,0,0:0:0:0:
448,192,30300,1,0,0:0:0:0:
64,192,30540,1,0,0:0:0:0:
448,192,30780,1,0,0:0:0:0:
192,192,30900,1,0,0:0:0:0:
320,192,31020,1,0,0:0:0:0:
64,192,31020,1,0,0:0:0:0:
320,192,31140,1,0,0:0:0:0:
192,192,31260,1,0,0:0:0:0:
192,192,31380,1,0,0:0:0:0:
448,192,31500,1,0,0:0:0:0:
64,192,31620,1,0,0:0:0:0:
192,192,31740,1,0,0:0:0:0:
64,192,31980,1,0,0:0:0:0:
448,192,31980,1,0,0:0:0:0:
64,192,32220,1,0,0:0:0:0:
192,192,32460,1,0,0:0:0:0:
448,192,32460,1,0,0:0:0:0:
192,192,32580,1,0,0:0:0:0:
448,192,32700,1,0,0:0:0:0:
64,192,32700,1,0,0:0:0:0:
192,192,32820,1,0,0:0:0:0:
320,192,32820,1,0,0:0:0:0:
64,192,32940,1,0,0:0:0:0:
448,192,32940,1,0,0:0:0:0:
448,192,33060,1,0,0:0:0:0:
320,192,33180,1,0,0:0:0:0:
64,192,33180,1,0,0:0:0:0:
192,192,33300,1,0,0:0:0:0:
448,192,33300,1,0,0:0:0:0:
320,192,33420,1,0,0:0:0:0:
64,192,33420,1,0,0:0:0:0:
192,192,33420,1,0,0:0:0:0:
320,192,33540,1,0,0:0:0:0:
320,192,33660,1,0,0:0:0:0:
192,192,33780,1,0,0:0:0:0:
64,192,33900,1,0,0:0:0:0:
320,192,33900,1,0,0:0:0:0:
320,192,34020,1,0,0:0:0:0:
64,192,34140,1,0,0:0:0:0:
320,192,34260,1,0,0:0:0:0:
192,192,34380,1,0,0:0:0:0:
448,192,34380,1,0,0:0:0:0:
448,192,34500,1,0,0:0:0:0:
448,192,34620,1,0,0:0:0:0:
448,192,34740,1,0,0:0:0:0:
192,192,34860,1,0,0:0:0:0:
64,192,34860,1,0,0:0:0:0:
448,192,34980,1,0,0:0:0:0:
320,192,35100,1,0,0:0:0:0:
192,192,35100,1,0,0:0:0:0:
192,192,35220,1,0,0:0:0:0:
192,192,35340,1,0,0:0:0:0:
448,192,35340,1,0,0:0:0:0:
320,192,35460,1,0,0:0:0:0:
192,192,35580,1,0,0:0:0:0:
192,192,35700,1,0,0:0:0:0:
64,192,35820,1,0,0:0:0:0:
448,192,35820,1,0,0:0:0:0:
320,192,35940,1,0,0:0:0:0:
448,192,36060,1,0,0:0:0:0:
192,192,36180,1,0,0:0:0:0:
64,192,36300,1,0,0:0:0:0:
320,192,36300,1,0,0:0:0:0:
64,192,36420,1,0,0:0:0:0:
64,192,36540,1,0,0:0:0:0:
64,192,36660,1,0,0:0:0:0:
320,192,36780,1,0,0:0:0:0:
192,192,36780,1,0,0:0:0:0:
320,192,36900,1,0,0:0:0:0:
320,192,37020,1,0,0:0:0:0:
320,192,37140,1,0,0:0:0:0:
448,192,37260,1,0,0:0:0:0:
192,192,37260,1,0,0:0:0:0:
192,192,37380,1,0,0:0:0:0:
192,192,37500,1,0,0:0:0:0:
64,192,37620,1,0,0:0:0:0:
448,192,37740,1,0,0:0:0:0:
192,192,37740,1,0,0:0:0:0:
192,192,37860,1,0,0:0:0:0:
64,192,37980,1,0,0:0:0:0:
320,192,38100,1,0,0:0:0:0:
64,192,38220,1,0,0:0:0:0:
448,192,38220,1,0,0:0:0:0:
448,192,38340,1,0,0:0:0:0:
448,192,38460,1,0,0:0:0:0:
448,192,38580,1,0,0:0:0:0:
320,192,38700,1,0,0:0:0:0:
64,192,38700,1,0,0:0:0:0:
448,192,38820,1,0,0:0:0:0:
192,192,38940,1,0,0:0:0:0:
320,192,38940,1,0,0:0:0:0:
192,192,39060,1,0,0:0:0:0:
64,192,39180,1,0,0:0:0:0:
192,192,39180,1,0,0:0:0:0:
448,192,39300,1,0,0:0:0:0:
192,192,39420,1,0,0:0:0:0:
192,192,39540,1,0,0:0:0:0:
448,192,39660,1,0,0:0:0:0:
64,192,39660,1,0,0:0:0:0:
320,192,39780,1,0,0:0:0:0:
448,192,39900,1,0,0:0:0:0:
64,192,40020,1,0,0:0:0:0:
192,192,40140,1,0,0:0:0:0:
320,192,40140,1,0,0:0:0:0:
64,192,40260,1,0,0:0:0:0:
448,192,40380,1,0,0:0:0:0:
192,192,40500,1,0,0:0:0:0:
320,192,40620,1,0,0:0:0:0:
64,192,40620,1,0,0:0:0:0:
192,192,40740,1,0,0:0:0:0:
64,192,40860,1,0,0:0:0:0:
320,192,40980,1,0,0:0:0:0:
192,192,41100,1,0,0:0:0:0:
448,192,41100,1,0,0:0:0:0:
192,192,41220,1,0,0:0:0:0:
192,192,41340,1,0,0:0:0:0:
320,192,41460,1,0,0:0:0:0:
448,192,41580,1,0,0:0:0:0:
192,192,41580,1,0,0:0:0:0:
192,192,41700,1,0,0:0:0:0:
448,192,41820,1,0,0:0:0:0:
192,192,41940,1,0,0:0:0:0:
64,192,42060,1,0,0:0:0:0:
320,192,42060,1,0,0:0:0:0:
64,192,42180,1,0,0:0:0:0:
64,192,42300,1,0,0:0:0:0:
64,192,42420,1,0,0:0:0:0:
448,192,42540,1,0,0:0:0:0:
320,192,42540,1,0,0:0:0:0:
64,192,42660,1,0,0:0:0:0:
192,192,42780,1,0,0:0:0:0:
320,192,42780,1,0,0:0:0:0:
320,192,42900,1,0,0:0:0:0:
64,192,43020,1,0,0:0:0:0:
320,192,43020,1,0,0:0:0:0:
192,192,43140,1,0,0:0:0:0:
320,192,43260,1,0,0:0:0:0:
320,192,43380,1,0,0:0:0:0:
448,192,43500,1,0,0:0:0:0:
64,192,43500,1,0,0:0:0:0:
192,192,43620,1,0,0:0:0:0:
64,192,43740,1,0,0:0:0:0:
320,192,43860,1,0,0:0:0:0:
448,192,43980,1,0,0:0:0:0:
192,192,43980,1,0,0:0:0:0:
448,192,44100,1,0,0:0:0:0:
448,192,44220,1,0,0:0:0:0:
448,192,44340,1,0,0:0:0:0:
320,192,44460,1,0,0:0:0:0:
192,192,44460,1,0,0:0:0:0:
192,192,44580,1,0,0:0:0:0:
192,192,44700,1,0,0:0:0:0:
192,192,44820,1,0,0:0:0:0:
64,192,44940,1,0,0:0:0:0:
320,192,44940,1,0,0:0:0:0:
320,192,45060,1,0,0:0:0:0:
320,192,45180,1,0,0:0:0:0:
448,192,45300,1,0,0:0:0:0:
320,192,45420,1,0,0:0:0:0:
64,192,45420,1,0,0:0:0:0:
320,192,45540,1,0,0:0:0:0:
448,192,45660,1,0,0:0:0:0:
192,192,45780,1,0,0:0:0:0:
64,192,45900,1,0,0:0:0:0:
448,192,45900,1,0,0:0:0:0:
64,192,46020,1,0,0:0:0:0:
64,192,46140,1,0,0:0:0:0:
64,192,46260,1,0,0:0:0:0:
448,192,46380,1,0,0:0:0:0:
192,192,46380,1,0,0:0:0:0:
64,192,46500,1,0,0:0:0:0:
192,192,46620,1,0,0:0:0:0:
320,192,46620,1,0,0:0:0:0:
320,192,46740,1,0,0:0:0:0:
320,192,46860,1,0,0:0:0:0:
448,192,46860,1,0,0:0:0:0:
64,192,46980,1,0,0:0:0:0:
320,192,47100,1,0,0:0:0:0:
320,192,47220,1,0,0:0:0:0:
448,192,47340,1,0,0:0:0:0:
64,192,47340,1,0,0:0:0:0:
192,192,47460,1,0,0:0:0:0:
448,192,47580,1,0,0:0:0:0:
320,192,47700,1,0,0:0:0:0:
448,192,47820,1,0,0:0:0:0:
64,192,47820,1,0,0:0:0:0:
64,192,47940,1,0,0:0:0:0:
64,192,48060,1,0,0:0:0:0:
320,192,48180,1,0,0:0:0:0:
448,192,48300,1,0,0:0:0:0:
192,192,48300,1,0,0:0:0:0:
192,192,48420,1,0,0:0:0:0:
192,192,48540,1,0,0:0:0:0:
64,192,48660,1,0,0:0:0:0:
448,192,48780,1,0,0:0:0:0:
320,192,48780,1,0,0:0:0:0:
448,192,48900,1,0,0:0:0:0:
64,192,48900,1,0,0:0:0:0:
448,192,49020,1,0,0:0:0:0:
192,192,49020,1,0,0:0:0:0:
320,192,49140,1,0,0:0:0:0:
448,192,49260,1,0,0:0:0:0:
192,192,49260,1,0,0:0:0:0:
448,192,49380,1,0,0:0:0:0:
64,192,49500,1,0,0:0:0:0:
192,192,49500,1,0,0:0:0:0:
448,192,49620,1,0,0:0:0:0:
320,192,49740,1,0,0:0:0:0:
192,192,49740,1,0,0:0:0:0:
320,192,49860,1,0,0:0:0:0:
64,192,49860,1,0,0:0:0:0:
320,192,49980,1,0,0:0:0:0:
448,192,49980,1,0,0:0:0:0:
320,192,50100,1,0,0:0:0:0:
448,192,50220,1,0,0:0:0:0:
64,192,50220,1,0,0:0:0:0:
320,192,50340,1,0,0:0:0:0:
64,192,50460,1,0,0:0:0:0:
448,192,50460,1,0,0:0:0:0:
64,192,50580,1,0,0:0:0:0:
64,192,50700,1,0,0:0:0:0:
192,192,50700,1,0,0:0:0:0:
448,192,50820,1,0,0:0:0:0:
64,192,50940,1,0,0:0:0:0:
320,192,50940,1,0,0:0:0:0:
64,192,51060,1,0,0:0:0:0:
192,192,51180,1,0,0:0:0:0:
320,192,51180,1,0,0:0:0:0:
448,192,51300,1,0,0:0:0:0:
192,192,51420,1,0,0:0:0:0:
64,192,51420,1,0,0:0:0:0:
320,192,51540,1,0,0:0:0:0:
448,192,51660,1,0,0:0:0:0:
64,192,51660,1,0,0:0:0:0:
448,192,51780,1,0,0:0:0:0:
448,192,51900,1,0,0:0:0:0:
192,192,51900,1,0,0:0:0:0:
448,192,52020,1,0,0:0:0:0:
192,192,52140,1,0,0:0:0:0:
64,192,52140,1,0,0:0:0:0:
192,192,52260,1,0,0:0:0:0:
192,192,52380,1,0,0:0:0:0:
448,192,52380,1,0,0:0:0:0:
192,192,52500,1,0,0:0:0:0:
320,192,52620,1,0,0:0:0:0:
64,192,52620,1,0,0:0:0:0:
320,192,52740,1,0,0:0:0:0:
320,192,52860,1,0,0:0:0:0:
192,192,52860,1,0,0:0:0:0:
448,192,52980,1,0,0:0:0:0:
320,192,53100,1,0,0:0:0:0:
64,192,53100,1,0,0:0:0:0:
320,192,53220,1,0,0:0:0:0:
448,192,53340,1,0,0:0:0:0:
64,192,53340,1,0,0:0:0:0:
192,192,53460,1,0,0:0:0:0:
64,192,53580,1,0,0:0:0:0:
448,192,53580,1,0,0:0:0:0:
64,192,53700,1,0,0:0:0:0:
320,192,53700,1,0,0:0:0:0:
64,192,53820,1,0,0:0:0:0:
448,192,53820,1,0,0:0:0:0:
64,192,53940,1,0,0:0:0:0:
448,192,54060,1,0,0:0:0:0:
320,192,54060,1,0,0:0:0:0:
64,192,54180,1,0,0:0:0:0:
448,192,54300,1,0,0:0:0:0:
192,192,54300,1,0,0:0:0:0:
448,192,54420,1,0,0:0:0:0:
448,192,54540,1,0,0:0:0:0:
64,192,54540,1,0,0:0:0:0:
320,192,54660,1,0,0:0:0:0:
448,192,54780,1,0,0:0:0:0:
192,192,54780,1,0,0:0:0:0:
448,192,54900,1,0,0:0:0:0:
192,192,55020,1,0,0:0:0:0:
64,192,55020,1,0,0:0:0:0:
64,192,55140,1,0,0:0:0:0:
448,192,55140,1,0,0:0:0:0:
192,192,55260,1,0,0:0:0:0:
320,192,55260,1,0,0:0:0:0:
448,192,55380,1,0,0:0:0:0:
64,192,55500,1,0,0:0:0:0:
192,192,55500,1,0,0:0:0:0:
320,192,55620,1,0,0:0:0:0:
192,192,55740,1,0,0:0:0:0:
448,192,55740,1,0,0:0:0:0:
320,192,55860,1,0,0:0:0:0:
64,192,55980,1,0,0:0:0:0:
192,192,55980,1,0,0:0:0:0:
448,192,56100,1,0,0:0:0:0:
192,192,56220,1,0,0:0:0:0:
320,192,56220,1,0,0:0:0:0:
448,192,56340,1,0,0:0:0:0:
64,192,56460,1,0,0:0:0:0:
192,192,56460,1,0,0:0:0:0:
448,192,56580,1,0,0:0:0:0:
64,192,56580,1,0,0:0:0:0:
64,192,56700,1,0,0:0:0:0:
320,192,56700,1,0,0:0:0:0:
192,192,56820,1,0,0:0:0:0:
64,192,56940,1,0,0:0:0:0:
320,192,56940,1,0,0:0:0:0:
64,192,57060,1,0,0:0:0:0:
448,192,57180,1,0,0:0:0:0:
320,192,57180,1,0,0:0:0:0:
64,192,57300,1,0,0:0:0:0:
320,192,57420,1,0,0:0:0:0:
192,192,57420,1,0,0:0:0:0:
192,192,57540,1,0,0:0:0:0:
448,192,57540,1,0,0:0:0:0:
192,192,57660,1,0,0:0:0:0:
64,192,57660,1,0,0:0:0:0:
192,192,57780,1,0,0:0:0:0:
64,192,57900,1,0,0:0:0:0:
448,192,57900,1,0,0:0:0:0:
192,192,58020,1,0,0:0:0:0:
64,192,58140,1,0,0:0:0:0:
448,192,58140,1,0,0:0:0:0:
448,192,58260,1,0,0:0:0:0:
448,192,58380,1,0,0:0:0:0:
320,192,58380,1,0,0:0:0:0:
64,192,58500,1,0,0:0:0:0:
448,192,58620,1,0,0:0:0:0:
192,192,58620,1,0,0:0:0:0:
448,192,58740,1,0,0:0:0:0:
320,192,58860,1,0,0:0:0:0:
192,192,58860,1,0,0:0:0:0:
64,192,58980,1,0,0:0:0:0:
320,192,59100,1,0,0:0:0:0:
448,192,59100,1,0,0:0:0:0:
192,192,59220,1,0,0:0:0:0:
448,192,59340,1,0,0:0:0:0:
64,192,59340,1,0,0:0:0:0:
64,192,59460,1,0,0:0:0:0:
320,192,59580,1,0,0:0:0:0:
64,192,59580,1,0,0:0:0:0:
64,192,59700,1,0,0:0:0:0:
448,192,59820,1,0,0:0:0:0:
320,192,59820,1,0,0:0:0:0:
320,192,59940,1,0,0:0:0:0:
64,192,60060,1,0,0:0:0:0:
320,192,60060,1,0,0:0:0:0:
320,192,60180,1,0,0:0:0:0:
448,192,60300,1,0,0:0:0:0:
192,192,60300,1,0,0:0:0:0:
192,192,60420,1,0,0:0:0:0:
192,192,60540,1,0,0:0:0:0:
320,192,60540,1,0,0:0:0:0:
64,192,60660,1,0,0:0:0:0:
448,192,60780,1,0,0:0:0:0:
192,192,60780,1,0,0:0:0:0:
192,192,60900,1,0,0:0:0:0:
64,192,61020,1,0,0:0:0:0:
448,192,61020,1,0,0:0:0:0:
320,192,61140,1,0,0:0:0:0:
448,192,61260,1,0,0:0:0:0:
64,192,61260,1,0,0:0:0:0:
448,192,61380,1,0,0:0:0:0:
192,192,61380,1,0,0:0:0:0:
448,192,61500,1,0,0:0:0:0:
64,192,61500,1,0,0:0:0:0:
448,192,61620,1,0,0:0:0:0:
64,192,61740,1,0,0:0:0:0:
192,192,61740,1,0,0:0:0:0:
448,192,61860,1,0,0:0:0:0:
320,192,61980,1,0,0:0:0:0:
64,192,61980,1,0,0:0:0:0:
64,192,62100,1,0,0:0:0:0:
448,192,62220,1,0,0:0:0:0:
64,192,62220,1,0,0:0:0:0:
192,192,62340,1,0,0:0:0:0:
320,192,62460,1,0,0:0:0:0:
64,192,62460,1,0,0:0:0:0:
64,192,62580,1,0,0:0:0:0:
320,192,62700,1,0,0:0:0:0:
448,192,62700,1,0,0:0:0:0:
448,192,62820,1,0,0:0:0:0:
64,192,62820,1,0,0:0:0:0:
320,192,62940,1,0,0:0:0:0:
192,192,62940,1,0,0:0:0:0:
64,192,63060,5,0,0:0:0:0:
320,192,63180,1,0,0:0:0:0:
448,192,63180,1,0,0:0:0:0:
192,192,63300,1,0,0:0:0:0:
64,192,63420,1,0,0:0:0:0:
320,192,63420,1,0,0:0:0:0:
192,192,63540,1,0,0:0:0:0:
320,192,63660,5,0,0:0:0:0:
448,192,63660,1,0,0:0:0:0:
64,192,63780,1,0,0:0:0:0:
192,192,63900,1,0,0:0:0:0:
320,192,63900,1,0,0:0:0:0:
64,192,64020,1,0,0:0:0:0:
320,192,64140,5,0,0:0:0:0:
448,192,64140,1,0,0:0:0:0:
192,192,64260,1,0,0:0:0:0:
64,192,64380,1,0,0:0:0:0:
448,192,64380,1,0,0:0:0:0:
192,192,64440,1,0,0:0:0:0:
320,192,64500,1,0,0:0:0:0:
64,192,64560,1,0,0:0:0:0:
192,192,64620,1,0,0:0:0:0:
448,192,64620,1,0,0:0:0:0:
64,192,64740,1,0,0:0:0:0:
64,192,64860,1,0,0:0:0:0:
320,192,64860,1,0,0:0:0:0:
320,192,64980,1,0,0:0:0:0:
64,192,65100,1,0,0:0:0:0:
192,192,65100,1,0,0:0:0:0:
448,192,65160,1,0,0:0:0:0:
320,192,65220,1,0,0:0:0:0:
192,192,65280,1,0,0:0:0:0:
448,192,65340,1,0,0:0:0:0:
64,192,65400,1,0,0:0:0:0:
320,192,65460,1,0,0:0:0:0:
192,192,65520,1,0,0:0:0:0:
448,192,65580,1,0,0:0:0:0:
64,192,65580,1,0,0:0:0:0:
192,192,65700,1,0,0:0:0:0:
448,192,65820,1,0,0:0:0:0:
320,192,65880,1,0,0:0:0:0:
192,192,65940,1,0,0:0:0:0:
64,192,66000,1,0,0:0:0:0:
448,192,66060,1,0,0:0:0:0:
320,192,66060,1,0,0:0:0:0:
192,192,66120,1,0,0:0:0:0:
64,192,66180,1,0,0:0:0:0:
448,192,66240,1,0,0:0:0:0:
192,192,66300,1,0,0:0:0:0:
320,192,66360,1,0,0:0:0:0:
448,192,66420,1,0,0:0:0:0:
192,192,66480,1,0,0:0:0:0:
320,192,66540,1,0,0:0:0:0:
64,192,66540,1,0,0:0:0:0:
192,192,66660,1,0,0:0:0:0:
448,192,66780,1,0,0:0:0:0:
320,192,66780,1,0,0:0:0:0:
64,192,66900,1,0,0:0:0:0:
64,192,67020,1,0,0:0:0:0:
320,192,67020,1,0,0:0:0:0:
448,192,67080,1,0,0:0:0:0:
192,192,67140,1,0,0:0:0:0:
64,192,67200,1,0,0:0:0:0:
448,192,67260,1,0,0:0:0:0:
320,192,67260,1,0,0:0:0:0:
448,192,67380,1,0,0:0:0:0:
64,192,67500,1,0,0:0:0:0:
320,192,67500,1,0,0:0:0:0:
192,192,67560,1,0,0:0:0:0:
448,192,67620,1,0,0:0:0:0:
64,192,67740,1,0,0:0:0:0:
192,192,67740,1,0,0:0:0:0:
320,192,67860,1,0,0:0:0:0:
448,192,67980,1,0,0:0:0:0:
64,192,67980,1,0,0:0:0:0:
320,192,68040,1,0,0:0:0:0:
192,192,68100,1,0,0:0:0:0:
448,192,68160,1,0,0:0:0:0:
320,192,68220,1,0,0:0:0:0:
64,192,68220,1,0,0:0:0:0:
320,192,68340,1,0,0:0:0:0:
448,192,68460,1,0,0:0:0:0:
64,192,68460,1,0,0:0:0:0:
320,192,68580,1,0,0:0:0:0:
448,192,68700,1,0,0:0:0:0:
192,192,68700,1,0,0:0:0:0:
192,192,68820,1,0,0:0:0:0:
448,192,68940,1,0,0:0:0:0:
320,192,68940,1,0,0:0:0:0:
64,192,69000,1,0,0:0:0:0:
192,192,69060,1,0,0:0:0:0:
320,192,69120,1,0,0:0:0:0:
64,192,69180,1,0,0:0:0:0:
448,192,69240,1,0,0:0:0:0:
192,192,69300,1,0,0:0:0:0:
320,192,69360,1,0,0:0:0:0:
448,192,69420,1,0,0:0:0:0:
64,192,69420,1,0,0:0:0:0:
320,192,69540,1,0,0:0:0:0:
64,192,69660,1,0,0:0:0:0:
192,192,69720,1,0,0:0:0:0:
320,192,69780,1,0,0:0:0:0:
448,192,69840,1,0,0:0:0:0:
64,192,69900,1,0,0:0:0:0:
192,192,69900,1,0,0:0:0:0:
320,192,69960,1,0,0:0:0:0:
448,192,70020,1,0,0:0:0:0:
64,192,70080,1,0,0:0:0:0:
320,192,70140,1,0,0:0:0:0:
192,192,70200,1,0,0:0:0:0:
64,192,70260,1,0,0:0:0:0:
320,192,70320,1,0,0:0:0:0:
448,192,70380,1,0,0:0:0:0:
192,192,70380,1,0,0:0:0:0:
320,192,70500,1,0,0:0:0:0:
192,192,70620,1,0,0:0:0:0:
64,192,70620,1,0,0:0:0:0:
448,192,70740,1,0,0:0:0:0:
192,192,70860,1,0,0:0:0:0:
448,192,70860,1,0,0:0:0:0:
64,192,70920,1,0,0:0:0:0:
320,192,70980,1,0,0:0:0:0:
448,192,71040,1,0,0:0:0:0:
64,192,71100,1,0,0:0:0:0:
192,192,71100,1,0,0:0:0:0:
64,192,71220,1,0,0:0:0:0:
192,192,71340,1,0,0:0:0:0:
448,192,71340,1,0,0:0:0:0:
320,192,71400,1,0,0:0:0:0:
64,192,71460,1,0,0:0:0:0:
192,192,71580,1,0,0:0:0:0:
320,192,71580,1,0,0:0:0:0:
64,192,71700,1,0,0:0:0:0:
448,192,71820,1,0,0:0:0:0:
320,192,71820,1,0,0:0:0:0:
192,192,71880,1,0,0:0:0:0:
64,192,71940,1,0,0:0:0:0:
320,192,72000,1,0,0:0:0:0:
448,192,72060,1,0,0:0:0:0:
192,192,72060,1,0,0:0:0:0:
448,192,72180,1,0,0:0:0:0:
192,192,72300,1,0,0:0:0:0:
64,192,72300,1,0,0:0:0:0:
320,192,72420,1,0,0:0:0:0:
192,192,72540,1,0,0:0:0:0:
448,192,72540,1,0,0:0:0:0:
192,192,72660,1,0,0:0:0:0:
448,192,72780,1,0,0:0:0:0:
320,192,72780,1,0,0:0:0:0:
64,192,72840,1,0,0:0:0:0:
192,192,72900,1,0,0:0:0:0:
448,192,72960,1,0,0:0:0:0:
64,192,73020,1,0,0:0:0:0:
320,192,73080,1,0,0:0:0:0:
192,192,73140,1,0,0:0:0:0:
64,192,73200,1,0,0:0:0:0:
320,192,73260,1,0,0:0:0:0:
448,192,73260,1,0,0:0:0:0:
192,192,73380,1,0,0:0:0:0:
320,192,73500,1,0,0:0:0:0:
64,192,73560,1,0,0:0:0:0:
448,192,73620,1,0,0:0:0:0:
192,192,73680,1,0,0:0:0:0:
64,192,73740,1,0,0:0:0:0:
320,192,73740,1,0,0:0:0:0:
448,192,73800,1,0,0:0:0:0:
192,192,73860,1,0,0:0:0:0:
64,192,73920,1,0,0:0:0:0:
448,192,73980,1,0,0:0:0:0:
192,192,74040,1,0,0:0:0:0:
320,192,74100,1,0,0:0:0:0:
448,192,74160,1,0,0:0:0:0:
64,192,74220,1,0,0:0:0:0:
192,192,74220,1,0,0:0:0:0:
448,192,74340,1,0,0:0:0:0:
320,192,74460,1,0,0:0:0:0:
64,192,74460,1,0,0:0:0:0:
192,192,74580,1,0,0:0:0:0:
448,192,74700,1,0,0:0:0:0:
192,192,74700,1,0,0:0:0:0:
320,192,74760,1,0,0:0:0:0:
64,192,74820,1,0,0:0:0:0:
192,192,74880,1,0,0:0:0:0:
320,192,74940,1,0,0:0:0:0:
448,192,74940,1,0,0:0:0:0:
320,192,75060,1,0,0:0:0:0:
448,192,75180,1,0,0:0:0:0:
192,192,75180,1,0,0:0:0:0:
64,192,75240,1,0,0:0:0:0:
320,192,75300,1,0,0:0:0:0:
448,192,75420,1,0,0:0:0:0:
64,192,75420,1,0,0:0:0:0:
320,192,75540,1,0,0:0:0:0:
64,192,75660,1,0,0:0:0:0:
192,192,75660,1,0,0:0:0:0:
320,192,75720,1,0,0:0:0:0:
448,192,75780,1,0,0:0:0:0:
192,192,75840,1,0,0:0:0:0:
320,192,75900,1,0,0:0:0:0:
64,192,75900,1,0,0:0:0:0:
64,192,76020,1,0,0:0:0:0:
320,192,76140,1,0,0:0:0:0:
448,192,76140,1,0,0:0:0:0:
192,192,76260,1,0,0:0:0:0:
320,192,76380,1,0,0:0:0:0:
192,192,76380,1,0,0:0:0:0:
320,192,76500,1,0,0:0:0:0:
64,192,76620,1,0,0:0:0:0:
192,192,76620,1,0,0:0:0:0:
448,192,76680,1,0,0:0:0:0:
320,192,76740,1,0,0:0:0:0:
64,192,76800,1,0,0:0:0:0:
448,192,76860,1,0,0:0:0:0:
192,192,76920,1,0,0:0:0:0:
320,192,76980,1,0,0:0:0:0:
448,192,77040,1,0,0:0:0:0:
192,192,77100,1,0,0:0:0:0:
64,192,77100,1,0,0:0:0:0:
320,192,77220,1,0,0:0:0:0:
192,192,77340,1,0,0:0:0:0:
448,192,77400,1,0,0:0:0:0:
64,192,77460,1,0,0:0:0:0:
320,192,77520,1,0,0:0:0:0:
448,192,77580,1,0,0:0:0:0:
192,192,77580,1,0,0:0:0:0:
64,192,77640,1,0,0:0:0:0:
320,192,77700,1,0,0:0:0:0:
448,192,77760,1,0,0:0:0:0:
64,192,77820,1,0,0:0:0:0:
320,192,77880,1,0,0:0:0:0:
192,192,77940,1,0,0:0:0:0:
64,192,78000,1,0,0:0:0:0:
320,192,78060,1,0,0:0:0:0:
448,192,78060,1,0,0:0:0:0:
64,192,78180,1,0,0:0:0:0:
192,192,78300,1,0,0:0:0:0:
448,192,78300,1,0,0:0:0:0:
320,192,78420,1,0,0:0:0:0:
64,192,78540,1,0,0:0:0:0:
320,192,78540,1,0,0:0:0:0:
192,192,78600,1,0,0:0:0:0:
448,192,78660,1,0,0:0:0:0:
320,192,78720,1,0,0:0:0:0:
192,192,78780,1,0,0:0:0:0:
64,192,78780,1,0,0:0:0:0:
192,192,78900,1,0,0:0:0:0:
64,192,79020,1,0,0:0:0:0:
448,192,79020,1,0,0:0:0:0:
320,192,79140,1,0,0:0:0:0:
448,192,79260,1,0,0:0:0:0:
192,192,79260,1,0,0:0:0:0:
320,192,79380,1,0,0:0:0:0:
64,192,79500,1,0,0:0:0:0:
192,192,79560,1,0,0:0:0:0:
448,192,79620,1,0,0:0:0:0:
64,192,79680,1,0,0:0:0:0:
192,192,79740,1,0,0:0:0:0:
192,192,79860,1,0,0:0:0:0:
320,192,79980,1,0,0:0:0:0:
448,192,79980,1,0,0:0:0:0:
64,192,80100,1,0,0:0:0:0:
320,192,80220,1,0,0:0:0:0:
320,192,80340,1,0,0:0:0:0:
448,192,80460,1,0,0:0:0:0:
320,192,80520,1,0,0:0:0:0:
192,192,80580,1,0,0:0:0:0:
448,192,80640,1,0,0:0:0:0:
64,192,80700,1,0,0:0:0:0:
320,192,80760,1,0,0:0:0:0:
192,192,80820,1,0,0:0:0:0:
64,192,80880,1,0,0:0:0:0:
448,192,80940,1,0,0:0:0:0:
320,192,80940,1,0,0:0:0:0:
192,192,81060,1,0,0:0:0:0:
448,192,81180,1,0,0:0:0:0:
320,192,81240,1,0,0:0:0:0:
192,192,81300,1,0,0:0:0:0:
64,192,81360,1,0,0:0:0:0:
448,192,81420,1,0,0:0:0:0:
192,192,81480,1,0,0:0:0:0:
64,192,81540,1,0,0:0:0:0:
448,192,81600,1,0,0:0:0:0:
192,192,81660,1,0,0:0:0:0:
320,192,81720,1,0,0:0:0:0:
448,192,81780,1,0,0:0:0:0:
192,192,81840,1,0,0:0:0:0:
320,192,81900,1,0,0:0:0:0:
64,192,81900,1,0,0:0:0:0:
192,192,82020,1,0,0:0:0:0:
64,192,82140,1,0,0:0:0:0:
448,192,82260,1,0,0:0:0:0:
448,192,82380,1,0,0:0:0:0:
192,192,82440,1,0,0:0:0:0:
64,192,82500,1,0,0:0:0:0:
448,192,82560,1,0,0:0:0:0:
192,192,82620,1,0,0:0:0:0:
192,192,82740,1,0,0:0:0:0:
64,192,82860,1,0,0:0:0:0:
320,192,82860,1,0,0:0:0:0:
448,192,82920,1,0,0:0:0:0:
192,192,82980,1,0,0:0:0:0:
64,192,83100,1,0,0:0:0:0:
192,192,83220,1,0,0:0:0:0:
448,192,83340,1,0,0:0:0:0:
320,192,83400,1,0,0:0:0:0:
64,192,83460,1,0,0:0:0:0:
448,192,83520,1,0,0:0:0:0:
320,192,83580,1,0,0:0:0:0:
320,192,83700,1,0,0:0:0:0:
192,192,83820,1,0,0:0:0:0:
64,192,83820,1,0,0:0:0:0:
448,192,83940,1,0,0:0:0:0:
192,192,84060,1,0,0:0:0:0:
192,192,84180,1,0,0:0:0:0:
64,192,84300,1,0,0:0:0:0:
192,192,84360,1,0,0:0:0:0:
320,192,84420,1,0,0:0:0:0:
64,192,84480,1,0,0:0:0:0:
448,192,84540,1,0,0:0:0:0:
192,192,84600,1,0,0:0:0:0:
320,192,84660,1,0,0:0:0:0:
448,192,84720,1,0,0:0:0:0:
192,192,84780,1,0,0:0:0:0:
64,192,84780,1,0,0:0:0:0:
320,192,84900,1,0,0:0:0:0:
64,192,85020,1,0,0:0:0:0:
192,192,85080,1,0,0:0:0:0:
320,192,85140,1,0,0:0:0:0:
448,192,85200,1,0,0:0:0:0:
64,192,85260,1,0,0:0:0:0:
320,192,85320,1,0,0:0:0:0:
448,192,85380,1,0,0:0:0:0:
64,192,85440,1,0,0:0:0:0:
320,192,85500,1,0,0:0:0:0:
192,192,85560,1,0,0:0:0:0:
64,192,85620,1,0,0:0:0:0:
320,192,85680,1,0,0:0:0:0:
448,192,85740,1,0,0:0:0:0:
192,192,85740,1,0,0:0:0:0:
320,192,85860,1,0,0:0:0:0:
448,192,85980,1,0,0:0:0:0:
64,192,86100,1,0,0:0:0:0:
64,192,86220,1,0,0:0:0:0:
320,192,86280,1,0,0:0:0:0:
448,192,86340,1,0,0:0:0:0:
64,192,86400,1,0,0:0:0:0:
320,192,86460,1,0,0:0:0:0:
320,192,86580,1,0,0:0:0:0:
192,192,86700,1,0,0:0:0:0:
448,192,86700,1,0,0:0:0:0:
320,192,86820,1,0,0:0:0:0:
448,192,86940,1,0,0:0:0:0:
64,192,87060,1,0,0:0:0:0:
320,192,87180,1,0,0:0:0:0:
192,192,87240,1,0,0:0:0:0:
64,192,87300,1,0,0:0:0:0:
320,192,87360,1,0,0:0:0:0:
448,192,87420,1,0,0:0:0:0:
448,192,87540,1,0,0:0:0:0:
64,192,87660,1,0,0:0:0:0:
192,192,87660,1,0,0:0:0:0:
320,192,87780,1,0,0:0:0:0:
192,192,87900,1,0,0:0:0:0:
192,192,88020,1,0,0:0:0:0:
64,192,88140,1,0,0:0:0:0:
448,192,88200,1,0,0:0:0:0:
192,192,88260,1,0,0:0:0:0:
320,192,88320,1,0,0:0:0:0:
448,192,88380,1,0,0:0:0:0:
64,192,88440,1,0,0:0:0:0:
320,192,88500,1,0,0:0:0:0:
448,192,88560,1,0,0:0:0:0:
64,192,88620,1,0,0:0:0:0:
192,192,88620,1,0,0:0:0:0:
448,192,88740,1,0,0:0:0:0:
192,192,88860,1,0,0:0:0:0:
320,192,88920,1,0,0:0:0:0:
64,192,88980,1,0,0:0:0:0:
448,192,89040,1,0,0:0:0:0:
192,192,89100,1,0,0:0:0:0:
64,192,89160,1,0,0:0:0:0:
448,192,89220,1,0,0:0:0:0:
192,192,89280,1,0,0:0:0:0:
64,192,89340,1,0,0:0:0:0:
320,192,89400,1,0,0:0:0:0:
192,192,89460,1,0,0:0:0:0:
64,192,89520,1,0,0:0:0:0:
320,192,89580,1,0,0:0:0:0:
448,192,89580,1,0,0:0:0:0:
64,192,89700,1,0,0:0:0:0:
448,192,89820,1,0,0:0:0:0:
192,192,89940,1,0,0:0:0:0:
192,192,90060,1,0,0:0:0:0:
320,192,90120,1,0,0:0:0:0:
448,192,90180,1,0,0:0:0:0:
192,192,90240,1,0,0:0:0:0:
64,192,90300,1,0,0:0:0:0:
64,192,90420,1,0,0:0:0:0:
192,192,90540,1,0,0:0:0:0:
320,192,90540,1,0,0:0:0:0:
64,192,90600,1,0,0:0:0:0:
448,192,90660,1,0,0:0:0:0:
320,192,90780,1,0,0:0:0:0:
448,192,90900,1,0,0:0:0:0:
192,192,91020,1,0,0:0:0:0:
320,192,91080,1,0,0:0:0:0:
448,192,91140,1,0,0:0:0:0:
192,192,91200,1,0,0:0:0:0:
64,192,91260,1,0,0:0:0:0:
64,192,91380,1,0,0:0:0:0:
448,192,91500,1,0,0:0:0:0:
320,192,91500,1,0,0:0:0:0:
192,192,91620,1,0,0:0:0:0:
320,192,91740,1,0,0:0:0:0:
320,192,91860,1,0,0:0:0:0:
448,192,91980,1,0,0:0:0:0:
64,192,92040,1,0,0:0:0:0:
320,192,92100,1,0,0:0:0:0:
192,192,92160,1,0,0:0:0:0:
64,192,92220,1,0,0:0:0:0:
448,192,92280,1,0,0:0:0:0:
192,192,92340,1,0,0:0:0:0:
64,192,92400,1,0,0:0:0:0:
320,192,92460,1,0,0:0:0:0:
448,192,92460,1,0,0:0:0:0:
64,192,92580,1,0,0:0:0:0:
320,192,92700,1,0,0:0:0:0:
192,192,92760,1,0,0:0:0:0:
448,192,92820,1,0,0:0:0:0:
64,192,92880,1,0,0:0:0:0:
320,192,92940,1,0,0:0:0:0:
448,192,93000,1,0,0:0:0:0:
64,192,93060,1,0,0:0:0:0:
320,192,93120,1,0,0:0:0:0:
448,192,93180,1,0,0:0:0:0:
192,192,93240,1,0,0:0:0:0:
320,192,93300,1,0,0:0:0:0:
448,192,93360,1,0,0:0:0:0:
64,192,93420,1,0,0:0:0:0:
192,192,93420,1,0,0:0:0:0:
448,192,93540,1,0,0:0:0:0:
64,192,93660,1,0,0:0:0:0:
320,192,93780,5,0,0:0:0:0:
448,192,93900,1,0,0:0:0:0:
64,192,93900,1,0,0:0:0:0:
64,192,94020,1,0,0:0:0:0:
448,192,94140,1,0,0:0:0:0:
192,192,94140,1,0,0:0:0:0:
64,192,94260,1,0,0:0:0:0:
320,192,94260,1,0,0:0:0:0:
192,192,94380,1,0,0:0:0:0:
448,192,94380,1,0,0:0:0:0:
192,192,94500,1,0,0:0:0:0:
448,192,94620,1,0,0:0:0:0:
64,192,94620,1,0,0:0:0:0:
192,192,94740,1,0,0:0:0:0:
320,192,94740,1,0,0:0:0:0:
64,192,94860,5,0,0:0:0:0:
320,192,94860,1,0,0:0:0:0:
64,192,94980,1,0,0:0:0:0:
448,192,95100,1,0,0:0:0:0:
448,192,95220,1,0,0:0:0:0:
192,192,95340,1,0,0:0:0:0:
320,192,95340,1,0,0:0:0:0:
192,192,95460,1,0,0:0:0:0:
320,192,95580,1,0,0:0:0:0:
320,192,95700,1,0,0:0:0:0:
64,192,95820,1,0,0:0:0:0:
448,192,95820,1,0,0:0:0:0:
64,192,95940,1,0,0:0:0:0:
64,192,96060,1,0,0:0:0:0:
64,192,96180,1,0,0:0:0:0:
448,192,96300,1,0,0:0:0:0:
320,192,96300,1,0,0:0:0:0:
64,192,96420,1,0,0:0:0:0:
320,192,96540,1,0,0:0:0:0:
320,192,96660,1,0,0:0:0:0:
320,192,96780,1,0,0:0:0:0:
64,192,96780,1,0,0:0:0:0:
320,192,96900,1,0,0:0:0:0:
448,192,97020,1,0,0:0:0:0:
192,192,97140,1,0,0:0:0:0:
320,192,97260,1,0,0:0:0:0:
64,192,97260,1,0,0:0:0:0:
320,192,97380,1,0,0:0:0:0:
448,192,97380,1,0,0:0:0:0:
192,192,97500,1,0,0:0:0:0:
192,192,97620,1,0,0:0:0:0:
448,192,97740,1,0,0:0:0:0:
64,192,97740,1,0,0:0:0:0:
448,192,97860,1,0,0:0:0:0:
192,192,97980,1,0,0:0:0:0:
192,192,98100,1,0,0:0:0:0:
448,192,98100,1,0,0:0:0:0:
64,192,98220,1,0,0:0:0:0:
320,192,98220,1,0,0:0:0:0:
64,192,98340,1,0,0:0:0:0:
320,192,98460,1,0,0:0:0:0:
320,192,98580,1,0,0:0:0:0:
448,192,98700,1,0,0:0:0:0:
192,192,98700,1,0,0:0:0:0:
448,192,98820,1,0,0:0:0:0:
64,192,98940,1,0,0:0:0:0:
64,192,99060,1,0,0:0:0:0:
320,192,99180,1,0,0:0:0:0:
192,192,99180,1,0,0:0:0:0:
320,192,99300,1,0,0:0:0:0:
192,192,99420,1,0,0:0:0:0:
192,192,99540,1,0,0:0:0:0:
448,192,99660,1,0,0:0:0:0:
64,192,99660,1,0,0:0:0:0:
448,192,99780,1,0,0:0:0:0:
448,192,99900,1,0,0:0:0:0:
448,192,100020,1,0,0:0:0:0:
192,192,100140,1,0,0:0:0:0:
64,192,100140,1,0,0:0:0:0:
448,192,100260,1,0,0:0:0:0:
192,192,100380,1,0,0:0:0:0:
192,192,100500,1,0,0:0:0:0:
192,192,100620,1,0,0:0:0:0:
448,192,100620,1,0,0:0:0:0:
192,192,100740,1,0,0:0:0:0:
64,192,100860,1,0,0:0:0:0:
320,192,100980,1,0,0:0:0:0:
192,192,101100,1,0,0:0:0:0:
448,192,101100,1,0,0:0:0:0:
192,192,101220,1,0,0:0:0:0:
64,192,101220,1,0,0:0:0:0:
320,192,101340,1,0,0:0:0:0:
320,192,101460,1,0,0:0:0:0:
64,192,101580,1,0,0:0:0:0:
448,192,101580,1,0,0:0:0:0:
64,192,101700,1,0,0:0:0:0:
320,192,101820,1,0,0:0:0:0:
320,192,101940,1,0,0:0:0:0:
64,192,101940,1,0,0:0:0:0:
448,192,102060,1,0,0:0:0:0:
192,192,102060,1,0,0:0:0:0:
448,192,102180,1,0,0:0:0:0:
192,192,102300,1,0,0:0:0:0:
192,192,102420,1,0,0:0:0:0:
64,192,102540,5,0,0:0:0:0:
320,192,102540,1,0,0:0:0:0:
64,192,102660,1,0,0:0:0:0:
448,192,102780,1,0,0:0:0:0:
448,192,102900,1,0,0:0:0:0:
320,192,103020,1,0,0:0:0:0:
192,192,103020,1,0,0:0:0:0:
192,192,103140,1,0,0:0:0:0:
320,192,103260,1,0,0:0:0:0:
320,192,103380,1,0,0:0:0:0:
448,192,103500,1,0,0:0:0:0:
64,192,103500,1,0,0:0:0:0:
64,192,103620,1,0,0:0:0:0:
64,192,103740,1,0,0:0:0:0:
64,192,103860,1,0,0:0:0:0:
320,192,103980,1,0,0:0:0:0:
448,192,103980,1,0,0:0:0:0:
64,192,104100,1,0,0:0:0:0:
320,192,104220,1,0,0:0:0:0:
320,192,104340,1,0,0:0:0:0:
320,192,104460,1,0,0:0:0:0:
64,192,104460,1,0,0:0:0:0:
320,192,104580,1,0,0:0:0:0:
448,192,104700,1,0,0:0:0:0:
192,192,104820,1,0,0:0:0:0:
64,192,104940,1,0,0:0:0:0:
320,192,104940,1,0,0:0:0:0:
320,192,105060,1,0,0:0:0:0:
448,192,105060,1,0,0:0:0:0:
192,192,105180,1,0,0:0:0:0:
192,192,105300,1,0,0:0:0:0:
448,192,105420,1,0,0:0:0:0:
64,192,105420,1,0,0:0:0:0:
448,192,105540,1,0,0:0:0:0:
192,192,105660,1,0,0:0:0:0:
192,192,105780,1,0,0:0:0:0:
448,192,105780,1,0,0:0:0:0:
320,192,105900,1,0,0:0:0:0:
64,192,105900,1,0,0:0:0:0:
64,192,106020,1,0,0:0:0:0:
320,192,106140,1,0,0:0:0:0:
320,192,106260,1,0,0:0:0:0:
448,192,106380,1,0,0:0:0:0:
64,192,106380,1,0,0:0:0:0:
64,192,106500,1,0,0:0:0:0:
320,192,106620,1,0,0:0:0:0:
320,192,106740,1,0,0:0:0:0:
448,192,106860,1,0,0:0:0:0:
64,192,106860,1,0,0:0:0:0:
448,192,106980,1,0,0:0:0:0:
192,192,107100,1,0,0:0:0:0:
192,192,107220,1,0,0:0:0:0:
320,192,107340,1,0,0:0:0:0:
64,192,107340,1,0,0:0:0:0:
320,192,107460,1,0,0:0:0:0:
320,192,107580,1,0,0:0:0:0:
320,192,107700,1,0,0:0:0:0:
64,192,107820,1,0,0:0:0:0:
192,192,107820,1,0,0:0:0:0:
320,192,107940,1,0,0:0:0:0:
192,192,108060,1,0,0:0:0:0:
192,192,108180,1,0,0:0:0:0:
320,192,108300,1,0,0:0:0:0:
192,192,108300,1,0,0:0:0:0:
192,192,108420,1,0,0:0:0:0:
448,192,108540,1,0,0:0:0:0:
192,192,108660,1,0,0:0:0:0:
320,192,108780,1,0,0:0:0:0:
448,192,108780,1,0,0:0:0:0:
320,192,108900,1,0,0:0:0:0:
64,192,108900,1,0,0:0:0:0:
448,192,109020,1,0,0:0:0:0:
448,192,109140,1,0,0:0:0:0:
192,192,109260,1,0,0:0:0:0:
64,192,109260,1,0,0:0:0:0:
192,192,109380,1,0,0:0:0:0:
64,192,109500,1,0,0:0:0:0:
64,192,109620,1,0,0:0:0:0:
320,192,109620,1,0,0:0:0:0:
192,192,109740,1,0,0:0:0:0:
448,192,109740,1,0,0:0:0:0:
448,192,109860,1,0,0:0:0:0:
192,192,109980,1,0,0:0:0:0:
192,192,110100,1,0,0:0:0:0:
320,192,110220,1,0,0:0:0:0:
64,192,110220,1,0,0:0:0:0:
320,192,110340,1,0,0:0:0:0:
64,192,110460,1,0,0:0:0:0:
64,192,110580,1,0,0:0:0:0:
320,192,110700,1,0,0:0:0:0:
320,192,110820,1,0,0:0:0:0:
192,192,110940,1,0,0:0:0:0:
192,192,111060,1,0,0:0:0:0:
448,192,111180,1,0,0:0:0:0:
448,192,111300,1,0,0:0:0:0:
448,192,111420,1,0,0:0:0:0:
448,192,111540,1,0,0:0:0:0:
448,192,111660,1,0,0:0:0:0:
64,192,111780,1,0,0:0:0:0:
192,192,111900,1,0,0:0:0:0:
192,192,112020,1,0,0:0:0:0:
192,192,112140,1,0,0:0:0:0:
192,192,112260,1,0,0:0:0:0:
448,192,112380,1,0,0:0:0:0:
448,192,112500,1,0,0:0:0:0:
192,192,112620,1,0,0:0:0:0:
192,192,112740,1,0,0:0:0:0:
320,192,112860,1,0,0:0:0:0:
320,192,112980,1,0,0:0:0:0:
448,192,113100,1,0,0:0:0:0:
448,192,113220,1,0,0:0:0:0:
192,192,113340,1,0,0:0:0:0:
192,192,113460,1,0,0:0:0:0:
64,192,113580,1,0,0:0:0:0:
64,192,113700,1,0,0:0:0:0:
320,192,113820,1,0,0:0:0:0:
320,192,113940,1,0,0:0:0:0:
192,192,114060,1,0,0:0:0:0:
192,192,114180,1,0,0:0:0:0:
448,192,114300,1,0,0:0:0:0:
448,192,114420,1,0,0:0:0:0:
192,192,114540,1,0,0:0:0:0:
192,192,114660,1,0,0:0:0:0:
320,192,114780,1,0,0:0:0:0:
320,192,114900,1,0,0:0:0:0:
64,192,115020,1,0,0:0:0:0:
64,192,115140,1,0,0:0:0:0:
64,192,115260,1,0,0:0:0:0:
64,192,115380,1,0,0:0:0:0:
64,192,115500,1,0,0:0:0:0:
448,192,115620,1,0,0:0:0:0:
320,192,115740,1,0,0:0:0:0:
320,192,115860,1,0,0:0:0:0:
320,192,115980,1,0,0:0:0:0:
320,192,116100,1,0,0:0:0:0:
64,192,116220,1,0,0:0:0:0:
64,192,116340,1,0,0:0:0:0:
320,192,116460,1,0,0:0:0:0:
320,192,116580,1,0,0:0:0:0:
192,192,116700,1,0,0:0:0:0:
192,192,116820,1,0,0:0:0:0:
64,192,116940,1,0,0:0:0:0:
64,192,117060,1,0,0:0:0:0:
320,192,117180,1,0,0:0:0:0:
320,192,117300,1,0,0:0:0:0:
448,192,117420,1,0,0:0:0:0:
448,192,117540,1,0,0:0:0:0:
192,192,117660,1,0,0:0:0:0:
192,192,117780,1,0,0:0:0:0:
320,192,117900,1,0,0:0:0:0:
320,192,118020,1,0,0:0:0:0:
64,192,118140,1,0,0:0:0:0:
64,192,118260,1,0,0:0:0:0:
320,192,118380,1,0,0:0:0:0:
320,192,118500,1,0,0:0:0:0:
192,192,118620,1,0,0:0:0:0:
192,192,118740,1,0,0:0:0:0:
448,192,118860,1,0,0:0:0:0:
448,192,118980,1,0,0:0:0:0:
448,192,119100,1,0,0:0:0:0:
448,192,119220,1,0,0:0:0:0:
448,192,119340,1,0,0:0:0:0:
64,192,119460,1,0,0:0:0:0:
192,192,119580,1,0,0:0:0:0:
192,192,119700,1,0,0:0:0:0:
192,192,119820,1,0,0:0:0:0:
192,192,119940,1,0,0:0:0:0:
448,192,120060,1,0,0:0:0:0:
448,192,120180,1,0,0:0:0:0:
192,192,120300,1,0,0:0:0:0:
192,192,120420,1,0,0:0:0:0:
320,192,120540,1,0,0:0:0:0:
320,192,120660,1,0,0:0:0:0:
448,192,120780,1,0,0:0:0:0:
448,192,120900,1,0,0:0:0:0:
64,192,121020,1,0,0:0:0:0:
64,192,121140,1,0,0:0:0:0:
448,192,121260,1,0,0:0:0:0:
448,192,121380,1,0,0:0:0:0:
192,192,121500,1,0,0:0:0:0:
192,192,121620,1,0,0:0:0:0:
320,192,121740,1,0,0:0:0:0:
320,192,121860,1,0,0:0:0:0:
320,192,121980,1,0,0:0:0:0:
320,192,122100,1,0,0:0:0:0:
320,192,122220,1,0,0:0:0:0:
448,192,122340,1,0,0:0:0:0:
192,192,122460,1,0,0:0:0:0:
192,192,122580,1,0,0:0:0:0:
64,192,122700,1,0,0:0:0:0:
64,192,122820,1,0,0:0:0:0:
64,192,122940,1,0,0:0:0:0:
64,192,123060,1,0,0:0:0:0:
448,192,123180,1,0,0:0:0:0:
448,192,123300,1,0,0:0:0:0:
192,192,123420,1,0,0:0:0:0:
192,192,123540,1,0,0:0:0:0:
192,192,123660,1,0,0:0:0:0:
192,192,123780,1,0,0:0:0:0:
320,192,123900,1,0,0:0:0:0:
320,192,124020,1,0,0:0:0:0:
64,192,124140,1,0,0:0:0:0:
64,192,124260,1,0,0:0:0:0:
320,192,124380,1,0,0:0:0:0:
320,192,124500,1,0,0:0:0:0:
192,192,124620,1,0,0:0:0:0:
192,192,124740,1,0,0:0:0:0:
192,192,124860,1,0,0:0:0:0:
192,192,124980,1,0,0:0:0:0:
320,192,125100,1,0,0:0:0:0:
320,192,125220,1,0,0:0:0:0:
320,192,125340,1,0,0:0:0:0:
320,192,125460,1,0,0:0:0:0:
