osu file format v14

[General]
AudioFilename: audio.mp3
AudioLeadIn: 0
PreviewTime: 54010
Countdown: 0
SampleSet: None
StackLeniency: 0.7
Mode: 1
LetterboxInBreaks: 0
WidescreenStoryboard: 0

[Editor]
DistanceSpacing: 1.6
BeatDivisor: 4
GridSize: 4
TimelineZoom: 2

[Metadata]
Title:ZERO (TV Size)
TitleUnicode:ZERO (TV Size)
Artist:Kensho Ono
ArtistUnicode:小野賢章
Creator:[Kurose Riku]
Version:Prophecy's Muzukashii
Source:黒子のバスケ
Tags:kuroko no basuke Basketball season 3 rd 帝光篇 opening op 6 japanese anime Prophecy Regou
BeatmapID:2876039
BeatmapSetID:1029552

[Difficulty]
HPDrainRate:6
CircleSize:2
OverallDifficulty:5
ApproachRate:0
SliderMultiplier:1.4
SliderTickRate:1

[Events]
//Background and Video events
0,0,"J-pic.jpg",0,155
//Break Periods
//Storyboard Layer 0 (Background)
//Storyboard Layer 1 (Fail)
//Storyboard Layer 2 (Pass)
//Storyboard Layer 3 (Foreground)
//Storyboard Layer 4 (Overlay)
//Storyboard Sound Samples

[TimingPoints]
472.453578138534,307.692307692308,4,1,0,90,1,0
54626,-100,4,1,0,90,0,1
74318,-100,4,1,0,90,0,0

[HitObjects]
256,192,472,5,0,0:0:0:0:
256,192,626,1,0,0:0:0:0:
256,192,780,1,8,0:0:0:0:
256,192,1087,1,0,0:0:0:0:
256,192,1241,1,8,0:0:0:0:
256,192,1549,1,0,0:0:0:0:
256,192,1703,1,8,0:0:0:0:
256,192,2010,1,8,0:0:0:0:
256,192,2164,1,0,0:0:0:0:
256,192,2472,1,0,0:0:0:0:
256,192,2626,1,8,0:0:0:0:
256,192,2780,1,0,0:0:0:0:
256,192,3087,1,0,0:0:0:0:
256,192,3241,1,8,0:0:0:0:
256,192,3549,1,0,0:0:0:0:
256,192,3703,1,8,0:0:0:0:
256,192,4010,1,0,0:0:0:0:
256,192,4164,1,8,0:0:0:0:
256,192,4472,1,8,0:0:0:0:
256,192,4626,1,0,0:0:0:0:
256,192,5395,1,4,0:0:0:0:
256,192,5703,1,0,0:0:0:0:
256,192,6011,1,8,0:0:0:0:
256,192,6319,1,8,0:0:0:0:
256,192,6472,1,0,0:0:0:0:
256,192,6626,1,8,0:0:0:0:
256,192,6933,1,0,0:0:0:0:
256,192,7241,1,8,0:0:0:0:
256,192,7395,1,0,0:0:0:0:
256,192,7549,1,8,0:0:0:0:
256,192,7856,1,8,0:0:0:0:
256,192,8164,1,8,0:0:0:0:
256,192,8318,1,8,0:0:0:0:
256,192,8626,1,0,0:0:0:0:
256,192,8780,1,8,0:0:0:0:
256,192,8933,1,0,0:0:0:0:
256,192,9241,1,8,0:0:0:0:
256,192,9549,1,0,0:0:0:0:
256,192,9703,1,8,0:0:0:0:
256,192,10318,1,4,0:0:0:0:
256,192,10626,1,8,0:0:0:0:
256,192,10933,1,8,0:0:0:0:
256,192,11241,1,8,0:0:0:0:
256,192,11395,1,0,0:0:0:0:
256,192,11549,1,8,0:0:0:0:
256,192,11857,1,8,0:0:0:0:
256,192,12164,1,8,0:0:0:0:
256,192,12472,1,0,0:0:0:0:
256,192,12780,1,8,0:0:0:0:
256,192,13087,1,0,0:0:0:0:
256,192,13241,1,8,0:0:0:0:
256,192,13549,1,8,0:0:0:0:
256,192,13857,1,0,0:0:0:0:
256,192,14010,1,8,0:0:0:0:
256,192,14318,1,0,0:0:0:0:
256,192,14626,1,8,0:0:0:0:
256,192,14780,1,0,0:0:0:0:
256,192,14933,1,8,0:0:0:0:
256,192,15241,1,4,0:0:0:0:
256,192,15549,1,8,0:0:0:0:
256,192,16164,1,8,0:0:0:0:
256,192,16472,1,0,0:0:0:0:
256,192,16779,1,8,0:0:0:0:
256,192,17395,1,8,0:0:0:0:
256,192,17702,1,4,0:0:0:0:
256,192,18164,1,12,0:0:0:0:
256,192,18626,1,4,0:0:0:0:
256,192,19087,1,12,0:0:0:0:
256,192,19549,1,12,0:0:0:0:
256,192,19703,1,12,0:0:0:0:
256,192,20164,1,4,0:0:0:0:
256,192,20472,1,8,0:0:0:0:
256,192,20933,1,0,0:0:0:0:
256,192,21087,1,8,0:0:0:0:
256,192,21395,1,0,0:0:0:0:
256,192,21702,1,8,0:0:0:0:
256,192,22010,1,0,0:0:0:0:
256,192,22164,1,0,0:0:0:0:
256,192,22318,1,8,0:0:0:0:
256,192,22625,1,0,0:0:0:0:
256,192,22933,1,8,0:0:0:0:
256,192,23395,1,0,0:0:0:0:
256,192,23549,1,8,0:0:0:0:
256,192,23857,1,0,0:0:0:0:
256,192,24164,1,8,0:0:0:0:
256,192,24472,1,0,0:0:0:0:
256,192,24626,1,0,0:0:0:0:
256,192,24779,1,8,0:0:0:0:
256,192,25087,1,0,0:0:0:0:
256,192,25395,1,8,0:0:0:0:
256,192,26010,1,8,0:0:0:0:
256,192,26318,1,0,0:0:0:0:
256,192,26472,1,0,0:0:0:0:
256,192,26626,1,8,0:0:0:0:
256,192,26933,1,0,0:0:0:0:
256,192,27241,1,8,0:0:0:0:
256,192,27549,1,0,0:0:0:0:
256,192,27857,1,8,0:0:0:0:
256,192,28010,1,0,0:0:0:0:
256,192,28318,1,8,0:0:0:0:
256,192,28626,1,4,0:0:0:0:
256,192,28933,1,12,0:0:0:0:
256,192,29241,1,12,0:0:0:0:
256,192,29549,1,0,0:0:0:0:
256,192,29703,1,8,0:0:0:0:
256,192,30010,1,4,0:0:0:0:
256,192,30318,1,8,0:0:0:0:
256,192,30780,1,0,0:0:0:0:
256,192,30933,1,8,0:0:0:0:
256,192,31087,1,0,0:0:0:0:
256,192,31395,1,8,0:0:0:0:
256,192,31703,1,0,0:0:0:0:
256,192,31857,1,8,0:0:0:0:
256,192,32164,1,8,0:0:0:0:
256,192,32472,1,0,0:0:0:0:
256,192,32780,1,8,0:0:0:0:
256,192,33241,1,0,0:0:0:0:
256,192,33395,1,8,0:0:0:0:
256,192,33549,1,0,0:0:0:0:
256,192,33857,1,8,0:0:0:0:
256,192,34164,1,0,0:0:0:0:
256,192,34472,1,8,0:0:0:0:
256,192,34780,1,0,0:0:0:0:
256,192,34933,1,8,0:0:0:0:
256,192,35241,1,8,0:0:0:0:
256,192,35549,1,0,0:0:0:0:
256,192,35703,1,0,0:0:0:0:
256,192,35857,1,8,0:0:0:0:
256,192,36164,1,8,0:0:0:0:
256,192,36472,1,8,0:0:0:0:
256,192,36780,1,0,0:0:0:0:
256,192,36933,1,0,0:0:0:0:
256,192,37087,1,8,0:0:0:0:
256,192,37395,1,8,0:0:0:0:
256,192,37703,1,8,0:0:0:0:
256,192,38010,1,0,0:0:0:0:
256,192,38164,1,0,0:0:0:0:
256,192,38318,1,8,0:0:0:0:
256,192,38626,1,8,0:0:0:0:
256,192,38780,1,8,0:0:0:0:
256,192,38933,1,0,0:0:0:0:
256,192,39087,1,0,0:0:0:0:
256,192,39241,1,8,0:0:0:0:
256,192,39549,1,12,0:0:0:0:
256,192,39857,1,0,0:0:0:0:
256,192,40010,1,8,0:0:0:0:
256,192,40318,1,0,0:0:0:0:
256,192,40472,1,8,0:0:0:0:
256,192,40780,1,8,0:0:0:0:
256,192,40933,1,0,0:0:0:0:
256,192,41241,1,0,0:0:0:0:
256,192,41395,1,8,0:0:0:0:
256,192,41703,1,8,0:0:0:0:
256,192,42010,1,12,0:0:0:0:
256,192,42318,1,8,0:0:0:0:
256,192,42780,1,8,0:0:0:0:
256,192,43241,1,0,0:0:0:0:
256,192,43549,1,8,0:0:0:0:
256,192,43703,1,0,0:0:0:0:
256,192,43857,1,8,0:0:0:0:
256,192,44164,1,0,0:0:0:0:
256,192,44472,1,8,0:0:0:0:
256,192,44780,1,0,0:0:0:0:
256,192,44933,1,8,0:0:0:0:
256,192,45241,1,0,0:0:0:0:
256,192,45395,1,8,0:0:0:0:
256,192,45703,1,8,0:0:0:0:
256,192,45857,1,0,0:0:0:0:
256,192,46164,1,0,0:0:0:0:
256,192,46318,1,8,0:0:0:0:
256,192,46626,1,8,0:0:0:0:
256,192,46933,1,8,0:0:0:0:
256,192,47087,1,0,0:0:0:0:
256,192,47241,1,8,0:0:0:0:
256,192,47703,1,8,0:0:0:0:
256,192,48164,1,8,0:0:0:0:
256,192,48472,1,0,0:0:0:0:
256,192,48626,1,8,0:0:0:0:
256,192,48780,1,0,0:0:0:0:
256,192,49087,1,0,0:0:0:0:
256,192,49395,1,8,0:0:0:0:
256,192,49703,1,0,0:0:0:0:
256,192,50164,1,0,0:0:0:0:
256,192,50318,1,8,0:0:0:0:
256,192,50626,1,8,0:0:0:0:
256,192,50933,1,0,0:0:0:0:
256,192,51087,1,8,0:0:0:0:
256,192,51395,1,0,0:0:0:0:
256,192,51549,1,8,0:0:0:0:
256,192,51857,1,0,0:0:0:0:
256,192,52164,1,12,0:0:0:0:
256,192,52472,1,0,0:0:0:0:
256,192,52626,1,8,0:0:0:0:
256,192,52933,1,0,0:0:0:0:
256,192,53087,1,8,0:0:0:0:
256,192,53395,12,0,54318,0:0:0:0:
256,192,54626,5,4,0:0:0:0:
256,192,54933,1,8,0:0:0:0:
256,192,55087,1,0,0:0:0:0:
256,192,55241,1,8,0:0:0:0:
256,192,55318,1,8,0:0:0:0:
256,192,55395,1,8,0:0:0:0:
256,192,55549,1,0,0:0:0:0:
256,192,55857,1,8,0:0:0:0:
256,192,56164,1,0,0:0:0:0:
256,192,56472,1,8,0:0:0:0:
256,192,56780,1,8,0:0:0:0:
256,192,56933,1,0,0:0:0:0:
256,192,57087,1,8,0:0:0:0:
256,192,57395,1,8,0:0:0:0:
256,192,57549,1,0,0:0:0:0:
256,192,57703,1,0,0:0:0:0:
256,192,57780,1,0,0:0:0:0:
256,192,57857,1,0,0:0:0:0:
256,192,58010,1,8,0:0:0:0:
256,192,58318,1,0,0:0:0:0:
256,192,58626,1,8,0:0:0:0:
256,192,58780,1,0,0:0:0:0:
256,192,59087,1,0,0:0:0:0:
256,192,59241,1,8,0:0:0:0:
256,192,59549,1,0,0:0:0:0:
256,192,59857,1,8,0:0:0:0:
256,192,60010,1,0,0:0:0:0:
256,192,60164,1,8,0:0:0:0:
256,192,60241,1,8,0:0:0:0:
256,192,60318,1,8,0:0:0:0:
256,192,60472,1,0,0:0:0:0:
256,192,60780,1,8,0:0:0:0:
256,192,61087,1,0,0:0:0:0:
256,192,61395,1,8,0:0:0:0:
256,192,61549,1,0,0:0:0:0:
256,192,61703,1,8,0:0:0:0:
256,192,62010,1,0,0:0:0:0:
256,192,62318,1,8,0:0:0:0:
256,192,62472,1,0,0:0:0:0:
256,192,62780,1,0,0:0:0:0:
256,192,62933,1,8,0:0:0:0:
256,192,63241,1,0,0:0:0:0:
256,192,63395,1,0,0:0:0:0:
256,192,63549,1,8,0:0:0:0:
256,192,63703,1,8,0:0:0:0:
256,192,63857,1,0,0:0:0:0:
256,192,64164,1,8,0:0:0:0:
256,192,64472,1,4,0:0:0:0:
256,192,64780,1,8,0:0:0:0:
256,192,64933,1,0,0:0:0:0:
256,192,65087,1,8,0:0:0:0:
256,192,65164,1,8,0:0:0:0:
256,192,65241,1,8,0:0:0:0:
256,192,65395,1,0,0:0:0:0:
256,192,65703,1,8,0:0:0:0:
256,192,66010,1,0,0:0:0:0:
256,192,66318,1,8,0:0:0:0:
256,192,66626,1,0,0:0:0:0:
256,192,66780,1,0,0:0:0:0:
256,192,66933,1,8,0:0:0:0:
256,192,67241,1,0,0:0:0:0:
256,192,67395,1,0,0:0:0:0:
256,192,67549,1,8,0:0:0:0:
256,192,67626,1,8,0:0:0:0:
256,192,67703,1,8,0:0:0:0:
256,192,67857,1,0,0:0:0:0:
256,192,68164,1,8,0:0:0:0:
256,192,68472,1,0,0:0:0:0:
256,192,68780,1,8,0:0:0:0:
256,192,68933,1,8,0:0:0:0:
256,192,69087,1,0,0:0:0:0:
256,192,69395,1,4,0:0:0:0:
256,192,69703,1,8,0:0:0:0:
256,192,69856,1,0,0:0:0:0:
256,192,70010,1,12,0:0:0:0:
256,192,70318,1,0,0:0:0:0:
256,192,70626,1,12,0:0:0:0:
256,192,71241,1,8,0:0:0:0:
256,192,71549,1,0,0:0:0:0:
256,192,71703,1,0,0:0:0:0:
256,192,71857,1,8,0:0:0:0:
256,192,72318,1,0,0:0:0:0:
256,192,72626,1,0,0:0:0:0:
256,192,72780,1,8,0:0:0:0:
256,192,73087,1,0,0:0:0:0:
256,192,73395,1,8,0:0:0:0:
256,192,73703,1,0,0:0:0:0:
256,192,73780,1,0,0:0:0:0:
258,191,73857,1,0,0:0:0:0:
258,191,74010,1,8,0:0:0:0:
258,191,74318,1,4,0:0:0:0:
258,191,74933,1,8,0:0:0:0:
257,193,75549,1,4,0:0:0:0:
257,193,76164,1,8,0:0:0:0:
257,193,76780,1,4,0:0:0:0:
257,193,77395,1,0,0:0:0:0:
257,193,77703,1,8,0:0:0:0:
257,193,78010,1,4,0:0:0:0:
257,193,78318,1,0,0:0:0:0:
257,193,78626,1,0,0:0:0:0:
257,193,78933,1,8,0:0:0:0:
257,193,79241,1,8,0:0:0:0:
257,193,79549,1,0,0:0:0:0:
257,193,79703,1,0,0:0:0:0:
257,193,80011,1,8,0:0:0:0:
257,193,80165,1,0,0:0:0:0:
257,193,80472,1,8,0:0:0:0:
257,193,80780,1,0,0:0:0:0:
257,193,80934,1,0,0:0:0:0:
257,193,81241,1,8,0:0:0:0:
257,193,81395,1,0,0:0:0:0:
257,193,81703,1,8,0:0:0:0:
257,193,82164,1,8,0:0:0:0:
257,193,82472,1,8,0:0:0:0:
257,193,82780,1,0,0:0:0:0:
257,193,82933,1,8,0:0:0:0:
257,193,83241,1,8,0:0:0:0:
257,193,83549,1,0,0:0:0:0:
257,193,83857,1,8,0:0:0:0:
257,193,84164,1,4,0:0:0:0:
256,192,84318,8,0,89087,0:0:0:0:
