osu file format v14

[General]
AudioFilename: audio.mp3
AudioLeadIn: 0
PreviewTime: 54010
Countdown: 0
SampleSet: Soft
StackLeniency: 0.7
Mode: 0
LetterboxInBreaks: 0
WidescreenStoryboard: 0

[Editor]
DistanceSpacing: 0.6
BeatDivisor: 4
GridSize: 4
TimelineZoom: 2

[Metadata]
Title:ZERO (TV Size)
TitleUnicode:ZERO (TV Size)
Artist:Kensho Ono
ArtistUnicode:小野賢章
Creator:[Kurose Riku]
Version:Insane
Source:黒子のバスケ
Tags:kuroko no basuke Basketball season 3 rd 帝光篇 opening op 6 japanese anime Prophecy Regou
BeatmapID:2152900
BeatmapSetID:1029552

[Difficulty]
HPDrainRate:5
CircleSize:4
OverallDifficulty:8
ApproachRate:9
SliderMultiplier:1.6
SliderTickRate:1

[Events]
//Background and Video events
0,0,"J-pic.jpg",0,0
//Break Periods
//Storyboard Layer 0 (Background)
//Storyboard Layer 1 (Fail)
//Storyboard Layer 2 (Pass)
//Storyboard Layer 3 (Foreground)
//Storyboard Layer 4 (Overlay)
//Storyboard Sound Samples

[TimingPoints]
472.453578138534,307.692307692308,4,2,0,75,1,0
5395,-100,4,2,0,75,0,0
15241,-133.333333333333,4,2,0,75,0,0
17703,-100,4,3,0,75,0,0
20164,-133.333333333333,4,2,0,65,0,0
28626,-83.3333333333333,4,3,0,75,0,0
30010,-100,4,3,0,75,0,0
36395,-100,4,3,0,5,0,0
36472,-100,4,3,0,75,0,0
36703,-100,4,3,0,5,0,0
36780,-100,4,3,0,75,0,0
37010,-100,4,3,0,5,0,0
37087,-100,4,3,0,75,0,0
37318,-100,4,3,0,5,0,0
37395,-100,4,3,0,75,0,0
41626,-100,4,3,0,5,0,0
41703,-100,4,3,0,75,0,0
49087,-125,4,3,0,75,0,0
49703,-166.666666666667,4,2,0,65,0,0
52164,-100,4,3,0,75,0,0
54626,-83.3333333333333,4,3,0,90,0,1
57010,-83.3333333333333,4,3,0,5,0,1
57087,-83.3333333333333,4,3,0,90,0,1
59164,-83.3333333333333,4,3,0,5,0,1
59241,-83.3333333333333,4,3,0,90,0,1
62857,-100,4,3,0,5,0,1
62933,-83.3333333333333,4,3,0,90,0,1
63164,-100,4,3,0,5,0,1
63241,-100,4,3,0,90,0,1
64087,-100,4,3,0,5,0,1
64164,-100,4,3,0,90,0,1
64472,-83.3333333333333,4,3,0,90,0,1
66857,-100,4,3,0,5,0,1
66933,-83.3333333333333,4,3,0,90,0,1
73087,-100,4,3,0,90,0,1
74318,-166.666666666667,4,3,0,90,0,0
74395,-166.666666666667,4,2,0,65,0,0
78780,-166.666666666667,4,3,0,65,0,0
79241,-100,4,3,0,75,0,0

[Colours]
Combo1 : 201,147,255
Combo2 : 255,145,145
Combo3 : 134,215,255
Combo4 : 123,123,255
Combo5 : 255,255,128
Combo6 : 145,255,145

[HitObjects]
18,176,472,5,0,0:0:0:0:
18,176,626,1,0,0:0:0:0:
115,86,780,1,2,0:0:0:0:
233,169,933,1,2,0:0:0:0:
233,169,1010,1,2,0:0:0:0:
233,169,1087,1,2,0:0:0:0:
233,169,1164,1,2,0:0:0:0:
233,169,1241,2,0,L|233:121,1,40,2|0,0:0|0:0,0:0:0:0:
310,27,1395,5,2,0:0:0:0:
310,27,1472,1,2,0:0:0:0:
310,27,1549,1,2,0:0:0:0:
310,27,1626,1,2,0:0:0:0:
310,27,1703,2,0,L|350:23,1,40,2|0,0:0|0:0,0:0:0:0:
431,127,1857,5,0,0:0:0:0:
431,127,2010,1,2,0:0:0:0:
363,212,2164,1,0,0:0:0:0:
270,124,2318,2,0,L|172:114,1,80,2|0,0:0|0:0,0:0:0:0:
114,220,2626,1,2,0:0:0:0:
55,72,2780,1,2,0:0:0:0:
126,245,2933,5,8,0:3:0:0:
415,10,3241,5,2,0:0:0:0:
323,173,3395,1,8,0:3:0:0:
137,7,3703,5,2,0:0:0:0:
229,174,3857,1,8,0:3:0:0:
229,174,4010,1,8,0:3:0:0:
312,59,4164,5,2,0:0:0:0:
212,217,4318,1,8,0:3:0:0:
212,217,4472,1,8,0:3:0:0:
179,44,4626,6,0,P|248:74|112:168,1,320,2|2,0:3|0:0,0:0:0:0:
322,228,5395,6,0,P|402:228|443:298,1,160,12|2,0:0|0:0,0:0:0:0:
341,368,5857,1,0,0:0:0:0:
239,296,6010,2,0,L|160:295,1,80,8|0,0:0|0:0,0:0:0:0:
289,206,6318,2,0,L|182:206,1,80,2|0,0:0|0:0,0:0:0:0:
88,47,6626,6,0,P|69:119|128:176,1,160,8|2,0:0|0:0,0:0:0:0:
333,19,7241,1,8,0:0:0:0:
405,129,7395,1,0,0:0:0:0:
405,129,7549,2,0,L|487:120,1,80,2|0,0:0|0:0,0:0:0:0:
350,267,7857,5,8,0:0:0:0:
324,143,8010,1,0,0:0:0:0:
298,18,8164,1,2,0:0:0:0:
160,101,8318,2,0,L|246:98,1,80,0|8,0:0|0:0,0:0:0:0:
332,238,8626,2,0,P|289:244|256:226,1,80,0|2,0:0|0:0,0:0:0:0:
129,130,8933,6,0,L|39:138,1,80,0|8,0:0|0:0,0:0:0:0:
136,278,9241,2,0,P|163:227|154:188,1,80,0|2,0:0|0:0,0:0:0:0:
254,121,9549,2,0,L|414:121,1,160
414,121,10010,1,2,0:0:0:0:
414,121,10164,1,0,0:0:0:0:
299,306,10318,6,0,L|128:292,1,160,12|2,0:0|0:0,0:0:0:0:
227,182,10780,1,0,0:0:0:0:
322,329,10933,2,0,P|362:326|396:306,1,80,8|0,0:0|0:0,0:0:0:0:
446,181,11241,2,0,L|364:175,1,80,2|0,0:0|0:0,0:0:0:0:
265,248,11549,6,0,P|236:220|226:181,1,80,8|0,0:0|0:0,0:0:0:0:
305,73,11857,2,0,L|219:65,1,80,2|0,0:0|0:0,0:0:0:0:
102,6,12164,2,0,P|114:46|104:86,1,80,8|0,0:0|0:0,0:0:0:0:
27,223,12472,1,2,0:0:0:0:
213,193,12626,1,0,0:0:0:0:
24,141,12780,5,8,0:0:0:0:
153,295,12933,1,0,0:0:0:0:
153,295,13087,1,2,0:0:0:0:
237,117,13241,2,0,P|194:100|145:115,1,80,0|8,0:0|0:0,0:0:0:0:
343,193,13549,2,0,L|428:192,1,80,0|2,0:0|0:0,0:0:0:0:
384,85,13857,1,0,0:0:0:0:
302,279,14010,6,0,L|478:273,1,160,12|2,0:0|0:0,0:0:0:0:
308,113,14472,1,2,0:3:0:0:
276,109,14548,1,2,0:3:0:0:
244,105,14625,1,8,0:0:0:0:
374,12,14780,1,8,0:3:0:0:
458,157,14933,1,8,0:3:0:0:
458,157,15087,1,8,0:3:0:0:
328,291,15241,1,4,0:0:0:0:
144,61,15549,6,0,L|273:50,1,120.000004577637,2|0,0:0|0:0,0:0:0:0:
348,191,16010,2,0,L|228:180,1,120.000004577637,2|0,0:0|0:0,0:0:0:0:
279,296,16472,5,2,0:0:0:0:
385,180,16626,1,0,0:0:0:0:
300,273,16780,1,2,0:0:0:0:
406,157,16933,1,0,0:0:0:0:
295,85,17087,2,0,L|228:81,1,60.0000022888184,2|0,0:0|0:0,0:0:0:0:
335,4,17395,2,0,L|401:7,1,60.0000022888184,2|0,0:0|0:0,0:0:0:0:
494,123,17703,5,4,0:2:0:0:
327,234,17857,2,0,L|318:141,1,80,0|0,0:0|0:0,0:0:0:0:
415,261,18164,2,0,L|401:102,1,160,4|0,0:2|0:0,0:0:0:0:
225,212,18626,1,4,0:2:0:0:
65,104,18780,6,0,L|57:13,1,80,2|0,0:0|0:0,0:0:0:0:
171,142,19087,2,0,B|225:117|225:117|333:160,1,160,4|0,0:2|0:0,0:0:0:0:
431,218,19549,1,4,0:2:0:0:
486,34,19703,1,6,0:0:0:0:
486,34,20010,5,0,0:0:0:0:
486,34,20164,2,0,L|496:164,1,120.000004577637,4|8,0:0|0:0,0:0:0:0:
481,255,20626,2,0,P|416:223|358:250,1,120.000004577637
287,291,21087,1,8,0:0:0:0:
287,291,21241,6,0,L|282:228,1,60.0000022888184
188,186,21549,2,0,L|195:260,1,60.0000022888184,0|8,0:0|0:0,0:0:0:0:
96,136,21857,2,0,L|106:261,1,120.000004577637
105,255,22318,1,8,0:0:0:0:
194,346,22472,5,0,0:0:0:0:
287,291,22626,2,0,L|420:292,1,120.000004577637,0|8,0:0|0:0,0:0:0:0:
416,126,23087,2,0,P|384:118|348:118,1,60.0000022888184
446,216,23395,2,0,P|414:208|378:208,1,60.0000022888184,0|8,0:0|0:0,0:0:0:0:
275,193,23703,6,0,P|269:162|288:119,1,60.0000022888184
316,53,24010,2,0,L|246:45,1,60.0000022888184,0|8,0:0|0:0,0:0:0:0:
161,34,24318,2,0,L|161:108,1,60.0000022888184
63,78,24626,2,0,L|63:141,1,60.0000022888184,0|8,0:0|0:0,0:0:0:0:
31,235,24933,1,0,0:0:0:0:
31,235,25087,6,0,L|160:226,1,120.000004577637,0|8,0:0|0:0,0:0:0:0:
235,285,25549,1,0,0:0:0:0:
328,175,25703,2,0,P|265:188|207:151,1,120.000004577637,0|8,0:0|0:0,0:0:0:0:
350,86,26164,2,0,L|289:86,1,60.0000022888184
216,14,26472,5,0,0:0:0:0:
130,70,26626,1,8,0:0:0:0:
130,70,26780,1,0,0:0:0:0:
130,70,26933,1,0,0:0:0:0:
130,70,27087,1,0,0:0:0:0:
130,70,27241,1,8,0:0:0:0:
130,70,27395,1,0,0:0:0:0:
130,70,27549,6,0,P|151:125|123:181,1,120.000004577637,0|8,0:0|0:0,0:0:0:0:
79,268,28010,2,0,L|202:257,1,120.000004577637
300,244,28472,1,2,0:0:0:0:
470,220,28626,5,12,0:0:0:0:
327,84,28933,1,12,0:0:0:0:
177,206,29241,1,12,0:0:0:0:
177,206,29549,5,0,0:0:0:0:
177,206,29626,1,0,0:0:0:0:
177,206,29703,2,0,P|160:262|235:330,1,143.999995605469,0|0,0:0|0:0,0:0:0:0:
228,355,30010,6,0,L|310:348,1,80,4|0,0:2|0:0,0:0:0:0:
406,315,30318,1,2,0:0:0:0:
406,315,30472,2,0,P|427:279|428:239,1,80
311,164,30780,2,0,P|315:203|340:235,1,80,0|2,0:0|0:0,0:0:0:0:
372,95,31087,6,0,P|448:110|510:55,1,160
426,14,31549,1,2,0:0:0:0:
296,65,31703,1,0,0:0:0:0:
296,65,31857,2,0,B|257:49|257:49|229:20,1,80,0|0,0:0|0:0,0:0:0:0:
94,60,32164,2,0,B|132:75|132:75|160:104,1,80,2|0,0:0|0:0,0:0:0:0:
60,204,32472,6,0,P|129:238|193:184,1,160,0|2,0:0|0:0,0:0:0:0:
263,269,32933,2,0,L|370:259,1,80
424,171,33241,2,0,P|388:156|345:172,1,80,0|2,0:0|0:0,0:0:0:0:
261,60,33549,6,0,P|273:97|254:150,1,80
132,193,33857,2,0,P|172:186|209:199,1,80,0|2,0:0|0:0,0:0:0:0:
288,364,34164,2,0,P|315:292|275:204,1,160
165,299,34626,2,0,P|213:304|234:277,1,80,2|0,0:0|0:0,0:0:0:0:
69,197,34933,6,0,L|173:187,1,80,4|0,0:0|0:0,0:0:0:0:
27,108,35241,2,0,L|194:91,1,160,2|0,0:0|0:0,0:0:0:0:
259,10,35703,1,0,0:0:0:0:
353,56,35857,2,0,P|368:93|349:136,1,80,2|0,0:0|0:0,0:0:0:0:
378,225,36164,6,0,P|319:222|273:176,1,120
199,108,36472,2,0,L|177:240,1,120,2|0,0:0|0:0,0:0:0:0:
118,303,36780,2,0,P|182:327|246:286,1,120
322,245,37087,2,0,B|280:304|325:362,1,120,2|0,0:0|0:0,0:0:0:0:
467,313,37395,5,0,0:0:0:0:
467,313,37549,2,0,B|372:304,1,80,0|2,0:0|0:0,0:0:0:0:
509,224,37857,1,0,0:0:0:0:
509,224,38010,2,0,B|408:215,1,80,0|0,0:0|0:0,0:0:0:0:
500,118,38318,2,0,L|393:108,1,80,2|0,0:0|0:0,0:0:0:0:
282,27,38626,5,2,0:0:0:0:
282,27,38780,1,2,0:0:0:0:
343,176,38933,1,2,0:0:0:0:
437,35,39087,1,0,0:0:0:0:
320,152,39241,5,8,0:0:0:0:
297,153,39318,1,8,0:0:0:0:
274,155,39395,1,8,0:0:0:0:
252,157,39472,1,8,0:0:0:0:
229,158,39549,1,2,0:0:0:0:
45,345,39857,5,8,0:0:0:0:
256,273,40010,1,4,0:2:0:0:
256,273,40318,5,8,0:0:0:0:
45,201,40472,1,4,0:2:0:0:
45,201,40780,5,8,0:0:0:0:
245,111,40933,1,4,0:2:0:0:
245,111,41241,5,8,0:0:0:0:
74,29,41395,2,0,B|128:-9|188:29,1,120,8|2,0:0|0:0,0:0:0:0:
245,111,41703,2,0,L|345:102,1,80,8|0,0:0|0:0,0:0:0:0:
383,182,41933,1,2,0:0:0:0:
383,182,42010,2,0,L|468:174,1,80,2|0,0:0|0:0,0:0:0:0:
427,305,42318,6,0,B|352:276|352:276|318:323|271:311,1,160,4|2,0:2|0:0,0:0:0:0:
222,229,42780,1,0,0:0:0:0:
114,305,42933,2,0,P|156:317|195:302,1,80
125,201,43241,2,0,B|45:201,1,80,2|0,0:0|0:0,0:0:0:0:
29,49,43549,6,0,P|25:105|60:137,1,80
119,19,43857,2,0,P|173:37|213:12,1,80,2|0,0:0|0:0,0:0:0:0:
130,130,44164,2,0,P|186:133|218:98,1,80,0|0,0:0|0:0,0:0:0:0:
293,53,44472,1,2,0:0:0:0:
293,53,44780,5,8,0:0:0:0:
504,125,44933,1,4,0:2:0:0:
504,125,45241,5,8,0:0:0:0:
293,197,45395,1,4,0:2:0:0:
293,197,45703,5,8,0:0:0:0:
504,269,45857,1,4,0:2:0:0:
504,269,46164,5,8,0:0:0:0:
326,360,46318,1,8,0:0:0:0:
302,357,46395,1,8,0:0:0:0:
278,355,46472,1,8,0:0:0:0:
258,340,46549,1,8,0:0:0:0:
234,346,46626,1,8,0:0:0:0:
210,352,46703,1,8,0:0:0:0:
187,358,46780,1,8,0:0:0:0:
25,284,46933,2,0,L|121:275,1,80,4|0,0:1|0:0,0:0:0:0:
166,85,47241,6,0,P|130:144|197:207,1,160,4|2,0:2|0:0,0:0:0:0:
267,247,47703,1,0,0:0:0:0:
378,126,47857,2,0,L|466:113,1,80
311,8,48164,2,0,L|304:108,1,80,2|0,0:0|0:0,0:0:0:0:
378,216,48472,6,0,L|479:229,1,80
340,305,48780,2,0,B|304:286|304:286|237:295,1,80,2|0,0:0|0:0,0:0:0:0:
161,131,49087,2,0,L|165:211,1,64,8|0,0:0|0:0,0:0:0:0:
164,194,49395,2,0,L|161:131,1,64,2|0,0:0|0:0,0:0:0:0:
54,301,49703,6,0,P|106:293|147:319,1,95.9999970703126,4|0,0:0|0:0,0:0:0:0:
234,361,50164,1,0,0:0:0:0:
312,295,50318,2,0,L|312:232,1,47.9999985351563,2|0,0:0|0:0,0:0:0:0:
312,295,50626,2,0,L|312:229,1,47.9999985351563,2|0,0:0|0:0,0:0:0:0:
414,145,50933,5,0,0:0:0:0:
336,79,51087,2,0,L|272:79,1,47.9999985351563,2|0,0:0|0:0,0:0:0:0:
203,22,51395,1,0,0:0:0:0:
117,93,51549,2,0,L|113:140,1,47.9999985351563,2|0,0:0|0:0,0:0:0:0:
117,93,51857,2,0,L|112:142,1,47.9999985351563,2|0,0:0|0:0,0:0:0:0:
132,272,52164,6,0,P|221:270|274:339,1,160,8|2,0:0|0:0,0:0:0:0:
463,286,52626,2,0,P|373:287|320:218,1,160,8|2,0:0|0:0,0:0:0:0:
181,345,53087,1,8,0:0:0:0:
409,217,53241,1,4,0:2:0:0:
256,192,53318,12,0,54318,0:0:0:0:
50,42,54626,6,0,P|104:25|158:54,1,95.9999970703126,4|0,0:1|0:0,0:0:0:0:
46,162,54933,2,0,P|100:179|154:150,1,95.9999970703126,4|0,0:1|0:0,0:0:0:0:
305,94,55241,2,0,L|185:93,1,95.9999970703126,8|0,0:0|0:0,0:0:0:0:
169,249,55549,2,0,B|210:228|210:228|276:258,1,95.9999970703126,2|0,0:0|0:0,0:0:0:0:
455,348,55857,6,0,L|453:154,1,191.999994140625,8|2,0:0|0:0,0:0:0:0:
455,61,56318,1,2,0:0:0:0:
285,220,56472,2,0,P|216:252|154:164,1,191.999994140625,8|2,0:0|0:0,0:0:0:0:
232,60,56933,1,8,0:0:0:0:
232,60,57010,1,8,0:0:0:0:
232,60,57087,6,0,L|225:184,1,95.9999970703126,8|0,0:0|0:0,0:0:0:0:
336,0,57395,2,0,L|331:116,1,95.9999970703126,2|0,0:0|0:0,0:0:0:0:
265,234,57703,2,0,P|207:247|164:206,1,95.9999970703126,8|0,0:0|0:0,0:0:0:0:
358,176,58010,2,0,P|398:160|451:180,1,95.9999970703126,2|0,0:0|0:0,0:0:0:0:
334,305,58318,6,0,P|389:253|458:339,1,191.999994140625,8|2,0:0|0:0,0:0:0:0:
390,382,58780,1,2,0:0:0:0:
257,346,58933,2,0,B|194:314|194:314|110:352,1,143.999995605469,8|0,0:0|0:0,0:0:0:0:
111,215,59241,2,0,L|-17:202,1,95.9999970703126,2|0,0:0|0:0,0:0:0:0:
135,89,59549,6,0,P|86:79|60:35,1,95.9999970703126,8|0,0:0|0:0,0:0:0:0:
15,205,59857,2,0,L|117:216,1,95.9999970703126,2|0,0:0|0:0,0:0:0:0:
230,97,60164,2,0,L|130:88,1,95.9999970703126,8|0,0:0|0:0,0:0:0:0:
15,205,60472,2,0,P|73:191|90:141,1,95.9999970703126,2|0,0:0|0:0,0:0:0:0:
294,31,60780,6,0,P|252:94|312:202,1,191.999994140625,8|2,0:0|0:0,0:0:0:0:
382,244,61241,1,2,0:0:0:0:
483,111,61395,2,0,P|448:166|408:84,1,191.999994140625,8|0,0:0|0:0,0:0:0:0:
463,18,61857,1,0,0:0:0:0:
324,52,62010,6,0,B|275:30|275:30|208:57|208:57|149:13,1,191.999994140625,8|2,0:0|0:0,0:0:0:0:
56,118,62472,1,2,0:0:0:0:
56,118,62626,2,0,B|141:117|141:117|105:169,1,143.999995605469,8|0,0:0|0:0,0:0:0:0:
206,273,62933,2,0,L|57:252,1,143.999995605469,2|0,0:0|0:0,0:0:0:0:
217,166,63241,6,0,P|292:200|361:157,1,160,8|2,0:0|0:0,0:0:0:0:
434,104,63703,1,2,0:0:0:0:
512,231,63857,2,0,B|459:203|459:203|400:240,1,120,8|0,0:0|0:0,0:0:0:0:
345,329,64164,2,0,L|449:330,1,80,2|0,0:0|0:0,0:0:0:0:
505,366,64472,6,0,L|375:366,1,95.9999970703126,4|0,0:1|0:0,0:0:0:0:
312,235,64780,2,0,L|419:234,1,95.9999970703126,2|0,0:0|0:0,0:0:0:0:
495,140,65087,2,0,P|513:95|488:36,1,95.9999970703126,8|0,0:0|0:0,0:0:0:0:
368,51,65395,2,0,P|355:96|373:140,1,95.9999970703126,2|0,0:0|0:0,0:0:0:0:
268,8,65703,6,0,P|240:70|304:201,1,191.999994140625,8|2,0:0|0:0,0:0:0:0:
368,247,66164,1,2,0:0:0:0:
379,33,66318,2,0,P|346:110|429:125,1,191.999994140625,8|0,0:0|0:0,0:0:0:0:
475,38,66780,1,8,0:0:0:0:
475,38,66857,1,8,0:0:0:0:
475,38,66933,6,0,L|364:33,1,95.9999970703126,8|0,0:0|0:0,0:0:0:0:
266,141,67241,2,0,B|309:129|309:129|361:143,1,95.9999970703126,2|0,0:0|0:0,0:0:0:0:
277,278,67549,2,0,B|174:271,1,95.9999970703126,10|2,0:0|0:0,0:0:0:0:
80,170,67857,2,0,P|64:214|99:272,1,95.9999970703126,2|0,0:0|0:0,0:0:0:0:
173,130,68164,6,0,B|255:104|255:104|298:143|361:107,1,191.999994140625,4|2,0:0|0:0,0:0:0:0:
311,28,68626,1,2,0:0:0:0:
265,198,68780,2,0,P|314:210|369:186,1,95.9999970703126,8|0,0:0|0:0,0:0:0:0:
362,304,69087,2,0,L|244:305,1,95.9999970703126,2|0,0:0|0:0,0:0:0:0:
121,218,69395,6,0,P|104:172|146:121,1,95.9999970703126,8|0,0:0|0:0,0:0:0:0:
229,50,69703,2,0,B|275:65|275:65|326:52,1,95.9999970703126,2|0,0:0|0:0,0:0:0:0:
463,144,70010,2,0,P|420:154|356:117,1,95.9999970703126,8|0,0:0|0:0,0:0:0:0:
253,245,70318,2,0,L|349:238,1,95.9999970703126,2|0,0:0|0:0,0:0:0:0:
199,336,70626,6,0,L|394:324,1,191.999994140625,8|2,0:0|0:0,0:0:0:0:
489,320,71087,1,2,0:0:0:0:
455,142,71241,2,0,P|411:237|362:199,1,191.999994140625,8|2,0:0|0:0,0:0:0:0:
350,115,71703,1,2,0:0:0:0:
241,283,71857,6,0,B|151:316|151:316|72:245,1,191.999994140625,8|2,0:0|0:0,0:0:0:0:
12,182,72318,1,8,0:0:0:0:
114,48,72472,2,0,P|154:73|192:43,1,95.9999970703126,8|0,0:0|0:0,0:0:0:0:
287,187,72780,1,2,0:0:0:0:
483,96,72933,1,2,0:0:0:0:
325,120,73087,6,0,B|296:151|296:151|286:193,1,80,8|0,0:0|0:0,0:0:0:0:
448,166,73395,2,0,B|475:133|475:133|485:92,1,80,2|0,0:0|0:0,0:0:0:0:
373,206,73703,5,8,0:0:0:0:
395,232,73805,1,8,0:0:0:0:
422,244,73908,1,8,0:0:0:0:
455,247,74010,1,4,0:0:0:0:
441,282,74113,5,4,0:0:0:0:
416,312,74216,1,4,0:0:0:0:
383,340,74318,6,0,P|329:325|276:352,1,95.9999970703126,4|0,0:2|0:0,0:0:0:0:
162,305,74933,2,0,P|181:252|166:206,1,95.9999970703126,2|0,0:0|0:0,0:0:0:0:
144,51,75549,6,0,P|179:72|247:58,1,95.9999970703126,4|0,0:2|0:0,0:0:0:0:
355,115,76164,2,0,P|330:151|333:208,1,95.9999970703126,2|0,0:0|0:0,0:0:0:0:
238,341,76780,6,0,P|191:329|141:349,1,95.9999970703126,4|0,0:2|0:0,0:0:0:0:
38,269,77395,1,2,0:0:0:0:
88,144,77703,1,2,0:0:0:0:
242,91,78010,6,0,P|253:140|229:200,1,95.9999970703126,4|0,0:2|0:0,0:0:0:0:
159,278,78626,1,2,0:0:0:0:
242,345,78780,1,8,0:0:0:0:
242,345,78857,1,8,0:0:0:0:
242,345,78933,1,2,0:0:0:0:
26,142,79241,6,0,P|18:104|30:56,1,80,4|0,0:0|0:0,0:0:0:0:
143,10,79549,2,0,P|151:48|139:96,1,80,2|0,0:0|0:0,0:0:0:0:
93,206,79857,2,0,P|131:198|179:210,1,80,8|0,0:0|0:0,0:0:0:0:
264,310,80164,2,0,P|302:318|341:309,1,80,2|0,0:0|0:0,0:0:0:0:
415,202,80472,5,8,0:0:0:0:
325,110,80626,1,8,0:0:0:0:
209,166,80780,2,0,B|206:206|206:206|224:251,1,80,2|0,0:0|0:0,0:0:0:0:
341,308,81087,2,0,L|356:223,1,80,8|0,0:0|0:0,0:0:0:0:
476,150,81395,6,0,P|484:108|467:62,1,80,2|0,0:0|0:0,0:0:0:0:
314,37,81703,2,0,L|405:27,1,80,8|0,0:0|0:0,0:0:0:0:
335,142,82010,1,2,0:0:0:0:
291,15,82164,2,0,L|182:5,1,80,2|0,0:0|0:0,0:0:0:0:
85,33,82472,2,0,P|98:109|52:172,1,160,0|0,0:0|0:0,0:0:0:0:
135,270,82933,6,0,L|225:262,1,80,2|0,0:0|0:0,0:0:0:0:
344,341,83241,2,0,L|253:333,1,80,2|0,0:0|0:0,0:0:0:0:
414,200,83549,2,0,P|391:234|394:280,1,80,8|0,0:0|0:0,0:0:0:0:
486,358,83857,2,0,P|509:324|506:278,1,80,2|0,0:0|0:0,0:0:0:0:
411,112,84164,5,4,0:1:0:0:
256,192,84241,12,0,89087,0:0:0:0:
