osu file format v14

[General]
AudioFilename: audio.mp3
AudioLeadIn: 0
PreviewTime: 41252
Countdown: 0
SampleSet: Soft
StackLeniency: 0.7
Mode: 0
LetterboxInBreaks: 0
WidescreenStoryboard: 1

[Editor]
Bookmarks: 1439,11651,21864,32077,42290,52502,57609,60162,70375,75481,80587,83141,83589,88087,89364
DistanceSpacing: 1.4
BeatDivisor: 4
GridSize: 32
TimelineZoom: 2.2

[Metadata]
Title:STORY (TV Size)
TitleUnicode:STORY (TV Size)
Artist:Kensho Ono
ArtistUnicode:小野賢章
Creator:Xexxar
Version:borshake's Insane
Source:ラクエンロジック
Tags:luck & logic anime xr a_r_m_i_n armin sotarks syph borborygmos akitoshi Hobbes2 and milkshake _83
BeatmapID:1278168
BeatmapSetID:598357

[Difficulty]
HPDrainRate:5
CircleSize:4
OverallDifficulty:8
ApproachRate:9
SliderMultiplier:1.42
SliderTickRate:1

[Events]
//Background and Video events
0,0,"30042-Luck_and_Logic-PC.jpg",0,0
Video,208,"outm.avi"
//Break Periods
//Storyboard Layer 0 (Background)
//Storyboard Layer 1 (Fail)
//Storyboard Layer 2 (Pass)
//Storyboard Layer 3 (Foreground)
//Storyboard Sound Samples

[TimingPoints]
1402,319.148936170213,4,2,1,75,1,0
1402,-133.333333333333,4,2,1,75,0,0
6109,-100,4,2,1,75,0,0
6189,-100,4,2,1,75,0,0
6428,-100,4,2,1,75,0,0
6508,-100,4,2,1,75,0,0
11614,-100,4,1,1,75,0,0
11854,-100,4,1,1,5,0,0
11933,-100,4,1,1,75,0,0
12332,-100,4,1,1,5,0,0
12412,-100,4,1,1,75,0,0
12811,-100,4,1,1,5,0,0
12891,-100,4,1,1,75,0,0
14407,-100,4,1,1,5,0,0
14487,-100,4,1,1,75,0,0
14886,-100,4,1,1,5,0,0
14965,-100,4,1,1,75,0,0
15364,-100,4,1,1,5,0,0
15444,-100,4,1,1,75,0,0
16960,-100,4,1,1,5,0,0
17040,-100,4,1,1,75,0,0
17439,-100,4,1,1,5,0,0
17519,-100,4,1,1,75,0,0
17917,-100,4,1,1,5,0,0
17997,-100,4,1,1,75,0,0
19513,-100,4,1,1,5,0,0
19593,-100,4,1,1,75,0,0
19992,-100,4,1,1,5,0,0
20072,-100,4,1,1,75,0,0
20471,-100,4,1,1,5,0,0
20550,-100,4,1,1,75,0,0
21827,-100,4,2,1,75,0,0
21907,-100,4,2,1,75,0,0
22465,-100,4,2,1,55,0,0
26614,-83.3333333333333,4,2,1,55,0,0
26933,-100,4,2,1,55,0,0
32040,-100,4,1,1,65,0,0
41295,-100,4,1,1,65,0,0
41534,-100,4,1,1,65,0,0
41614,-100,4,1,1,65,0,0
41854,-100,4,1,1,65,0,0
41933,-100,4,1,1,65,0,0
42253,-100,4,1,1,75,0,0
42492,-100,4,1,1,5,0,0
42572,-100,4,1,1,75,0,0
42971,-100,4,1,1,5,0,0
43050,-100,4,1,1,75,0,0
43449,-100,4,1,1,5,0,0
43529,-100,4,1,1,75,0,0
45045,-100,4,1,1,5,0,0
45125,-100,4,1,1,75,0,0
45524,-100,4,1,1,5,0,0
45604,-100,4,1,1,75,0,0
46003,-100,4,1,1,5,0,0
46082,-100,4,1,1,75,0,0
47598,-100,4,1,1,5,0,0
47678,-100,4,1,1,75,0,0
48077,-100,4,1,1,5,0,0
48157,-100,4,1,1,75,0,0
50152,-100,4,1,1,5,0,0
50231,-100,4,1,1,75,0,0
50630,-100,4,1,1,5,0,0
50710,-100,4,1,1,75,0,0
51109,-100,4,1,1,5,0,0
51189,-100,4,1,1,75,0,0
52465,-100,4,1,1,70,0,0
57572,-83.3333333333333,4,1,1,80,0,0
57971,-83.3333333333333,4,1,1,5,0,0
58050,-83.3333333333333,4,1,1,80,0,0
58449,-83.3333333333333,4,1,1,5,0,0
58529,-83.3333333333333,4,1,1,80,0,0
58928,-83.3333333333333,4,1,1,5,0,0
59008,-83.3333333333333,4,1,1,80,0,0
59487,-100,4,1,1,80,0,0
59806,-80,4,1,1,80,0,0
60045,-100,4,1,1,80,0,0
60125,-83.3333333333333,4,1,1,87,0,1
71933,-71.4285714285714,4,1,1,87,0,1
72253,-83.3333333333333,4,1,1,87,0,1
74487,-71.4285714285714,4,1,1,87,0,1
75125,-100,4,1,1,87,0,0
75444,-100,4,1,1,87,0,1
76082,-100,4,1,1,87,0,1
76402,-71.4285714285714,4,1,1,87,0,1
76641,-100,4,1,1,87,0,1
76721,-100,4,1,1,87,0,1
77359,-100,4,1,1,87,0,1
77598,-100,4,1,1,87,0,1
77678,-71.4285714285714,4,1,1,87,0,1
77917,-100,4,1,1,87,0,1
77997,-100,4,1,1,87,0,1
80550,-133.333333333333,4,1,1,75,0,0
82784,-133.333333333333,4,1,1,75,0,0
83024,-133.333333333333,4,1,1,75,0,0
83090,319.148936170213,4,1,1,90,1,0
83090,-100,4,1,1,90,0,0
88036,-100,4,1,1,90,0,0
88435,-100,4,1,1,90,0,0
88515,-100,4,1,1,90,0,0
89074,-100,4,1,1,90,0,0
89153,-100,4,1,1,90,0,0
89472,-100,4,1,1,90,0,0

[Colours]
Combo1 : 192,130,255
Combo2 : 92,162,245
Combo3 : 255,255,108
Combo4 : 255,145,200
SliderTrackOverride : 35,35,35
SliderBorder : 255,255,255

[HitObjects]
0,321,444,5,0,2:0:0:0:
0,321,763,1,0,2:0:0:0:
0,321,1082,1,0,2:0:0:0:
0,321,1402,6,0,L|160:349,2,159.750006093979,2|2|2,0:0|0:0|0:0,0:0:0:0:
50,230,2678,1,0,0:0:0:0:
50,230,2997,1,0,0:0:0:0:
100,139,3316,1,2,0:0:0:0:
100,139,3636,1,0,0:0:0:0:
150,48,3955,6,0,P|190:60|264:64,1,106.500004062653,2|0,0:0|0:0,0:0:0:0:
408,16,4593,2,0,P|368:4|294:0,1,106.500004062653,0|2,0:0|0:0,0:0:0:0:
259,68,5231,1,0,0:0:0:0:
259,68,5550,1,0,0:0:0:0:
214,136,5870,2,0,P|215:180|208:241,1,79.8750030469895,2|0,0:0|0:0,0:0:0:0:
231,260,6189,2,0,P|261:212|310:166,1,106.5,8|0,1:0|0:0,0:0:0:0:
334,190,6508,6,0,P|352:149|356:100,1,71,4|0,1:2|3:0,0:0:0:0:
463,23,6827,2,0,P|444:63|440:112,1,71,0|0,1:0|3:0,0:0:0:0:
320,186,7146,2,0,P|338:145|342:96,1,71,0|0,1:0|3:0,0:0:0:0:
477,27,7465,2,0,P|458:67|454:116,1,71,0|0,1:0|3:0,0:0:0:0:
306,182,7784,2,0,P|324:141|328:92,1,71,0|0,1:0|3:0,0:0:0:0:
491,31,8104,2,0,P|473:72|469:121,1,71,0|0,1:0|3:0,0:0:0:0:
510,192,8423,1,0,1:0:0:0:
474,288,8582,2,0,B|445:275|414:285|408:287|401:290|369:302|331:287,1,142,0|0,3:0|2:0,0:0:0:0:
260,239,9061,5,4,1:0:0:0:
260,239,9380,1,8,1:0:0:0:
148,278,9540,1,8,1:0:0:0:
192,162,9699,1,8,1:0:0:0:
262,268,9859,1,8,1:0:0:0:
160,164,10019,1,8,1:0:0:0:
264,297,10178,1,8,1:0:0:0:
297,104,10338,1,10,1:0:0:0:
316,103,11614,6,0,L|400:91,1,71,12|0,0:0|0:0,0:0:0:0:
447,23,11933,1,8,0:3:0:0:
428,194,12093,2,0,L|344:182,1,71,12|0,0:0|0:0,0:0:0:0:
297,114,12412,1,8,0:3:0:0:
316,285,12572,2,0,L|400:273,1,71,12|0,0:0|0:0,0:0:0:0:
447,205,12891,1,0,0:0:0:0:
428,376,13050,2,0,L|344:364,1,71,12|0,0:0|0:3,0:0:0:0:
297,296,13370,1,8,0:3:0:0:
199,246,13529,5,14,0:1:0:0:
199,246,13689,1,8,0:3:0:0:
285,173,13848,1,14,0:1:0:0:
285,173,14008,1,8,0:3:0:0:
196,103,14167,6,0,L|112:91,1,71,12|0,0:0|0:0,0:0:0:0:
65,23,14487,1,8,0:3:0:0:
84,194,14646,2,0,L|168:182,1,71,12|0,0:0|0:0,0:0:0:0:
215,114,14965,1,8,0:3:0:0:
196,285,15125,2,0,L|112:273,1,71,12|0,0:0|0:0,0:0:0:0:
65,205,15444,1,0,0:0:0:0:
84,376,15604,2,0,L|168:364,1,71,12|2,0:0|0:2,0:0:0:0:
215,296,15923,1,8,0:3:0:0:
313,246,16082,5,10,0:1:0:0:
313,246,16242,1,8,0:3:0:0:
227,173,16402,1,12,0:1:0:0:
227,173,16561,1,8,0:3:0:0:
313,31,16721,6,0,P|315:75|290:111,1,71,12|0,0:0|0:0,0:0:0:0:
227,173,17040,1,8,0:3:0:0:
389,134,17199,2,0,P|359:166|316:174,1,71,12|0,0:0|0:0,0:0:0:0:
227,173,17519,1,8,0:3:0:0:
369,260,17678,2,0,P|325:262|289:236,1,71,12|0,0:0|0:0,0:0:0:0:
227,173,17997,1,0,0:0:0:0:
265,334,18157,2,0,P|232:304|224:261,1,71,12|0,0:0|0:3,0:0:0:0:
226,173,18476,1,8,0:3:0:0:
334,174,18636,5,14,0:1:0:0:
334,174,18795,1,8,0:3:0:0:
399,263,18955,1,14,0:1:0:0:
399,263,19114,1,8,0:3:0:0:
254,343,19274,6,0,P|274:303|313:285,1,71,12|0,0:0|0:0,0:0:0:0:
399,263,19593,1,8,0:3:0:0:
239,215,19753,2,0,P|280:201|322:216,1,71,12|0,0:0|0:0,0:0:0:0:
399,263,20072,1,8,0:3:0:0:
320,116,20231,2,0,P|359:136|377:175,1,71,12|0,0:0|0:0,0:0:0:0:
399,263,20550,1,8,0:3:0:0:
447,104,20710,2,0,P|460:145|445:187,1,71,12|2,0:0|1:2,0:0:0:0:
400,263,21029,1,2,1:2:0:0:
334,340,21189,5,8,0:0:0:0:
298,344,21269,1,8,0:0:0:0:
263,348,21348,1,8,0:0:0:0:
227,352,21428,1,8,0:0:0:0:
191,356,21508,1,8,0:0:0:0:
186,346,21588,1,8,0:0:0:0:
181,336,21667,1,8,0:0:0:0:
176,326,21747,1,8,0:0:0:0:
171,316,21827,6,0,P|125:271|37:280,1,142,12|0,1:0|0:0,0:0:0:0:
0,167,22306,2,0,P|68:184|167:195,1,142,2|0,0:0|0:0,0:0:0:0:
270,152,22784,2,0,P|234:140|182:129,1,71,2|0,0:0|0:0,0:0:0:0:
149,58,23104,5,0,0:0:0:0:
149,58,23423,1,0,0:0:0:0:
232,12,23582,2,0,P|268:24|320:35,1,71,0|2,0:0|0:0,0:0:0:0:
427,134,23902,2,0,P|391:122|339:111,1,71,12|0,1:1|3:0,0:0:0:0:
277,176,24221,1,12,1:1:0:0:
321,262,24380,6,0,P|395:286|468:329,1,142,2|0,1:2|0:0,0:0:0:0:
512,255,24859,2,0,P|475:208|436:123,1,142,2|0,0:0|0:0,0:0:0:0:
409,0,25338,2,0,P|399:35|382:75,1,71,2|0,0:0|0:0,0:0:0:0:
298,94,25657,5,0,3:0:0:0:
298,94,25816,1,0,3:0:0:0:
238,26,25976,1,0,3:0:0:0:
238,26,26136,1,0,3:0:0:0:
148,65,26295,2,0,L|155:147,1,71,2|2,0:2|0:0,0:0:0:0:
99,254,26614,2,0,P|93:208|7:220,1,127.799996099854,12|0,1:1|0:0,0:0:0:0:
4,217,26933,6,0,L|10:146,1,71,2|2,1:2|0:0,0:0:0:0:
155,60,27253,2,0,L|162:142,1,71,2|2,1:2|0:0,0:0:0:0:
114,240,27572,1,2,1:2:0:0:
171,346,27731,2,0,P|218:340|257:283,1,106.5,2|0,0:0|0:0,0:0:0:0:
246,266,28050,6,0,L|385:295,1,142,2|2,0:0|0:0,0:0:0:0:
491,384,28529,2,0,P|474:351|471:303,1,71,2|2,1:2|0:0,0:0:0:0:
493,238,28848,1,2,1:2:0:0:
448,106,29008,2,0,L|437:182,1,71,8|0,1:0|1:2,0:0:0:0:
511,250,29327,1,12,1:0:0:0:
419,187,29487,6,0,L|326:198,1,71,4|0,1:0|0:0,0:0:0:0:
225,250,29806,2,0,L|154:241,1,71,0|0,1:0|0:0,0:0:0:0:
31,187,30125,1,0,1:0:0:0:
140,113,30284,1,0,0:3:0:0:
142,248,30444,1,0,1:0:0:0:
106,113,30604,1,0,0:0:0:0:
32,217,30763,5,0,1:0:0:0:
66,319,30923,1,8,1:3:0:0:
66,319,31082,1,2,1:2:0:0:
162,340,31242,1,0,1:0:0:0:
254,308,31402,2,0,L|256:264,1,35.5,8|8,1:0|1:0,0:0:0:0:
288,302,31561,2,0,L|290:258,1,35.5,8|8,1:0|1:0,0:0:0:0:
367,347,31721,2,0,L|365:391,1,35.5,8|8,1:0|1:0,0:0:0:0:
401,341,31880,2,0,L|399:385,1,35.5,8|8,1:0|1:0,0:0:0:0:
483,289,32040,6,0,P|430:257|396:184,1,142,14|8,0:0|1:0,0:0:0:0:
508,97,32519,2,0,P|468:105|427:114,1,71,2|0,0:2|0:0,0:0:0:0:
362,66,32838,1,0,2:0:0:0:
275,79,32997,2,0,P|235:57|219:27,1,71,10|0,0:0|0:0,0:0:0:0:
128,0,33316,6,0,P|118:69|43:95,1,142,0|8,1:0|0:0,0:0:0:0:
0,38,33795,1,2,2:2:0:0:
11,164,33955,2,0,P|17:202|21:249,1,71,8|2,0:3|2:2,0:0:0:0:
90,323,34274,2,0,P|93:287|99:252,1,71,8|2,0:0|2:2,0:0:0:0:
157,179,34593,6,0,L|306:209,1,142,2|8,0:0|1:1,0:0:0:0:
422,106,35072,2,0,P|354:120|325:182,1,142,2|0,0:2|2:0,0:0:0:0:
383,273,35550,2,0,P|392:306|387:361,1,71,10|0,0:0|0:0,0:0:0:0:
263,368,35870,6,0,P|294:296|349:272,1,142,0|8,0:0|0:0,0:0:0:0:
466,285,36348,1,2,2:2:0:0:
502,123,36508,2,0,P|517:165|504:208,1,71,2|2,0:2|2:2,0:0:0:0:
349,271,36827,2,0,P|346:235|360:203,1,71,8|2,0:0|2:2,0:0:0:0:
483,134,37146,5,6,0:0:0:0:
425,37,37306,1,2,2:2:0:0:
386,196,37465,1,10,0:1:0:0:
459,117,37625,1,2,2:0:0:0:
312,134,37784,2,0,P|302:90|304:54,1,71,2|2,1:2|2:0,0:0:0:0:
439,8,38104,1,10,1:1:0:0:
322,38,38263,1,2,2:0:0:0:
204,8,38423,6,0,L|202:103,1,71,6|2,0:0|2:2,0:0:0:0:
47,111,38742,2,0,L|49:16,1,71,10|2,0:1|2:0,0:0:0:0:
184,0,39061,1,2,1:2:0:0:
184,95,39221,1,2,2:0:0:0:
133,246,39380,2,0,P|132:201|121:157,1,71,8|2,0:0|2:0,0:0:0:0:
51,270,39699,6,0,P|123:280|205:322,2,142,6|8|8,0:0|0:0|0:0,0:0:0:0:
29,250,40417,1,8,0:0:0:0:
16,224,40497,1,8,0:0:0:0:
11,195,40577,1,8,0:0:0:0:
15,166,40657,2,0,P|19:144|21:116,1,35.5,10|8,0:0|0:0,0:0:0:0:
27,103,40816,2,0,P|25:80|19:53,1,35.5,8|8,0:0|0:0,0:0:0:0:
9,41,40976,5,8,0:0:0:0:
9,41,42253,6,0,L|107:35,1,71,12|0,0:0|0:0,0:0:0:0:
165,77,42572,1,8,0:3:0:0:
322,130,42731,2,0,L|224:124,1,71,12|0,0:0|0:0,0:0:0:0:
166,166,43050,1,8,0:3:0:0:
9,219,43210,2,0,L|107:213,1,71,12|0,0:0|0:0,0:0:0:0:
165,255,43529,1,0,0:0:0:0:
322,308,43689,2,0,L|224:302,1,71,12|0,0:0|0:3,0:0:0:0:
166,344,44008,1,8,0:3:0:0:
254,210,44167,5,14,0:1:0:0:
254,210,44327,1,8,0:3:0:0:
346,307,44487,1,14,0:1:0:0:
346,307,44646,1,8,0:3:0:0:
502,343,44806,6,0,L|404:349,1,71,12|0,0:0|0:0,0:0:0:0:
346,307,45125,1,8,0:3:0:0:
189,254,45284,2,0,L|287:260,1,71,12|0,0:0|0:0,0:0:0:0:
345,218,45604,1,8,0:3:0:0:
502,165,45763,2,0,L|404:171,1,71,12|0,0:0|0:0,0:0:0:0:
346,129,46082,1,0,0:0:0:0:
189,76,46242,2,0,L|287:82,1,71,8|2,0:0|0:2,0:0:0:0:
345,40,46561,1,8,0:3:0:0:
264,174,46721,5,10,0:1:0:0:
264,174,46880,1,8,0:3:0:0:
276,272,47040,2,0,P|290:239|290:203,1,71,12|8,0:1|0:3,0:0:0:0:
183,0,47359,6,0,L|167:70,1,71,12|0,0:0|0:0,0:0:0:0:
185,156,47678,1,8,0:3:0:0:
57,47,47838,2,0,L|73:117,1,71,12|0,0:0|0:0,0:0:0:0:
55,203,48157,1,8,0:3:0:0:
183,94,48316,2,0,L|167:164,1,71,12|2,0:0|1:2,0:0:0:0:
185,250,48636,1,2,0:2:0:0:
57,141,48795,2,0,L|73:211,1,71,14|2,0:0|0:2,0:0:0:0:
55,297,49114,1,0,0:0:0:0:
158,381,49274,5,14,0:1:0:0:
158,381,49433,1,0,0:0:0:0:
226,290,49593,1,14,0:1:0:0:
226,290,49753,1,2,0:2:0:0:
331,359,49912,6,0,L|347:289,1,71,12|0,0:0|0:0,0:0:0:0:
329,203,50231,1,8,0:3:0:0:
457,312,50391,2,0,L|441:242,1,71,12|0,0:0|0:0,0:0:0:0:
459,156,50710,1,8,0:3:0:0:
331,265,50870,2,0,L|347:195,1,71,12|0,0:0|0:0,0:0:0:0:
329,109,51189,1,8,0:3:0:0:
457,218,51348,2,0,L|441:148,1,71,14|2,0:0|1:2,0:0:0:0:
459,62,51667,1,2,1:2:0:0:
349,4,51827,5,8,0:0:0:0:
321,9,51907,1,8,0:0:0:0:
293,14,51987,1,8,0:0:0:0:
265,20,52066,1,8,0:0:0:0:
242,37,52146,1,8,0:0:0:0:
239,43,52226,1,8,0:0:0:0:
236,49,52306,1,8,0:0:0:0:
233,55,52386,1,8,0:0:0:0:
230,61,52465,6,0,P|185:40|142:29,1,71,14|0,0:0|2:3,0:0:0:0:
77,40,52784,1,8,0:0:0:0:
21,136,52944,2,0,P|56:144|100:166,1,71,0|0,2:2|0:0,0:0:0:0:
173,217,53263,1,0,2:0:0:0:
167,310,53423,2,0,P|132:311|72:326,1,71,8|0,0:0|2:0,0:0:0:0:
0,366,53742,5,4,0:0:0:0:
60,223,53902,2,0,P|75:192|87:154,1,71,2|8,2:0|0:0,0:0:0:0:
75,4,54221,2,0,P|59:35|47:69,1,71,0|0,2:2|0:0,0:0:0:0:
80,241,54540,2,0,P|95:210|107:172,1,71,2|8,2:2|0:0,0:0:0:0:
56,88,54859,1,0,0:0:0:0:
158,13,55019,6,0,B|192:0|220:10|226:12|232:14|259:24|309:13,1,142,4|8,0:0|0:0,0:0:0:0:
443,93,55497,2,0,P|404:84|357:82,1,71,0|0,2:2|0:0,0:0:0:0:
240,141,55816,2,0,P|278:149|326:152,1,71,0|8,0:0|0:0,0:0:0:0:
375,224,56136,1,0,2:0:0:0:
449,365,56295,6,0,L|432:286,1,71,6|0,0:0|2:3,0:0:0:0:
291,238,56614,1,8,0:0:0:0:
291,238,56774,1,0,2:2:0:0:
179,384,56933,2,0,L|196:305,1,71,0|0,0:0|2:0,0:0:0:0:
291,238,57253,1,8,0:0:0:0:
238,121,57412,1,0,2:0:0:0:
238,121,57572,5,8,3:0:0:0:
127,0,57731,2,0,P|146:76|93:144,1,170.399994799805,12|8,0:0|3:3,0:0:0:0:
7,242,58210,2,0,P|106:246|143:326,1,170.399994799805,12|8,0:0|3:0,0:0:0:0:
216,375,58689,2,0,L|239:192,1,170.399994799805,12|0,0:0|3:0,0:0:0:0:
256,192,59061,2,0,L|261:160,2,28.3999991333008,0|0|14,3:0|3:0|0:0,0:0:0:0:
320,96,59487,6,0,P|362:109|411:152,1,106.5,0|0,0:0|0:0,0:0:0:0:
446,166,59806,2,0,P|406:96|352:70,1,133.125,0|0,0:0|0:0,0:0:0:0:
320,96,60125,6,0,P|224:128|158:56,1,170.399994799805,6|10,0:0|0:0,0:0:0:0:
60,0,60604,1,0,0:0:0:0:
0,126,60763,2,0,L|99:158,1,85.1999973999024,2|0,0:2|0:0,0:0:0:0:
277,165,61082,2,0,L|178:197,1,85.1999973999024,10|0,0:0|0:0,0:0:0:0:
31,241,61402,5,2,0:2:0:0:
23,344,61561,1,0,0:0:0:0:
128,352,61721,2,0,P|178:338|206:294,1,85.1999973999024,10|0,0:0|0:0,0:0:0:0:
258,150,62040,1,0,0:2:0:0:
356,125,62199,1,0,0:0:0:0:
433,186,62359,2,0,P|439:228|422:266,1,85.1999973999024,10|0,0:0|0:0,0:0:0:0:
258,150,62678,6,0,P|276:72|368:28,1,170.399994799805,6|10,0:0|0:0,0:0:0:0:
490,114,63157,1,0,0:0:0:0:
433,186,63316,2,0,L|419:293,1,85.1999973999024,2|0,0:2|0:0,0:0:0:0:
228,362,63636,2,0,L|216:277,1,85.1999973999024,10|0,0:0|0:0,0:0:0:0:
352,288,63955,5,6,0:0:0:0:
256,352,64114,1,0,0:0:0:0:
284,183,64274,1,8,0:0:0:0:
327,311,64433,1,0,0:0:0:0:
248,194,64593,1,6,0:0:0:0:
390,165,64753,1,0,0:0:0:0:
411,298,64912,2,0,P|407:339|388:377,1,85.1999973999024,10|0,0:0|0:0,0:0:0:0:
320,256,65231,6,0,P|288:160|320:96,1,170.399994799805,6|10,0:0|0:0,0:0:0:0:
425,38,65710,1,0,0:0:0:0:
512,132,65870,2,0,L|480:228,1,85.1999973999024,2|0,0:2|0:0,0:0:0:0:
309,250,66189,2,0,L|335:168,1,85.1999973999024,10|0,0:0|0:0,0:0:0:0:
458,218,66508,6,0,L|426:314,1,85.1999973999024,2|0,0:2|0:0,0:0:0:0:
232,373,66827,1,10,0:0:0:0:
159,322,66987,1,0,0:0:0:0:
170,238,67146,2,0,P|213:220|265:220,1,85.1999973999024,0|0,0:2|0:0,0:0:0:0:
434,333,67465,2,0,P|391:351|339:351,1,85.1999973999024,10|0,0:0|0:0,0:0:0:0:
232,373,67784,6,0,P|264:309|168:245,1,170.399994799805,6|10,0:0|0:0,0:0:0:0:
112,329,68263,1,0,0:0:0:0:
232,373,68423,2,0,P|296:373|360:277,1,170.399994799805,2|10,0:2|0:0,0:0:0:0:
336,178,68902,1,0,0:0:0:0:
355,55,69061,6,0,L|451:23,1,85.1999973999024,6|0,0:0|0:0,0:0:0:0:
507,188,69380,2,0,L|411:156,1,85.1999973999024,8|0,0:0|0:0,0:0:0:0:
384,256,69699,5,8,0:0:0:0:
357,264,69779,1,8,0:0:0:0:
330,273,69859,1,8,0:0:0:0:
303,282,69939,1,8,0:0:0:0:
281,318,70019,1,8,0:0:0:0:
264,322,70098,1,8,0:0:0:0:
248,328,70178,1,8,0:0:0:0:
232,333,70258,1,8,0:0:0:0:
216,338,70338,5,6,0:0:0:0:
235,223,70497,1,0,0:2:0:0:
105,300,70657,1,10,0:0:0:0:
105,300,70816,1,0,0:0:0:0:
33,197,70976,2,0,L|18:103,1,85.1999973999024,2|0,0:0|0:2,0:0:0:0:
164,0,71295,2,0,L|150:84,1,85.1999973999024,10|0,0:0|0:0,0:0:0:0:
210,246,71614,6,0,P|274:246|264:169,1,127.799996099854,6|0,0:0|0:0,0:0:0:0:
307,162,71933,2,0,L|313:330,1,149.099995449829,10|0,0:0|0:0,0:0:0:0:
339,338,72253,1,0,0:0:0:0:
428,297,72412,1,0,0:0:0:0:
458,202,72572,2,0,L|426:94,1,85.1999973999024,10|2,0:0|0:2,0:0:0:0:
273,31,72891,5,6,0:0:0:0:
416,77,73050,1,0,0:2:0:0:
288,145,73210,1,10,0:0:0:0:
288,145,73370,1,0,0:0:0:0:
366,228,73529,2,0,L|394:323,1,85.1999973999024,2|0,0:0|0:2,0:0:0:0:
194,384,73848,2,0,L|222:288,1,85.1999973999024,10|0,0:0|0:0,0:0:0:0:
260,129,74167,6,0,P|201:144|159:96,1,127.799996099854,6|0,0:0|0:0,0:0:0:0:
128,69,74487,2,0,P|127:144|106:215,1,149.099995449829,10|0,0:0|0:0,0:0:0:0:
72,231,74806,1,0,0:0:0:0:
72,231,74965,1,0,0:0:0:0:
0,333,75125,2,0,L|69:347,1,71,8|8,0:0|0:3,0:0:0:0:
211,384,75444,5,12,0:0:0:0:
189,228,75604,1,8,0:3:0:0:
97,361,75763,1,8,0:3:0:0:
217,246,75923,2,0,L|358:244,1,142,12|8,0:0|0:3,0:0:0:0:
495,157,76402,2,0,P|465:93|419:148,1,149.099995449829,14|0,0:0|0:0,0:0:0:0:
389,147,76721,5,12,0:0:0:0:
491,287,76880,1,8,0:3:0:0:
358,243,77040,1,8,0:3:0:0:
506,253,77199,2,0,L|485:101,1,142,12|8,0:0|0:3,0:0:0:0:
345,31,77678,2,0,P|293:-6|214:18,1,149.099995449829,14|0,0:0|0:0,0:0:0:0:
204,53,77997,5,4,0:0:0:0:
204,53,78157,1,0,0:0:0:0:
87,142,78316,1,10,0:0:0:0:
126,224,78476,1,2,0:2:0:0:
212,196,78636,2,0,L|298:216,1,71,4|0,0:0|0:0,0:0:0:0:
361,295,78955,2,0,L|430:278,1,71,10|0,0:0|0:0,0:0:0:0:
505,191,79274,5,14,0:0:0:0:
446,274,79433,1,8,0:0:0:0:
380,125,79593,1,4,0:0:0:0:
512,159,79753,1,0,0:0:0:0:
352,193,79912,5,8,0:0:0:0:
348,157,79992,1,8,0:0:0:0:
344,121,80072,1,8,0:0:0:0:
340,85,80152,1,8,0:0:0:0:
337,49,80231,1,8,0:0:0:0:
327,59,80311,1,8,0:0:0:0:
317,69,80391,1,8,0:0:0:0:
307,79,80471,1,8,0:0:0:0:
297,89,80550,5,12,0:0:0:0:
297,89,81827,2,0,L|330:202,1,106.500004062653,8|8,3:3|3:3,0:0:0:0:
393,237,82306,2,0,L|360:350,1,106.500004062653,8|8,3:3|3:3,0:0:0:0:
301,384,82784,1,8,1:1:0:0:
301,384,83090,6,0,L|230:377,1,71,12|2,0:0|1:2,0:0:0:0:
164,318,83409,1,2,1:2:0:0:
0,350,83568,2,0,L|71:343,1,71,12|2,0:0|1:2,0:0:0:0:
137,284,83887,1,2,1:2:0:0:
301,316,84047,2,0,L|230:309,1,71,12|0,0:0|0:0,0:0:0:0:
164,250,84366,1,8,0:3:0:0:
0,282,84526,2,0,L|71:275,1,71,8|0,0:0|0:0,0:0:0:0:
137,216,84845,1,8,0:3:0:0:
137,352,85004,5,10,0:0:0:0:
137,352,85164,1,0,0:0:0:0:
172,194,85324,1,10,0:0:0:0:
172,194,85483,1,0,0:0:0:0:
211,324,85643,6,0,L|282:317,1,71,12|2,0:0|1:2,0:0:0:0:
348,258,85962,1,2,1:2:0:0:
512,290,86121,2,0,L|441:283,1,71,12|2,0:0|1:2,0:0:0:0:
375,224,86441,1,2,1:2:0:0:
211,256,86600,2,0,L|282:249,1,71,12|0,0:0|0:0,0:0:0:0:
348,190,86919,1,8,0:3:0:0:
512,222,87079,2,0,L|441:215,1,71,8|0,0:0|0:0,0:0:0:0:
375,156,87398,1,8,0:0:0:0:
375,292,87558,5,8,0:0:0:0:
375,292,87717,1,8,0:0:0:0:
340,134,87877,1,8,0:0:0:0:
196,165,88036,6,0,P|138:145|164:38,1,177.5,12|0,0:0|0:0,0:0:0:0:
185,49,88515,1,2,2:0:0:0:
185,49,89153,1,10,0:0:0:0:
306,163,89313,2,0,L|289:246,1,71,14|0,0:0|0:0,0:0:0:0:
