osu file format v14

[General]
AudioFilename: audio.mp3
AudioLeadIn: 0
PreviewTime: 41252
Countdown: 0
SampleSet: Soft
StackLeniency: 0.7
Mode: 0
LetterboxInBreaks: 0
WidescreenStoryboard: 0

[Editor]
Bookmarks: 1439,11651,21864,32077,42290,52502,57609,60162,70375,75481,80587,83141,83589,88087,89364
DistanceSpacing: 1.3
BeatDivisor: 4
GridSize: 32
TimelineZoom: 1.3

[Metadata]
Title:STORY (TV Size)
TitleUnicode:STORY (TV Size)
Artist:Kensho Ono
ArtistUnicode:小野賢章
Creator:Xexxar
Version:Tetraheaven
Source:ラクエンロジック
Tags:luck & logic anime xr a_r_m_i_n armin sotarks syph borborygmos akitoshi Hobbes2 and milkshake _83
BeatmapID:1264831
BeatmapSetID:598357

[Difficulty]
HPDrainRate:6.4
CircleSize:4
OverallDifficulty:9.4
ApproachRate:9.6
SliderMultiplier:1.4
SliderTickRate:1

[Events]
//Background and Video events
0,0,"30042-Luck_and_Logic-PC.jpg",0,0
Video,208,"outm.avi"
//Break Periods
//Storyboard Layer 0 (Background)
//Storyboard Layer 1 (Fail)
//Storyboard Layer 2 (Pass)
//Storyboard Layer 3 (Foreground)
//Storyboard Sound Samples

[TimingPoints]
1402,319.148936170213,4,2,1,75,1,0
1402,-151.515151515152,4,2,1,75,0,0
6508,-151.515151515152,4,2,1,75,0,0
6827,-133.333333333333,4,2,1,75,0,0
7146,-117.647058823529,4,2,1,75,0,0
7465,-105.263157894737,4,2,1,75,0,0
7784,-95.2380952380952,4,2,1,75,0,0
8104,-86.9565217391304,4,2,1,75,0,0
8423,-80,4,2,1,75,0,0
8742,-74.0740740740741,4,2,1,75,0,0
9061,-71.4285714285714,4,2,1,75,0,0
11614,-66.6666666666667,4,1,1,75,0,0
11854,-66.6666666666667,4,1,1,5,0,0
11933,-66.6666666666667,4,1,1,75,0,0
12332,-66.6666666666667,4,1,1,5,0,0
12412,-66.6666666666667,4,1,1,75,0,0
12811,-66.6666666666667,4,1,1,5,0,0
12891,-66.6666666666667,4,1,1,75,0,0
14407,-66.6666666666667,4,1,1,5,0,0
14487,-66.6666666666667,4,1,1,75,0,0
14886,-66.6666666666667,4,1,1,5,0,0
14965,-66.6666666666667,4,1,1,75,0,0
15364,-66.6666666666667,4,1,1,5,0,0
15444,-66.6666666666667,4,1,1,75,0,0
16960,-66.6666666666667,4,1,1,5,0,0
17040,-66.6666666666667,4,1,1,75,0,0
17439,-66.6666666666667,4,1,1,5,0,0
17519,-66.6666666666667,4,1,1,75,0,0
17917,-66.6666666666667,4,1,1,5,0,0
17997,-66.6666666666667,4,1,1,75,0,0
19513,-66.6666666666667,4,1,1,5,0,0
19593,-66.6666666666667,4,1,1,75,0,0
19992,-66.6666666666667,4,1,1,5,0,0
20072,-66.6666666666667,4,1,1,75,0,0
20471,-66.6666666666667,4,1,1,5,0,0
20550,-66.6666666666667,4,1,1,75,0,0
21827,-100,4,2,1,75,0,0
22465,-100,4,2,1,55,0,0
23104,-90.9090909090909,4,2,1,55,0,0
25657,-83.3333333333333,4,2,1,55,0,0
26295,-90.9090909090909,4,2,1,55,0,0
29806,-80,4,2,1,55,0,0
30125,-71.4285714285714,4,2,1,55,0,0
30444,-64.5161290322581,4,2,1,55,0,0
30763,-90.9090909090909,4,2,1,55,0,0
32040,-83.3333333333333,4,1,1,65,0,0
42253,-62.5,4,1,1,75,0,0
42492,-62.5,4,1,1,5,0,0
42572,-62.5,4,1,1,75,0,0
42971,-62.5,4,1,1,5,0,0
43050,-62.5,4,1,1,75,0,0
43449,-62.5,4,1,1,5,0,0
43529,-62.5,4,1,1,75,0,0
45045,-62.5,4,1,1,5,0,0
45125,-62.5,4,1,1,75,0,0
45524,-62.5,4,1,1,5,0,0
45604,-62.5,4,1,1,75,0,0
46003,-62.5,4,1,1,5,0,0
46082,-62.5,4,1,1,75,0,0
47598,-62.5,4,1,1,5,0,0
47678,-62.5,4,1,1,75,0,0
48077,-62.5,4,1,1,5,0,0
48157,-62.5,4,1,1,75,0,0
50152,-62.5,4,1,1,5,0,0
50231,-62.5,4,1,1,75,0,0
50630,-62.5,4,1,1,5,0,0
50710,-62.5,4,1,1,75,0,0
51109,-62.5,4,1,1,5,0,0
51189,-62.5,4,1,1,75,0,0
52465,-76.9230769230769,4,1,1,70,0,0
57572,-76.9230769230769,4,1,1,80,0,0
57971,-76.9230769230769,4,1,1,5,0,0
58050,-76.9230769230769,4,1,1,80,0,0
58449,-76.9230769230769,4,1,1,5,0,0
58529,-76.9230769230769,4,1,1,80,0,0
58928,-76.9230769230769,4,1,1,5,0,0
59008,-76.9230769230769,4,1,1,80,0,0
60125,-66.6666666666667,4,1,1,87,0,1
75125,-100,4,1,1,87,0,0
75444,-66.6666666666667,4,1,1,87,0,1
80550,-66.6666666666667,4,1,1,75,0,0
83090,319.148936170213,4,1,1,90,1,0
83090,-60.6060606060606,4,1,1,90,0,0

[Colours]
Combo1 : 192,130,255
Combo2 : 92,162,245
Combo3 : 255,255,108
Combo4 : 255,145,200
SliderTrackOverride : 35,35,35
SliderBorder : 255,255,255

[HitObjects]
132,59,444,5,0,2:0:0:0:
138,156,763,1,0,2:0:0:0:
144,254,1082,1,0,2:0:0:0:
292,339,1402,6,0,B|385:336|385:336|432:308,2,138.599999577026,2|2|2,0:0|0:0|0:0,0:0:0:0:
215,284,2678,2,0,P|199:240|210:178,1,92.3999997180176,0|0,0:0|0:0,0:0:0:0:
262,144,3157,1,2,0:0:0:0:
341,227,3316,2,0,L|282:229,1,46.1999998590088,2|0,0:0|0:0,0:0:0:0:
367,143,3636,1,0,0:0:0:0:
215,284,3795,1,0,0:0:0:0:
124,244,3955,6,0,L|15:249,1,92.3999997180176,2|0,0:0|0:0,0:0:0:0:
215,284,4433,2,0,L|362:277,1,138.599999577026,2|2,0:0|0:0,0:0:0:0:
431,226,5231,2,0,P|449:184|438:126,1,92.3999997180176,0|0,0:0|0:0,0:0:0:0:
306,34,5710,5,2,0:0:0:0:
189,151,5870,1,2,0:0:0:0:
350,195,6029,1,2,0:0:0:0:
62,46,6189,5,8,1:0:0:0:
62,46,6508,6,0,L|64:112,1,46.1999998590088,4|0,1:2|3:0,0:0:0:0:
141,71,6827,2,0,L|143:142,1,52.5000020027161,0|0,1:0|3:0,0:0:0:0:
220,96,7146,2,0,L|222:172,1,59.5000011348725,0|0,1:0|3:0,0:0:0:0:
299,121,7465,2,0,L|302:210,1,66.4999982242585,0|0,1:0|3:0,0:0:0:0:
451,271,7784,6,0,L|352:277,1,73.4999977569581,0|0,1:0|3:0,0:0:0:0:
170,308,8104,2,0,L|277:301,1,80.5000015354157,0|0,1:0|3:0,0:0:0:0:
464,345,8423,2,0,L|351:352,1,87.5,0|0,1:0|3:0,0:0:0:0:
169,382,8742,2,0,L|300:373,1,94.5000003604889,0|0,1:0|2:0,0:0:0:0:
465,88,9061,5,4,1:0:0:0:
465,88,9380,5,8,1:0:0:0:
221,21,9540,1,8,1:0:0:0:
455,194,9699,5,8,1:0:0:0:
144,193,9859,1,8,1:0:0:0:
399,0,10019,5,8,1:0:0:0:
258,359,10178,1,8,1:0:0:0:
50,28,10338,5,10,1:0:0:0:
66,40,11614,6,0,L|242:52,1,157.500006008148,12|0,0:0|2:0,0:0:0:0:
295,27,11933,1,8,0:3:0:0:
99,135,12093,6,0,P|63:200|81:278,1,157.500006008148,12|0,0:0|2:0,0:0:0:0:
127,336,12412,1,8,0:3:0:0:
223,50,12572,6,0,L|52:39,1,157.500006008148,12|0,0:0|2:0,0:0:0:0:
0,74,12891,1,0,0:0:0:0:
354,242,13050,5,12,0:0:0:0:
212,147,13210,1,0,0:3:0:0:
200,319,13370,1,8,0:3:0:0:
330,122,13529,5,14,0:1:0:0:
315,355,13689,1,8,0:3:0:0:
444,249,13848,5,14,0:1:0:0:
122,227,14008,1,8,0:3:0:0:
500,196,14167,6,0,B|523:120|523:120|496:31,1,157.500006008148,12|0,0:0|2:0,0:0:0:0:
440,2,14487,1,8,0:3:0:0:
444,249,14646,6,0,P|384:277|282:257,1,157.500006008148,12|0,0:0|2:0,0:0:0:0:
231,232,14965,1,8,0:3:0:0:
500,45,15125,6,0,B|523:120|523:120|500:196,1,157.500006008148,12|0,0:0|2:0,0:0:0:0:
444,249,15444,1,0,0:0:0:0:
185,17,15604,5,12,0:0:0:0:
341,40,15764,1,2,0:2:0:0:
242,164,15924,1,8,0:3:0:0:
5,131,16082,5,10,0:1:0:0:
256,73,16242,1,8,0:3:0:0:
17,15,16402,5,12,0:1:0:0:
341,40,16561,1,8,0:3:0:0:
49,199,16721,6,0,P|29:254|62:349,1,157.500006008148,12|0,0:0|2:0,0:0:0:0:
126,378,17040,1,8,0:3:0:0:
365,182,17199,6,0,B|395:256|395:256|373:332,1,157.500006008148,12|0,0:0|2:0,0:0:0:0:
307,367,17519,1,8,0:3:0:0:
58,345,17678,6,0,P|28:273|49:199,1,157.500006008148,12|0,0:0|2:0,0:0:0:0:
99,142,17997,1,0,0:0:0:0:
306,367,18157,5,12,0:0:0:0:
132,266,18316,1,0,0:3:0:0:
307,165,18476,1,8,0:3:0:0:
184,383,18636,5,14,0:1:0:0:
187,98,18795,1,8,0:3:0:0:
428,349,18955,5,14,0:1:0:0:
55,264,19114,1,8,0:3:0:0:
406,220,19274,6,0,L|416:61,1,157.500006008148,12|0,0:0|2:0,0:0:0:0:
377,0,19593,1,8,0:3:0:0:
192,250,19753,6,0,B|266:277|266:277|350:259,1,157.500006008148,12|0,0:0|2:0,0:0:0:0:
406,220,20072,1,8,0:3:0:0:
156,33,20231,6,0,L|146:192,1,157.500006008148,12|0,0:0|2:0,0:0:0:0:
192,250,20550,1,8,0:3:0:0:
282,4,20710,5,12,0:0:0:0:
266,276,20870,1,2,1:2:0:0:
512,227,21029,1,2,1:2:0:0:
271,184,21189,5,8,0:0:0:0:
210,203,21269,1,8,0:0:0:0:
177,256,21349,1,8,0:0:0:0:
184,318,21428,1,8,0:0:0:0:
231,359,21508,1,8,0:0:0:0:
295,362,21588,1,8,0:0:0:0:
345,324,21668,1,8,0:0:0:0:
357,263,21747,1,8,0:0:0:0:
324,205,21827,6,0,B|318:125|318:125|349:85|349:85|342:-6,2,210,12|2|2,1:0|0:0|0:0,0:0:0:0:
324,205,23104,6,0,L|229:212,1,77.0000023498536
182,280,23423,2,0,L|187:356,1,77.0000023498536
285,360,23742,1,2,0:0:0:0:
331,271,23902,1,12,1:1:0:0:
96,372,24061,1,0,3:0:0:0:
384,355,24221,1,12,1:1:0:0:
44,290,24380,6,0,B|36:201|36:201|65:158|65:158|57:41,2,231.000007049561,2|2|2,1:2|0:0|0:0,0:0:0:0:
44,290,25657,6,0,L|139:283,1,83.9999974365235,0|0,3:0|3:0,0:0:0:0:
193,212,25976,2,0,L|186:117,1,83.9999974365235,0|0,3:0|3:0,0:0:0:0:
91,49,26295,1,2,0:2:0:0:
101,179,26455,1,2,0:0:0:0:
213,57,26614,1,12,1:1:0:0:
0,0,26774,1,2,0:0:0:0:
0,224,26933,5,2,1:2:0:0:
193,212,27093,1,2,0:0:0:0:
100,298,27253,1,2,1:2:0:0:
296,281,27412,1,2,0:0:0:0:
206,375,27572,1,2,1:2:0:0:
193,212,27731,2,0,L|187:115,1,77.0000023498536,2|0,0:0|1:0,0:0:0:0:
281,19,28050,6,0,L|285:95,1,77.0000023498536,2|0,0:0|1:0,0:0:0:0:
296,281,28370,1,2,0:0:0:0:
375,154,28529,1,2,1:2:0:0:
386,304,28689,1,2,0:0:0:0:
289,189,28848,1,2,1:2:0:0:
434,225,29008,2,0,L|518:222,1,77.0000023498536,8|0,1:0|1:2,0:0:0:0:
285,95,29327,1,12,1:0:0:0:
296,281,29487,6,0,L|300:364,1,77.0000023498536,4|0,1:0|0:0,0:0:0:0:
210,219,29806,2,0,L|216:327,1,87.5,0|0,1:0|0:0,0:0:0:0:
123,116,30125,2,0,L|130:230,1,97.9999970092774,0|0,1:0|0:3,0:0:0:0:
31,16,30444,2,0,L|37:137,1,108.500000827789,0|0,1:0|0:0,0:0:0:0:
54,373,30763,5,0,1:0:0:0:
42,208,30923,1,8,1:3:0:0:
161,364,31082,2,0,P|208:373|257:355,1,77.0000023498536,2|0,1:2|1:0,0:0:0:0:
369,115,31402,5,8,1:0:0:0:
327,154,31481,1,8,1:0:0:0:
317,211,31561,1,8,1:0:0:0:
341,263,31641,1,8,1:0:0:0:
391,291,31721,1,8,1:0:0:0:
365,240,31800,1,8,1:0:0:0:
317,211,31880,1,8,1:0:0:0:
259,216,31960,1,8,1:0:0:0:
213,253,32040,6,0,B|129:270|129:270|21:246,1,167.999994873047,14|8,0:0|1:0,0:0:0:0:
180,340,32519,2,0,L|365:302,1,167.999994873047,2|0,0:2|2:0,0:0:0:0:
454,182,32997,2,0,P|464:88|430:12,2,167.999994873047,10|0|8,0:0|1:0|0:0,0:0:0:0:
344,306,33795,5,2,2:2:0:0:
335,115,33955,1,8,0:3:0:0:
460,299,34114,2,0,L|464:387,1,83.9999974365235,2|8,2:2|0:0,0:0:0:0:
226,307,34433,1,2,2:2:0:0:
454,182,34593,6,0,B|475:100|475:100|438:22,1,167.999994873047,2|8,0:0|1:1,0:0:0:0:
360,200,35072,2,0,L|366:386,1,167.999994873047,2|0,0:2|2:0,0:0:0:0:
263,192,35550,2,0,B|235:115|235:115|269:21,2,167.999994873047,10|0|8,0:0|0:0|0:0,0:0:0:0:
355,109,36348,5,2,2:2:0:0:
173,42,36508,1,2,0:2:0:0:
239,265,36667,1,2,2:2:0:0:
335,16,36827,1,8,0:0:0:0:
390,202,36987,1,2,2:2:0:0:
123,171,37146,5,6,0:0:0:0:
179,360,37306,1,2,2:2:0:0:
140,89,37465,5,10,0:1:0:0:
100,282,37625,1,2,2:0:0:0:
0,159,37784,5,2,1:2:0:0:
13,351,37944,1,2,2:0:0:0:
214,227,38104,5,10,1:1:0:0:
46,78,38263,1,2,2:0:0:0:
100,282,38423,5,6,0:0:0:0:
140,89,38582,1,2,2:2:0:0:
179,360,38742,5,10,0:1:0:0:
91,187,38901,1,2,2:0:0:0:
95,382,39061,5,2,1:2:0:0:
214,227,39221,2,0,L|209:127,1,83.9999974365235,2|8,2:0|0:0,0:0:0:0:
83,6,39540,1,2,2:0:0:0:
286,350,39699,6,0,B|323:278|323:278|317:181,1,167.999994873047,6|8,0:0|0:0,0:0:0:0:
137,330,40178,1,2,0:2:0:0:
465,225,40338,5,8,0:0:0:0:
510,172,40418,1,8,0:0:0:0:
509,101,40498,1,8,0:0:0:0:
465,47,40577,1,8,0:0:0:0:
396,36,40657,1,10,0:0:0:0:
335,71,40737,1,8,0:0:0:0:
311,136,40817,1,8,0:0:0:0:
335,201,40897,1,8,0:0:0:0:
395,237,40976,1,8,0:0:0:0:
416,138,42253,6,0,B|441:217|441:217|415:333,1,168,12|0,0:0|2:0,0:0:0:0:
403,372,42572,1,8,0:3:0:0:
343,125,42731,6,0,P|255:106|154:140,1,168,12|0,0:0|2:0,0:0:0:0:
125,172,43050,1,8,0:3:0:0:
422,300,43210,6,0,B|441:217|441:217|416:138,1,168,12|0,0:0|2:0,0:0:0:0:
392,70,43529,1,0,0:0:0:0:
318,307,43689,5,12,0:0:0:0:
511,305,43848,1,0,0:3:0:0:
416,138,44008,1,8,0:3:0:0:
462,370,44167,5,14,0:1:0:0:
495,147,44327,1,8,0:3:0:0:
372,365,44487,5,14,0:1:0:0:
327,82,44646,1,8,0:3:0:0:
214,347,44806,6,0,B|131:363|131:363|48:333,1,168,12|0,0:0|2:0,0:0:0:0:
0,281,45125,1,8,0:3:0:0:
269,293,45284,6,0,P|290:217|229:110,1,168,12|0,0:0|2:0,0:0:0:0:
202,89,45604,1,8,0:3:0:0:
52,334,45763,6,0,B|131:363|131:363|214:347,1,168,12|0,0:0|2:0,0:0:0:0:
269,293,46082,1,0,0:0:0:0:
100,201,46242,5,8,0:0:0:0:
344,338,46402,2,0,P|356:283|330:227,1,112,2|8,0:2|0:3,0:0:0:0:
100,201,46721,2,0,L|-20:211,1,112,10|8,0:1|0:3,0:0:0:0:
283,161,47040,1,12,0:1:0:0:
296,112,47120,1,0,0:0:0:0:
285,63,47199,1,8,0:3:0:0:
251,24,47279,1,0,0:0:0:0:
202,11,47359,6,0,B|134:62|134:62|23:71,1,168,12|0,0:0|2:0,0:0:0:0:
0,17,47678,1,8,0:3:0:0:
228,81,47838,6,0,B|160:132|160:132|49:141,1,168,12|0,0:0|2:0,0:0:0:0:
4,127,48157,1,8,0:3:0:0:
279,8,48316,5,12,0:0:0:0:
159,215,48476,1,2,1:2:0:0:
139,15,48636,5,2,0:2:0:0:
289,203,48795,1,14,0:0:0:0:
13,214,48955,1,2,0:2:0:0:
360,139,49114,1,0,0:0:0:0:
77,138,49274,5,14,0:1:0:0:
430,209,49433,1,0,0:0:0:0:
159,215,49593,1,14,0:1:0:0:
380,345,49753,1,2,0:2:0:0:
57,314,49912,6,0,L|243:306,1,168,12|0,0:0|2:0,0:0:0:0:
290,339,50231,1,8,0:3:0:0:
77,238,50391,6,0,P|49:166|91:62,1,168,12|0,0:0|2:0,0:0:0:0:
125,29,50710,1,8,0:3:0:0:
224,306,50870,6,0,L|57:314,1,168,12|0,0:0|2:0,0:0:0:0:
2,264,51189,1,8,0:3:0:0:
292,254,51348,1,14,0:0:0:0:
147,384,51508,5,2,1:2:0:0:
137,94,51667,1,2,1:2:0:0:
317,353,51827,5,8,0:0:0:0:
371,324,51907,1,8,0:0:0:0:
391,263,51987,1,8,0:0:0:0:
378,203,52066,1,8,0:0:0:0:
332,161,52146,1,8,0:0:0:0:
319,100,52226,1,8,0:0:0:0:
345,44,52306,1,8,0:0:0:0:
402,20,52386,1,8,0:0:0:0:
463,40,52465,6,0,L|359:44,1,90.9999958343508,14|0,0:0|2:3,0:0:0:0:
121,30,52784,2,0,L|225:26,1,90.9999958343508,8|0,0:0|2:2,0:0:0:0:
460,117,53104,2,0,L|356:121,1,90.9999958343508,0|0,0:0|2:0,0:0:0:0:
118,107,53423,2,0,L|208:103,1,90.9999958343508,8|0,0:0|2:0,0:0:0:0:
424,209,53742,5,4,0:0:0:0:
294,344,53902,2,0,L|167:352,1,90.9999958343508,2|8,2:0|0:0,0:0:0:0:
34,301,54221,2,0,L|135:295,1,90.9999958343508,0|0,2:2|0:0,0:0:0:0:
350,259,54540,2,0,L|249:265,1,90.9999958343508,2|8,2:2|0:0,0:0:0:0:
186,158,54859,1,0,0:0:0:0:
424,209,55019,6,0,P|438:252|409:329,1,90.9999958343508,4|0,0:0|2:3,0:0:0:0:
253,102,55338,1,8,0:0:0:0:
259,264,55497,2,0,L|263:371,1,90.9999958343508,0|0,2:2|0:0,0:0:0:0:
149,111,55816,2,0,L|145:20,1,90.9999958343508,0|8,0:0|0:0,0:0:0:0:
365,87,56136,1,0,2:0:0:0:
345,353,56295,6,0,L|341:262,1,90.9999958343508,6|0,0:0|2:3,0:0:0:0:
449,56,56614,2,0,P|453:106|420:157,1,90.9999958343508,8|0,0:0|2:2,0:0:0:0:
81,197,56933,2,0,L|196:191,1,90.9999958343508,0|0,0:0|2:0,0:0:0:0:
489,247,57253,1,8,0:0:0:0:
177,268,57412,1,0,2:0:0:0:
289,3,57572,1,8,3:0:0:0:
272,368,57731,6,0,L|263:199,1,136.499993751526,12|0,0:0|2:0,0:0:0:0:
314,149,58050,1,8,3:3:0:0:
43,348,58210,6,0,L|216:340,1,136.499993751526,12|0,0:0|2:0,0:0:0:0:
272,368,58529,1,8,3:0:0:0:
166,38,58689,6,0,L|174:211,1,136.499993751526,12|0,0:0|2:0,0:0:0:0:
109,251,59008,2,0,L|61:254,2,30.3333319447836,0|0|0,3:0|3:0|3:0,0:0:0:0:
248,274,59167,5,14,0:0:0:0:
38,55,60125,5,6,0:0:0:0:
44,217,60284,1,0,0:0:0:0:
263,129,60444,1,10,0:0:0:0:
106,138,60604,1,0,0:0:0:0:
328,209,60763,5,2,0:2:0:0:
320,48,60923,1,0,0:0:0:0:
145,247,61082,1,10,0:0:0:0:
137,25,61242,1,0,0:0:0:0:
241,265,61402,6,0,L|247:404,1,105.000004005432,2|0,0:2|0:0,0:0:0:0:
397,104,61721,2,0,P|412:40|379:-30,1,105.000004005432,10|0,0:0|0:0,0:0:0:0:
302,147,62040,5,0,0:2:0:0:
455,199,62199,1,0,0:0:0:0:
241,265,62359,2,0,L|123:271,1,105.000004005432,10|0,0:0|0:0,0:0:0:0:
498,66,62678,5,6,0:0:0:0:
303,71,62838,1,0,0:0:0:0:
418,308,62997,1,10,0:0:0:0:
405,120,63157,1,0,0:0:0:0:
136,270,63316,5,2,0:2:0:0:
331,261,63476,1,0,0:0:0:0:
197,364,63636,1,10,0:0:0:0:
184,107,63795,1,0,0:0:0:0:
114,349,63955,6,0,P|59:362|-25:337,1,105.000004005432,6|0,0:0|0:0,0:0:0:0:
220,187,64274,1,8,0:0:0:0:
227,345,64433,1,0,0:0:0:0:
100,134,64593,6,0,L|95:4,1,105.000004005432,6|0,0:0|0:0,0:0:0:0:
321,273,64912,2,0,L|327:403,1,105.000004005432,10|0,0:0|0:0,0:0:0:0:
280,80,65231,5,6,0:0:0:0:
474,65,65391,1,0,0:0:0:0:
287,192,65550,1,10,0:0:0:0:
274,0,65710,1,0,0:0:0:0:
20,147,65870,5,2,0:2:0:0:
213,135,66029,1,0,0:0:0:0:
17,33,66189,1,10,0:0:0:0:
27,260,66348,1,0,0:0:0:0:
279,79,66508,6,0,L|418:75,1,105.000004005432,2|0,0:2|0:0,0:0:0:0:
124,143,66827,2,0,L|-4:147,1,105.000004005432,10|0,0:0|0:0,0:0:0:0:
328,159,67146,5,0,0:2:0:0:
323,0,67306,1,0,0:0:0:0:
394,262,67465,2,0,P|448:275|516:256,1,105.000004005432,10|0,0:0|0:0,0:0:0:0:
94,244,67784,5,6,0:0:0:0:
293,239,67944,1,0,0:0:0:0:
58,163,68104,1,10,0:0:0:0:
328,159,68263,1,0,0:0:0:0:
77,332,68423,5,2,0:2:0:0:
307,325,68582,1,0,0:0:0:0:
181,144,68742,1,10,0:0:0:0:
190,372,68902,1,0,0:0:0:0:
261,108,69061,6,0,L|258:2,1,105.000004005432,6|0,0:0|0:0,0:0:0:0:
146,270,69380,1,8,0:0:0:0:
134,13,69540,1,0,0:0:0:0:
238,305,69699,5,8,0:0:0:0:
296,343,69779,1,8,0:0:0:0:
363,323,69859,1,8,0:0:0:0:
404,268,69939,1,8,0:0:0:0:
398,199,70019,1,8,0:0:0:0:
348,151,70098,1,8,0:0:0:0:
336,82,70178,1,8,0:0:0:0:
366,20,70258,1,8,0:0:0:0:
432,0,70338,5,6,0:0:0:0:
312,243,70497,1,0,0:2:0:0:
439,103,70657,5,10,0:0:0:0:
175,118,70816,1,0,0:0:0:0:
508,240,70976,5,2,0:0:0:0:
336,82,71136,1,0,0:2:0:0:
364,347,71295,5,10,0:0:0:0:
439,103,71455,1,0,0:0:0:0:
228,308,71614,6,0,L|109:316,1,105.000004005432,6|0,0:0|0:0,0:0:0:0:
311,244,71854,1,0,0:0:0:0:
340,210,71933,2,0,P|356:160|336:89,1,105.000004005432,10|0,0:0|0:0,0:0:0:0:
174,12,72253,6,0,L|46:21,1,105.000004005432
395,0,72572,1,10,0:0:0:0:
212,83,72731,1,2,0:2:0:0:
357,319,72891,5,6,0:0:0:0:
299,67,73050,1,0,0:2:0:0:
206,308,73210,5,10,0:0:0:0:
432,175,73370,1,0,0:0:0:0:
168,153,73529,5,2,0:0:0:0:
279,384,73689,1,0,0:2:0:0:
317,155,73848,5,10,0:0:0:0:
126,338,74008,1,0,0:0:0:0:
489,117,74167,6,0,L|481:4,1,105.000004005432,6|0,0:0|0:0,0:0:0:0:
392,174,74407,1,0,0:0:0:0:
415,213,74487,2,0,P|462:238|531:228,1,105.000004005432,10|0,0:0|0:0,0:0:0:0:
243,139,74806,6,0,L|119:146,1,105.000004005432,0|0,0:0|0:0,0:0:0:0:
30,311,75125,1,8,0:0:0:0:
16,56,75284,1,8,0:3:0:0:
311,346,75444,5,12,0:0:0:0:
310,58,75604,1,8,0:3:0:0:
62,202,75763,1,8,0:3:0:0:
345,341,75923,5,12,0:0:0:0:
290,31,76082,1,8,0:3:0:0:
49,234,76242,1,8,0:3:0:0:
432,171,76402,5,14,0:0:0:0:
432,171,76721,5,12,0:0:0:0:
210,355,76881,1,8,0:3:0:0:
160,72,77040,1,8,0:3:0:0:
449,199,77200,5,12,0:0:0:0:
176,357,77359,1,8,0:3:0:0:
177,42,77519,1,8,0:3:0:0:
411,337,77678,5,14,0:0:0:0:
411,337,77997,5,4,0:0:0:0:
105,239,78157,1,0,0:0:0:0:
449,199,78316,1,10,0:0:0:0:
176,357,78476,1,2,0:2:0:0:
265,79,78636,5,4,0:0:0:0:
286,299,78795,1,0,0:0:0:0:
175,104,78955,2,0,L|44:112,1,105.000004005432,10|0,0:0|0:0,0:0:0:0:
309,317,79274,5,14,0:0:0:0:
284,27,79433,1,8,0:0:0:0:
403,253,79593,2,0,L|534:245,1,105.000004005432,4|0,0:0|0:0,0:0:0:0:
129,166,79912,5,8,0:0:0:0:
65,203,79992,1,8,0:0:0:0:
40,273,80072,1,8,0:0:0:0:
65,341,80152,1,8,0:0:0:0:
128,378,80231,1,8,0:0:0:0:
201,366,80311,1,8,0:0:0:0:
248,308,80391,1,8,0:0:0:0:
249,235,80471,1,8,0:0:0:0:
202,179,80550,1,12,0:0:0:0:
110,293,81827,5,8,3:3:0:0:
181,336,82146,5,8,3:3:0:0:
155,80,82306,1,8,3:3:0:0:
98,145,82625,5,8,3:3:0:0:
480,115,82784,1,8,1:1:0:0:
480,115,83090,5,12,0:0:0:0:
182,136,83249,1,2,1:2:0:0:
476,204,83409,1,2,1:2:0:0:
17,175,83568,5,12,0:0:0:0:
315,154,83727,1,2,1:2:0:0:
21,86,83887,1,2,1:2:0:0:
269,346,84047,6,0,B|353:373|353:373|446:356,1,173.250001652241,12|0,0:0|2:0,0:0:0:0:
497,312,84366,1,8,0:3:0:0:
187,296,84526,2,0,L|17:305,1,115.500001101494,8|0,0:0|0:0,0:0:0:0:
32,149,84845,1,8,0:3:0:0:
405,259,85005,5,10,0:0:0:0:
394,0,85164,1,0,0:0:0:0:
253,205,85324,5,10,0:0:0:0:
495,74,85483,1,0,0:0:0:0:
32,149,85643,5,12,0:0:0:0:
333,226,85802,1,2,1:2:0:0:
21,246,85962,1,2,1:2:0:0:
481,311,86121,5,12,0:0:0:0:
177,236,86280,1,2,1:2:0:0:
491,217,86440,1,2,1:2:0:0:
267,24,86600,6,0,B|182:7|182:7|85:29,1,173.250001652241,12|0,0:0|2:0,0:0:0:0:
41,77,86919,1,8,0:3:0:0:
347,81,87079,2,0,L|480:73,1,115.500001101494,8|0,0:0|0:0,0:0:0:0:
51,311,87398,5,8,0:0:0:0:
399,182,87558,1,8,0:0:0:0:
41,77,87717,1,8,0:0:0:0:
271,373,87877,1,8,0:0:0:0:
258,0,88037,1,12,0:0:0:0:
264,189,88515,5,2,2:0:0:0:
490,247,89153,5,10,0:0:0:0:
29,132,89313,1,14,0:0:0:0:
