osu file format v14

[General]
AudioFilename: audio.mp3
AudioLeadIn: 0
PreviewTime: 41252
Countdown: 0
SampleSet: Soft
StackLeniency: 0.7
Mode: 0
LetterboxInBreaks: 0
WidescreenStoryboard: 1

[Editor]
DistanceSpacing: 1.3
BeatDivisor: 4
GridSize: 32
TimelineZoom: 2.599999

[Metadata]
Title:STORY (TV Size)
TitleUnicode:STORY (TV Size)
Artist:Kensho Ono
ArtistUnicode:小野賢章
Creator:Xexxar
Version:Sotarks' Expert
Source:ラクエンロジック
Tags:luck & logic anime xr a_r_m_i_n armin sotarks syph borborygmos akitoshi Hobbes2 and milkshake _83
BeatmapID:1268353
BeatmapSetID:598357

[Difficulty]
HPDrainRate:6.2
CircleSize:3.5
OverallDifficulty:9
ApproachRate:9.3
SliderMultiplier:1.72
SliderTickRate:1

[Events]
//Background and Video events
0,0,"30042-Luck_and_Logic-PC.jpg",0,0
Video,208,"outm.avi"
//Break Periods
//Storyboard Layer 0 (Background)
//Storyboard Layer 1 (Fail)
//Storyboard Layer 2 (Pass)
//Storyboard Layer 3 (Foreground)
//Storyboard Sound Samples

[TimingPoints]
1402,319.148936170213,4,2,22,42,1,0
1402,-161.290322580645,4,2,22,42,0,0
6109,-161.290322580645,4,2,22,5,0,0
6189,-108.695652173913,4,2,22,62,0,0
6428,-108.695652173913,4,2,22,5,0,0
6508,-121.951219512195,4,2,22,52,0,0
10657,-98.0392156862745,4,2,22,52,0,0
10896,-98.0392156862745,4,2,22,5,0,0
10976,-192.307692307692,4,2,22,52,0,0
11215,-192.307692307692,4,2,22,5,0,0
11295,-121.951219512195,4,2,22,52,0,0
11614,-89.2857142857143,4,1,22,72,0,0
21827,-108.695652173913,4,2,22,62,0,0
21907,-108.695652173913,4,2,22,52,0,0
32040,-98.0392156862745,4,2,22,62,0,0
41295,-98.0392156862745,4,2,22,52,0,0
41534,-98.0392156862745,4,2,22,5,0,0
41614,-192.307692307692,4,2,22,52,0,0
41854,-192.307692307692,4,2,22,5,0,0
41933,-121.951219512195,4,2,22,52,0,0
42253,-89.2857142857143,4,1,22,62,0,0
52465,-98.0392156862745,4,2,22,62,0,0
57572,-75.7575757575758,4,2,22,72,0,0
59487,-121.951219512195,4,2,22,52,0,0
59806,-161.290322580645,4,2,22,52,0,0
60045,-161.290322580645,4,2,22,5,0,0
60125,-81.9672131147541,4,1,22,82,0,1
75125,-81.9672131147541,4,1,22,82,0,0
75444,-81.9672131147541,4,1,22,82,0,1
76082,-98.0392156862745,4,1,22,82,0,1
76322,-98.0392156862745,4,1,22,5,0,1
76402,-75.7575757575758,4,1,22,82,0,1
76641,-75.7575757575758,4,1,22,5,0,1
76721,-81.9672131147541,4,1,22,82,0,1
77359,-98.0392156862745,4,1,22,82,0,1
77598,-98.0392156862745,4,1,22,5,0,1
77678,-75.7575757575758,4,1,22,82,0,1
77917,-98.0392156862745,4,1,22,5,0,1
77997,-89.2857142857143,4,1,22,82,0,1
80550,-192.307692307692,4,2,22,52,0,0
82784,-138.888888888889,4,2,22,52,0,0
83024,-138.888888888889,4,2,22,5,0,0
83090,319.148936170213,4,2,22,72,1,0
83090,-89.2857142857143,4,2,22,72,0,0
88036,-108.695652173913,4,2,22,62,0,0
88435,-108.695652173913,4,2,22,5,0,0
88515,-192.307692307692,4,2,22,42,0,0
89074,-192.307692307692,4,2,22,5,0,0
89153,-192.307692307692,4,2,22,72,0,0

[Colours]
Combo1 : 192,130,255
Combo2 : 92,162,245
Combo3 : 255,255,108
Combo4 : 255,145,200
SliderTrackOverride : 35,35,35
SliderBorder : 255,255,255

[HitObjects]
128,130,1402,6,0,P|194:118|246:113,1,106.639995769287,2|0,0:0|0:0,0:0:0:0:
306,216,1880,2,0,P|240:204|188:199,1,106.639995769287,2|0,0:0|0:0,0:0:0:0:
320,128,2359,2,0,P|368:154|350:290,1,213.279991538575,2|0,0:0|0:0,0:0:0:0:
229,336,3157,1,2,0:0:0:0:
229,336,3316,2,0,L|156:325,1,53.3199978846436,2|0,0:0|0:0,0:0:0:0:
98,263,3636,1,2,0:0:0:0:
98,263,3795,2,0,P|157:277|199:244,1,106.639995769287,2|0,0:0|0:0,0:0:0:0:
260,184,4274,2,0,B|169:115|134:213|60:153|60:153|122:123|127:75|127:75|161:92|231:74,1,426.559983077149,2|0,0:0|0:0,0:0:0:0:
420,19,5870,6,0,P|434:52|439:102,1,79.9799968269655,2|0,3:0|0:0,0:0:0:0:
384,163,6189,2,0,P|365:205|391:297,1,118.679996015991,8|0,0:0|0:0,0:0:0:0:
449,332,6508,6,0,L|295:315,1,141.0400021521,4|2,1:0|1:0,0:0:0:0:
148,350,6987,1,2,0:0:0:0:
236,181,7146,2,0,P|245:240|244:284,1,70.5200010760498,2|2,1:0|0:0,0:0:0:0:
155,231,7465,1,2,1:0:0:0:
155,231,7625,1,2,0:0:0:0:
310,132,7784,1,2,1:0:0:0:
222,94,7944,1,2,0:0:0:0:
328,218,8104,2,0,L|417:204,1,70.5200010760498,0|2,1:0|0:0,0:0:0:0:
450,128,8423,1,2,1:0:0:0:
442,305,8582,2,0,L|353:291,1,70.5200010760498,2|0,0:0|1:0,0:0:0:0:
302,354,8902,1,2,0:0:0:0:
165,166,9061,5,4,1:0:0:0:
165,166,9380,1,8,0:0:0:0:
315,209,9540,1,8,0:0:0:0:
152,322,9699,1,8,0:0:0:0:
116,78,9859,1,8,0:0:0:0:
391,159,10019,1,8,0:0:0:0:
83,246,10178,1,8,0:0:0:0:
367,66,10338,1,8,0:0:0:0:
367,66,10657,6,0,P|305:50|240:77,1,131.580000803101,2|0,0:0|0:0,0:0:0:0:
281,141,10976,6,0,P|301:129|344:144,1,67.0799995905762,2|0,0:0|0:0,0:0:0:0:
317,224,11295,6,0,L|319:317,1,70.5200010760498,2|2,0:0|0:0,0:0:0:0:
426,142,11614,5,14,0:2:0:0:
194,141,11774,1,0,0:0:0:0:
317,224,11933,1,0,0:0:0:0:
249,67,12093,6,0,P|193:49|103:124,1,144.480001763672,12|0,0:0|2:0,0:0:0:0:
108,126,12412,1,0,0:0:0:0:
325,19,12572,6,0,B|339:117|339:117|309:165,1,144.480001763672,12|0,0:0|2:0,0:0:0:0:
287,187,12891,1,0,0:0:0:0:
424,73,13050,5,12,0:0:0:0:
249,67,13210,1,0,0:0:0:0:
315,272,13370,1,0,0:0:0:0:
325,19,13529,5,12,0:0:0:0:
403,256,13689,1,0,0:0:0:0:
249,67,13848,5,10,0:2:0:0:
171,304,14008,1,0,0:0:0:0:
361,149,14167,6,0,B|281:129|299:186|194:150,1,144.480001763672,14|0,0:2|2:0,0:0:0:0:
182,140,14487,1,0,0:0:0:0:
430,91,14646,6,0,P|455:143|416:221,1,144.480001763672,12|0,0:0|2:0,0:0:0:0:
394,245,14965,1,0,0:0:0:0:
251,74,15125,6,0,P|161:47|146:51,1,96.3200011757813,12|0,0:0|0:0,0:0:0:0:
72,91,15444,1,0,0:0:0:0:
144,297,15604,5,12,0:0:0:0:
182,140,15763,1,0,0:0:0:0:
226,231,15923,1,0,0:0:0:0:
17,170,16082,5,12,0:0:0:0:
271,118,16242,1,0,0:0:0:0:
12,268,16402,5,10,0:2:0:0:
266,320,16562,1,0,0:0:0:0:
103,107,16721,6,0,L|115:221,1,96.3200011757813,14|0,0:2|0:0,0:0:0:0:
163,320,17040,1,0,0:0:0:0:
182,50,17199,6,0,L|202:227,1,144.480001763672,12|0,0:0|2:0,0:0:0:0:
204,230,17519,1,0,0:0:0:0:
99,80,17678,5,12,0:0:0:0:
117,237,17838,1,0,0:0:0:0:
189,123,17997,1,0,0:0:0:0:
211,317,18157,6,0,L|311:301,1,96.3200011757813,12|0,0:0|0:0,0:0:0:0:
337,179,18476,1,0,0:0:0:0:
474,352,18636,5,12,0:0:0:0:
252,224,18795,1,0,0:0:0:0:
469,117,18955,5,8,0:0:0:0:
387,329,19114,1,0,0:0:0:0:
188,92,19274,6,0,B|289:65|289:65|332:83,1,144.480001763672,12|0,0:0|2:0,0:0:0:0:
360,99,19593,1,0,0:0:0:0:
115,33,19753,6,0,B|89:88|92:139|92:139|116:179,1,144.480001763672,12|0,0:0|2:0,0:0:0:0:
131,200,20072,1,0,0:0:0:0:
361,44,20231,6,0,L|377:225,1,144.480001763672,12|0,0:0|2:0,0:0:0:0:
379,225,20550,1,0,0:0:0:0:
225,55,20710,5,12,0:0:0:0:
185,278,20870,1,2,0:2:0:0:
289,151,21029,1,0,0:0:0:0:
120,204,21189,1,10,0:2:0:0:
157,196,21268,1,8,0:0:0:0:
196,198,21348,1,8,0:0:0:0:
231,212,21428,1,8,0:0:0:0:
262,236,21508,2,4,L|347:235,1,48.1600005878906,4|4,3:0|3:0,3:0:0:0:
346,317,21667,2,4,L|394:317,1,48.1600005878906,4|4,3:0|3:0,3:0:0:0:
485,252,21827,6,0,P|440:251|382:165,1,158.239994687988,6|0,1:2|1:0,0:0:0:0:
480,70,22306,2,0,L|390:58,1,79.1199973439942,2|0,0:0|1:0,0:0:0:0:
316,102,22625,1,0,0:0:0:0:
201,35,22784,2,0,P|224:90|244:199,1,158.239994687988,2|0,1:0|1:0,0:0:0:0:
212,272,23263,1,0,0:0:0:0:
150,197,23423,2,0,L|61:186,1,79.1199973439942,0|2,1:0|0:0,0:0:0:0:
103,279,23742,1,2,1:0:0:0:
122,107,23902,1,10,0:0:0:0:
212,272,24061,1,0,1:0:0:0:
272,99,24221,1,10,0:0:0:0:
321,197,24380,6,0,L|230:184,1,79.1199973439942,2|0,1:0|0:0,0:0:0:0:
362,110,24699,2,0,P|407:154|402:253,1,158.239994687988,2|0,1:0|1:0,0:0:0:0:
272,99,25178,2,0,L|89:113,1,158.239994687988,8|0,3:0|0:0,0:0:0:0:
196,187,25657,1,0,1:0:0:0:
196,187,25816,1,8,3:0:0:0:
128,267,25976,1,0,1:0:0:0:
128,267,26136,1,10,3:0:0:0:
114,111,26295,1,2,1:0:0:0:
262,254,26455,1,10,3:0:0:0:
272,99,26614,2,0,L|378:93,1,79.1199973439942,12|2,0:0|0:0,0:0:0:0:
453,225,26933,6,0,L|347:219,1,79.1199973439942,4|2,1:0|0:0,0:0:0:0:
428,136,27253,1,2,1:0:0:0:
428,136,27412,1,2,0:0:0:0:
473,315,27572,1,2,1:0:0:0:
374,220,27731,2,0,L|270:216,1,79.1199973439942,2|0,0:0|1:0,0:0:0:0:
146,309,28050,2,0,L|225:305,1,79.1199973439942,2|0,0:0|1:0,0:0:0:0:
172,125,28370,1,2,0:0:0:0:
157,216,28529,1,2,1:0:0:0:
157,216,28689,1,2,0:0:0:0:
186,38,28848,1,2,1:0:0:0:
241,181,29008,2,0,L|343:167,1,79.1199973439942,10|0,0:0|1:0,0:0:0:0:
172,125,29327,6,0,L|70:111,1,79.1199973439942,10|4,0:0|1:0,0:0:0:0:
264,90,29646,1,2,0:0:0:0:
241,181,29806,2,0,P|234:234|303:323,1,158.239994687988,0|0,1:0|1:0,0:0:0:0:
401,158,30284,1,8,3:0:0:0:
401,158,30444,2,0,P|409:208|393:253,1,79.1199973439942,0|0,1:0|0:0,0:0:0:0:
322,208,30763,1,0,1:0:0:0:
477,104,30923,1,8,3:0:0:0:
463,294,31082,2,0,P|419:319|387:316,1,79.1199973439942,2|0,1:0|0:0,0:0:0:0:
329,126,31402,1,2,1:0:0:0:
289,125,31481,1,8,0:0:0:0:
255,144,31561,1,8,0:0:0:0:
225,169,31641,1,8,0:0:0:0:
189,184,31721,1,10,0:0:0:0:
154,193,31800,1,8,0:0:0:0:
116,189,31880,1,8,0:0:0:0:
88,167,31960,1,8,0:0:0:0:
74,125,32040,6,0,L|59:299,1,175.440001070801,6|8,1:2|0:0,0:0:0:0:
155,88,32519,2,0,P|209:60|290:145,1,175.440001070801,2|0,3:2|3:0,0:0:0:0:
360,297,32997,2,0,P|408:278|431:236,1,87.7200005354004,10|0,0:0|3:0,0:0:0:0:
394,142,33316,1,0,1:0:0:0:
394,142,33476,1,0,3:0:0:0:
352,324,33636,1,8,0:0:0:0:
297,146,33795,1,2,3:2:0:0:
435,229,33955,1,2,1:0:0:0:
261,260,34114,1,2,3:2:0:0:
399,130,34274,1,8,0:0:0:0:
435,229,34433,1,2,3:2:0:0:
297,146,34593,6,0,L|180:133,1,87.7200005354004,0|0,1:0|3:0,0:0:0:0:
54,294,34912,2,0,L|171:281,1,87.7200005354004,10|0,0:2|3:0,0:0:0:0:
96,88,35231,1,0,1:0:0:0:
175,208,35391,2,0,L|87:198,1,87.7200005354004,2|8,3:0|0:0,0:0:0:0:
254,59,35710,1,0,3:0:0:0:
335,230,35870,2,0,L|422:220,1,87.7200005354004,2|0,1:0|3:0,0:0:0:0:
297,146,36189,1,8,0:0:0:0:
256,308,36348,2,0,L|168:298,1,87.7200005354004,0|2,3:2|1:2,0:0:0:0:
176,115,36667,1,2,3:2:0:0:
85,287,36827,1,8,0:0:0:0:
175,208,36987,1,2,3:2:0:0:
256,308,37146,5,4,1:0:0:0:
197,120,37306,1,2,3:2:0:0:
169,298,37465,1,10,0:2:0:0:
223,209,37625,1,2,3:2:0:0:
266,347,37784,1,2,1:2:0:0:
277,123,37944,1,2,3:2:0:0:
348,302,38104,1,10,0:2:0:0:
354,165,38263,1,2,3:2:0:0:
169,298,38423,5,2,1:2:0:0:
189,127,38582,1,2,3:2:0:0:
334,286,38742,1,10,0:2:0:0:
364,123,38902,1,2,3:2:0:0:
181,284,39061,1,2,1:2:0:0:
258,77,39221,2,0,P|276:137|279:191,1,87.7200005354004,2|8,3:2|0:0,0:0:0:0:
270,252,39540,1,2,3:2:0:0:
120,127,39699,6,0,P|188:113|280:164,1,175.440001070801,4|10,1:0|0:2,0:0:0:0:
279,161,40338,1,8,0:0:0:0:
308,192,40417,1,8,0:0:0:0:
350,204,40497,1,8,0:0:0:0:
392,194,40577,1,8,0:0:0:0:
422,163,40657,1,8,0:0:0:0:
433,121,40736,1,8,0:0:0:0:
420,79,40816,1,8,0:0:0:0:
388,50,40896,1,8,0:0:0:0:
346,41,40976,1,8,0:0:0:0:
346,41,41295,6,0,B|252:66|252:66|207:55,1,131.580000803101,2|0,0:0|0:0,0:0:0:0:
118,55,41614,6,0,P|151:40|192:50,1,67.0799995905762,2|0,0:0|0:0,0:0:0:0:
199,144,41933,6,0,P|156:160|114:146,1,70.5200010760498,2|2,0:0|0:0,0:0:0:0:
360,172,42253,5,14,0:0:0:0:
180,44,42412,1,0,0:0:0:0:
219,232,42572,1,0,0:0:0:0:
445,133,42731,6,0,L|457:313,1,144.480001763672,12|0,0:0|2:0,0:0:0:0:
457,312,43050,1,0,0:0:0:0:
232,148,43210,6,0,B|147:134|179:203|52:161,1,144.480001763672,12|0,0:0|2:0,0:0:0:0:
53,157,43529,1,0,0:0:0:0:
327,121,43689,5,4,0:0:0:0:
217,231,43848,1,2,0:0:0:0:
240,58,44008,1,0,0:0:0:0:
354,216,44167,5,14,0:0:0:0:
129,185,44327,1,0,0:0:0:0:
331,86,44487,5,10,0:0:0:0:
199,313,44646,1,2,0:0:0:0:
63,102,44806,6,0,B|120:91|120:91|158:104|158:104|216:96,1,144.480001763672,14|0,0:0|2:0,0:0:0:0:
240,89,45125,1,0,0:0:0:0:
433,235,45284,6,0,P|361:195|275:218,1,144.480001763672,12|0,0:0|2:0,0:0:0:0:
271,223,45604,1,0,0:0:0:0:
401,31,45763,6,0,P|413:95|419:157,1,96.3200011757813,12|0,0:0|0:0,0:0:0:0:
350,283,46082,1,0,0:0:0:0:
325,91,46242,5,14,0:0:0:0:
246,241,46402,2,0,L|87:224,1,144.480001763672,2|0,0:0|2:0,0:0:0:0:
61,221,46721,5,10,0:0:0:0:
286,167,46880,1,0,1:0:0:0:
31,216,47040,5,10,0:0:0:0:
209,323,47199,1,2,0:0:0:0:
360,111,47359,6,0,B|411:230|310:191|369:326,1,192.640002351563,14|0,0:0|0:0,0:0:0:0:
280,167,47838,2,0,L|169:153,1,96.3200011757813,12|0,0:0|0:0,0:0:0:0:
224,242,48157,1,0,0:0:0:0:
360,111,48316,2,0,L|471:97,1,96.3200011757813,12|2,0:0|0:0,0:0:0:0:
512,219,48636,1,2,0:0:0:0:
427,18,48795,5,14,0:0:0:0:
411,190,48955,1,2,0:0:0:0:
304,39,49114,1,2,0:0:0:0:
279,242,49274,5,14,0:0:0:0:
455,98,49433,1,2,0:0:0:0:
197,59,49593,5,8,0:0:0:0:
411,190,49752,1,2,0:0:0:0:
143,163,49912,5,14,0:0:0:0:
278,126,50072,2,0,L|289:241,1,96.3200011757813,2|0,0:0|0:0,0:0:0:0:
106,83,50391,6,0,L|96:271,1,144.480001763672,12|0,0:0|2:0,0:0:0:0:
94,266,50710,1,0,0:0:0:0:
318,74,50870,6,0,L|328:262,1,144.480001763672,12|0,0:0|2:0,0:0:0:0:
327,256,51189,1,0,0:0:0:0:
415,96,51348,5,14,0:0:0:0:
232,161,51508,1,2,0:0:0:0:
318,214,51667,1,0,0:0:0:0:
175,77,51827,5,10,0:0:0:0:
145,114,51906,1,8,0:0:0:0:
136,161,51986,1,8,0:0:0:0:
150,207,52066,1,8,0:0:0:0:
177,247,52146,1,10,0:0:0:0:
198,290,52225,1,8,0:0:0:0:
204,337,52305,1,10,0:0:0:0:
189,383,52386,1,8,0:0:0:0:
133,338,52465,6,0,B|236:293|221:385|340:331,1,175.440001070801,6|8,1:2|0:0,0:0:0:0:
466,269,52944,2,0,P|406:275|277:231,1,175.440001070801,0|0,3:0|3:0,0:0:0:0:
196,83,53423,1,8,0:0:0:0:
327,166,53582,1,2,3:2:0:0:
129,150,53742,1,2,1:2:0:0:
293,79,53902,2,0,P|356:71|410:73,1,87.7200005354004,2|8,3:2|0:0,0:0:0:0:
178,69,54221,2,0,P|115:61|61:63,1,87.7200005354004,2|0,3:2|1:0,0:0:0:0:
352,160,54540,2,0,P|368:227|374:275,1,87.7200005354004,2|8,3:2|0:0,0:0:0:0:
127,165,54859,1,2,3:2:0:0:
373,72,55019,6,0,B|275:47|315:139|185:99,1,175.440001070801,4|8,1:0|0:0,0:0:0:0:
33,203,55497,2,0,P|101:190|156:187,1,87.7200005354004,2|0,3:2|1:0,0:0:0:0:
351,175,55816,1,2,3:2:0:0:
170,264,55976,1,8,0:0:0:0:
215,119,56136,1,2,3:2:0:0:
226,341,56295,5,0,1:0:0:0:
126,154,56455,1,0,3:0:0:0:
325,263,56614,2,0,P|402:249|433:236,1,87.7200005354004,8|0,0:0|3:0,0:0:0:0:
302,81,56933,1,0,1:0:0:0:
229,315,57093,1,0,3:0:0:0:
214,119,57253,2,0,P|241:179|248:218,1,87.7200005354004,8|0,0:0|0:0,0:0:0:0:
138,356,57572,5,0,1:0:0:0:
35,109,57731,2,0,B|95:97|95:97|137:121|137:121|231:107,1,170.279999480347,12|0,0:0|2:0,0:0:0:0:
239,103,58050,1,0,1:0:0:0:
443,279,58210,2,0,P|366:300|312:195,1,170.279999480347,12|0,0:0|2:0,0:0:0:0:
311,198,58529,1,0,1:0:0:0:
443,24,58689,2,0,B|455:158|455:158|416:128,1,170.279999480347,12|0,0:0|2:0,0:0:0:0:
181,84,59008,2,0,B|132:90,2,37.8399998845215,0|0|0,1:0|1:0|1:0,1:0:0:0:
71,117,59167,2,0,B|147:84|169:176|263:118,1,170.279999480347,8|0,0:0|2:0,0:0:0:0:
271,50,59487,6,0,P|305:78|321:147,1,105.780001614075,2|2,0:0|0:0,0:0:0:0:
267,211,59806,2,0,P|260:254|275:304,1,79.9799968269655,2|0,0:0|0:0,0:0:0:0:
344,353,60125,6,0,L|451:334,1,104.919995677429,6|0,0:0|0:0,0:0:0:0:
406,146,60444,1,10,0:0:0:0:
364,263,60604,1,0,0:0:0:0:
265,98,60763,1,2,0:0:0:0:
314,176,60923,1,0,0:0:0:0:
449,51,61082,2,0,B|387:47|387:47|351:71,1,104.919995677429,10|0,0:0|0:0,0:0:0:0:
216,195,61402,2,0,B|278:199|278:199|314:175,1,104.919995677429,2|0,0:0|0:0,0:0:0:0:
116,51,61721,2,0,B|177:147|71:153|140:267,1,209.839991354859,10|0,0:0|0:0,0:0:0:0:
50,112,62199,1,0,0:0:0:0:
216,195,62359,2,0,B|278:199|278:199|314:175,1,104.919995677429,10|0,0:0|0:0,0:0:0:0:
373,24,62678,5,2,0:0:0:0:
251,112,62838,1,0,0:0:0:0:
428,214,62997,1,10,0:0:0:0:
365,109,63157,1,0,0:0:0:0:
283,309,63316,1,2,0:0:0:0:
243,209,63476,1,0,0:0:0:0:
394,302,63636,2,0,P|454:304|495:286,1,104.919995677429,10|0,0:0|0:0,0:0:0:0:
276,129,63955,2,0,P|216:127|175:145,1,104.919995677429
106,298,64274,1,8,0:0:0:0:
106,298,64433,1,0,0:0:0:0:
116,68,64593,2,0,P|91:137|82:194,1,104.919995677429,2|0,0:0|0:0,0:0:0:0:
262,311,64912,2,0,P|249:236|235:183,1,104.919995677429,10|0,0:0|0:0,0:0:0:0:
369,49,65231,5,2,0:0:0:0:
330,235,65391,1,0,0:0:0:0:
184,90,65550,1,10,0:0:0:0:
313,119,65710,1,0,0:0:0:0:
146,287,65870,1,2,0:0:0:0:
214,171,66029,1,0,0:0:0:0:
350,331,66189,1,10,0:0:0:0:
238,277,66348,1,0,0:0:0:0:
408,140,66508,1,2,0:0:0:0:
459,263,66667,1,0,0:0:0:0:
328,100,66827,2,0,P|387:57|494:128,1,209.839991354859,10|0,0:0|0:0,0:0:0:0:
369,224,67306,1,0,0:0:0:0:
237,97,67465,2,0,P|168:88|111:95,1,104.919995677429,10|0,0:0|0:0,0:0:0:0:
251,294,67784,6,0,P|270:203|276:156,1,104.919995677429,2|0,0:0|0:0,0:0:0:0:
46,59,68104,2,0,P|52:125|67:192,1,104.919995677429,10|0,0:0|0:0,0:0:0:0:
237,97,68423,2,0,P|168:88|111:95,1,104.919995677429,2|0,0:0|0:0,0:0:0:0:
26,254,68742,2,0,P|108:240|154:202,1,104.919995677429,10|0,0:0|0:0,0:0:0:0:
237,97,69061,1,0,0:0:0:0:
59,162,69221,1,0,0:0:0:0:
230,309,69380,1,10,0:0:0:0:
194,178,69540,1,0,0:0:0:0:
140,357,69699,1,8,0:0:0:0:
191,350,69778,1,8,0:0:0:0:
243,343,69858,1,8,0:0:0:0:
295,336,69938,1,8,0:0:0:0:
346,328,70019,2,0,L|344:261,3,52.4599978387147,10|8|8|8,0:0|0:0|0:0|0:0,0:0:0:0:
434,309,70338,5,2,0:0:0:0:
264,240,70497,1,2,0:0:0:0:
390,91,70657,1,10,0:0:0:0:
417,217,70816,1,2,0:0:0:0:
184,200,70976,1,2,0:0:0:0:
327,162,71136,1,2,0:0:0:0:
232,342,71295,1,10,0:0:0:0:
246,103,71455,1,2,0:0:0:0:
378,304,71614,6,0,P|448:301|484:286,1,104.919995677429,2|0,0:0|0:0,0:0:0:0:
235,239,71933,2,0,P|344:274|423:202,1,209.839991354859,10|0,0:0|0:0,0:0:0:0:
370,68,72412,1,0,0:0:0:0:
317,185,72572,1,10,0:0:0:0:
317,185,72731,1,2,0:0:0:0:
132,149,72891,5,2,0:0:0:0:
253,83,73050,1,2,0:0:0:0:
158,264,73210,1,10,0:0:0:0:
34,125,73370,1,2,0:0:0:0:
222,174,73529,1,2,0:0:0:0:
107,40,73689,1,2,0:0:0:0:
52,228,73848,1,10,0:0:0:0:
194,80,74008,1,2,0:0:0:0:
154,278,74167,6,0,L|266:266,1,104.919995677429,2|0,0:0|0:0,0:0:0:0:
1,190,74487,2,0,B|51:229|51:229|198:179,1,209.839991354859,10|0,0:0|0:0,0:0:0:0:
256,117,74965,1,0,0:0:0:0:
68,138,75125,2,0,L|173:101,1,104.919995677429,8|0,0:0|0:0,0:0:0:0:
312,203,75444,6,0,P|227:212|186:175,1,104.919995677429,8|2,0:0|0:0,0:0:0:0:
263,104,75763,1,2,0:0:0:0:
357,296,75923,1,10,0:0:0:0:
442,128,76082,2,0,P|379:124|319:187,1,131.580000803101,10|0,0:0|2:0,0:0:0:0:
188,127,76402,6,0,P|273:110|331:179,1,170.279999480347,14|0,0:0|2:0,0:0:0:0:
276,253,76721,6,0,P|215:253|179:216,1,104.919995677429,4|2,0:0|0:0,0:0:0:0:
151,128,77040,1,2,0:0:0:0:
130,315,77199,1,2,0:0:0:0:
71,90,77359,2,0,L|228:71,1,131.580000803101,10|0,0:0|0:0,0:0:0:0:
300,143,77678,6,0,P|233:102|137:143,1,170.279999480347,14|0,0:0|0:0,0:0:0:0:
260,224,77997,6,0,B|349:270|340:168|476:239,1,192.640002351563,4|2,0:0|0:0,0:0:0:0:
389,301,78476,1,2,0:0:0:0:
300,143,78636,2,0,P|237:133|195:161,1,96.3200011757813,2|0,0:0|0:0,0:0:0:0:
400,56,78955,2,0,P|463:46|505:74,1,96.3200011757813,2|0,0:0|0:0,0:0:0:0:
259,44,79274,1,2,0:0:0:0:
445,130,79433,1,0,0:0:0:0:
260,220,79593,1,2,0:0:0:0:
348,88,79753,1,0,0:0:0:0:
306,298,79912,1,2,0:0:0:0:
261,314,79991,1,0,0:0:0:0:
214,305,80071,1,0,0:0:0:0:
179,273,80151,1,0,0:0:0:0:
167,227,80231,2,0,P|169:171|169:159,1,48.1600005878906,2|0,0:0|0:0,0:0:0:0:
55,86,80391,2,0,P|55:110|56:134,1,48.1600005878906,2|0,0:0|0:0,0:0:0:0:
15,232,80550,6,0,P|76:150|170:287,1,313.039998089355,4|0,1:0|0:0,0:0:0:0:
254,81,81827,1,8,3:0:0:0:
277,331,82146,5,4,3:0:0:0:
254,81,82306,1,4,3:0:0:0:
425,275,82625,5,0,1:0:0:0:
179,272,82784,2,0,P|214:249|270:236,1,92.8800022675782,8|0,0:0|0:0,0:0:0:0:
311,246,83090,5,12,0:0:0:0:
215,77,83249,1,0,0:0:0:0:
161,293,83409,1,0,0:0:0:0:
360,170,83568,5,8,0:0:0:0:
133,107,83728,1,0,0:0:0:0:
253,328,83887,1,0,0:0:0:0:
317,79,84047,5,8,0:0:0:0:
100,231,84207,1,0,0:0:0:0:
339,268,84366,1,0,0:0:0:0:
224,52,84526,6,0,P|216:120|219:178,2,96.3200011757813,12|0|0,0:0|0:0|0:0,0:0:0:0:
253,288,85004,1,8,0:0:0:0:
308,67,85164,1,0,0:0:0:0:
164,294,85324,1,8,0:0:0:0:
142,75,85483,1,0,0:0:0:0:
326,224,85643,5,12,0:0:0:0:
91,251,85802,1,0,0:0:0:0:
233,80,85962,1,0,0:0:0:0:
243,329,86121,1,8,0:0:0:0:
116,159,86281,1,0,0:0:0:0:
330,85,86441,1,0,0:0:0:0:
143,323,86600,1,8,0:0:0:0:
203,189,86760,1,0,0:0:0:0:
203,189,86919,1,0,0:0:0:0:
394,300,87079,5,8,0:0:0:0:
226,273,87238,1,0,0:0:0:0:
414,65,87398,1,8,0:0:0:0:
306,287,87558,1,8,0:0:0:0:
177,104,87717,1,8,0:0:0:0:
402,215,87877,1,8,0:0:0:0:
114,166,88036,6,0,B|199:134|209:210|322:158,1,197.799993359986,4|0,1:0|0:0,0:0:0:0:
377,108,88515,6,0,P|344:123|228:80,1,156.519999044678,2|0,3:0|0:0,0:0:0:0:
314,38,89153,5,8,0:0:0:0:
299,280,89313,1,8,0:0:0:0:
