osu file format v14

[General]
AudioFilename: audio.mp3
AudioLeadIn: 0
PreviewTime: 41252
Countdown: 0
SampleSet: Soft
StackLeniency: 0.7
Mode: 0
LetterboxInBreaks: 0
WidescreenStoryboard: 1

[Editor]
Bookmarks: 1439,11651,21864,32077,42290,52502,57609,60162,70375,75481,80587,83141,83589,88087,89364
DistanceSpacing: 1
BeatDivisor: 4
GridSize: 32
TimelineZoom: 1.3

[Metadata]
Title:STORY (TV Size)
TitleUnicode:STORY (TV Size)
Artist:Kensho Ono
ArtistUnicode:小野賢章
Creator:Xexxar
Version:Normal
Source:ラクエンロジック
Tags:luck & logic anime xr a_r_m_i_n armin sotarks syph borborygmos akitoshi Hobbes2 and milkshake _83
BeatmapID:1280166
BeatmapSetID:598357

[Difficulty]
HPDrainRate:3
CircleSize:2.7
OverallDifficulty:3.5
ApproachRate:4.4
SliderMultiplier:0.9
SliderTickRate:1

[Events]
//Background and Video events
0,0,"30042-Luck_and_Logic-PC.jpg",0,0
Video,208,"outm.avi"
//Break Periods
//Storyboard Layer 0 (Background)
//Storyboard Layer 1 (Fail)
//Storyboard Layer 2 (Pass)
//Storyboard Layer 3 (Foreground)
//Storyboard Sound Samples

[TimingPoints]
1402,319.148936170213,4,2,1,75,1,0
6508,-100,4,1,1,75,0,0
22146,-100,4,2,1,55,0,0
32040,-100,4,1,1,65,0,0
42253,-100,4,1,1,75,0,0
52465,-100,4,1,1,70,0,0
57572,-100,4,1,1,80,0,0
60125,-90.9090909090909,4,1,1,87,0,1
75125,-90.9090909090909,4,1,1,87,0,0
75444,-90.9090909090909,4,1,1,87,0,1
80550,-90.9090909090909,4,1,1,75,0,0
83090,319.148936170213,4,1,1,90,1,0

[Colours]
Combo1 : 192,130,255
Combo2 : 92,162,245
Combo3 : 255,255,108
Combo4 : 255,145,200
SliderTrackOverride : 35,35,35
SliderBorder : 255,255,255

[HitObjects]
324,282,1402,6,0,B|388:304|388:304|457:300,2,135,2|2|2,0:0|0:0|0:0,0:0:0:0:
288,199,2678,2,0,P|290:158|314:105,2,90,0|0|2,0:0|0:0|0:0,0:0:0:0:
234,271,3636,1,0,0:0:0:0:
179,342,3955,6,0,L|41:347,2,135,2|2|2,0:0|0:0|0:0,0:0:0:0:
267,355,5231,2,0,L|364:352,2,90,0|0|2,0:0|0:0|0:0,0:0:0:0:
234,271,6189,1,8,1:0:0:0:
202,186,6508,6,0,P|192:140|206:91,1,90,4|0,1:2|1:0,0:0:0:0:
277,49,7146,2,0,L|378:46,1,90,0|0,1:0|1:0,0:0:0:0:
448,83,7784,2,0,P|465:124|463:168,1,90,0|0,1:0|1:0,0:0:0:0:
405,238,8423,2,0,L|315:240,1,90,0|0,1:0|1:0,0:0:0:0:
256,172,9061,5,4,1:0:0:0:
256,192,9221,12,10,10338,1:0:0:0:
80,67,11614,6,0,P|71:135|90:171,1,90,12|8,0:0|0:3,0:0:0:0:
114,179,12093,2,0,L|216:186,1,90,12|8,0:0|0:3,0:0:0:0:
242,208,12572,2,0,P|256:238|252:298,1,90,12|0,0:0|0:0,0:0:0:0:
227,330,13050,2,0,L|125:323,1,90,12|8,0:0|0:3,0:0:0:0:
98,346,13529,2,0,L|8:339,1,90,14|14,0:1|0:1,0:0:0:0:
50,249,14167,6,0,P|63:200|54:146,1,90,12|8,0:0|0:3,0:0:0:0:
44,118,14646,2,0,P|36:81|48:26,1,90,12|8,0:0|0:3,0:0:0:0:
83,4,15125,2,0,L|186:0,1,90,12|0,0:0|0:0,0:0:0:0:
212,21,15604,2,0,P|231:84|219:118,1,90,8|8,0:0|0:3,0:0:0:0:
215,149,16082,2,0,P|216:208|230:237,1,90,10|12,0:1|0:1,0:0:0:0:
308,293,16721,6,0,L|401:291,1,90,12|8,0:0|0:3,0:0:0:0:
435,266,17199,2,0,P|448:222|434:161,1,90,12|8,0:0|0:3,0:0:0:0:
403,155,17678,2,0,L|313:156,1,90,12|0,0:0|0:0,0:0:0:0:
273,134,18157,2,0,P|257:92|269:34,1,90,12|8,0:0|0:3,0:0:0:0:
297,19,18636,2,0,L|386:17,1,90,14|14,0:1|0:1,0:0:0:0:
485,23,19274,6,0,P|496:73|492:127,1,90,12|8,0:0|0:3,0:0:0:0:
472,150,19753,2,0,P|466:189|478:245,1,90,12|8,0:0|0:3,0:0:0:0:
503,273,20231,2,0,P|513:320|504:369,1,90,12|8,0:0|0:3,0:0:0:0:
464,377,20710,2,0,L|358:380,1,90,12|2,0:0|1:2,0:0:0:0:
331,363,21189,6,0,B|303:324|318:278|318:278|337:230|300:172,1,180,8|12,0:0|1:0,0:0:0:0:
249,124,22146,2,0,P|236:80|251:23,1,90,0|0,0:0|0:0,0:0:0:0:
159,5,22784,2,0,L|53:10,1,90,2|0,0:0|0:0,0:0:0:0:
4,71,23423,2,0,P|-8:123|8:177,2,90,0|2|0,0:0|0:0|3:0,0:0:0:0:
90,96,24380,6,0,L|237:90,2,135,2|2|2,1:2|0:0|0:0,0:0:0:0:
82,185,25657,2,0,L|84:293,2,90,0|0|2,3:0|3:0|0:2,0:0:0:0:
171,181,26614,1,12,1:1:0:0:
260,176,26933,6,0,L|363:170,1,90,2|2,1:2|1:2,0:0:0:0:
432,207,27572,2,0,P|448:258|444:307,1,90,2|0,1:2|1:0,0:0:0:0:
373,346,28210,2,0,L|278:353,1,90,0|2,1:0|1:2,0:0:0:0:
202,312,28848,2,0,L|97:318,1,90,2|0,1:2|1:2,0:0:0:0:
38,264,29487,6,0,P|20:205|32:128,2,135,4|0|0,1:0|0:0|1:0,0:0:0:0:
29,353,30763,1,0,1:0:0:0:
112,317,31082,1,2,1:2:0:0:
190,273,31402,2,0,L|294:272,1,90,8|8,1:0|1:0,0:0:0:0:
352,219,32040,6,0,P|371:152|350:76,2,135,14|2|10,0:0|0:2|0:0,0:0:0:0:
360,308,33316,2,0,P|400:323|459:315,1,90,0|8,1:0|0:0,0:0:0:0:
499,246,33955,2,0,L|499:151,1,90,8|8,0:3|0:0,0:0:0:0:
469,71,34593,6,0,B|417:37|417:37|337:37,2,135,2|2|10,0:0|0:2|0:0,0:0:0:0:
413,142,35870,2,0,L|303:143,1,90,0|8,0:0|0:0,0:0:0:0:
261,208,36508,2,0,L|264:318,1,90,2|8,0:2|0:0,0:0:0:0:
208,369,37146,5,6,0:0:0:0:
118,372,37465,1,10,0:1:0:0:
64,297,37784,2,0,L|61:193,1,90,2|10,1:2|1:1,0:0:0:0:
107,129,38423,1,6,0:0:0:0:
105,39,38742,1,10,0:1:0:0:
188,1,39061,2,0,L|287:4,1,90,2|8,1:2|0:0,0:0:0:0:
353,53,39699,6,0,P|364:99|352:150,1,90,6|8,0:0|0:0,0:0:0:0:
304,213,40338,2,0,P|284:293|313:387,1,180,8|8,0:0|0:0,0:0:0:0:
85,319,42253,6,0,L|80:212,1,90,12|8,0:0|0:3,0:0:0:0:
107,192,42731,2,0,P|155:175|205:182,1,90,12|8,0:0|0:3,0:0:0:0:
235,194,43210,2,0,P|280:204|335:192,1,90,12|0,0:0|0:0,0:0:0:0:
360,171,43689,2,0,L|356:66,1,90,12|8,0:0|0:3,0:0:0:0:
381,44,44167,2,0,P|425:34|482:46,1,90,14|14,0:1|0:1,0:0:0:0:
507,131,44806,6,0,L|511:232,1,90,12|8,0:0|0:3,0:0:0:0:
493,262,45284,2,0,P|447:274|396:264,1,90,12|8,0:0|0:3,0:0:0:0:
361,258,45763,2,0,P|305:254|259:264,1,90,12|0,0:0|0:0,0:0:0:0:
229,243,46242,2,0,P|216:207|224:137,1,90,8|8,0:0|0:3,0:0:0:0:
239,116,46721,2,0,P|242:68|231:16,1,90,10|12,0:1|0:1,0:0:0:0:
138,4,47359,6,0,L|36:8,1,90,12|8,0:0|0:3,0:0:0:0:
11,33,47838,2,0,P|3:67|15:133,1,90,12|8,0:0|0:3,0:0:0:0:
42,151,48316,2,0,P|56:205|45:252,1,90,12|2,0:0|0:2,0:0:0:0:
35,280,48795,2,0,P|32:345|47:377,1,90,14|0,0:0|0:0,0:0:0:0:
83,383,49274,2,0,L|173:379,1,90,14|14,0:1|0:1,0:0:0:0:
244,310,49912,6,0,L|239:205,1,90,12|8,0:0|0:3,0:0:0:0:
265,182,50391,2,0,P|308:166|366:183,1,90,12|8,0:0|0:3,0:0:0:0:
392,190,50870,2,0,P|437:200|487:181,1,90,12|8,0:0|0:3,0:0:0:0:
504,150,51348,2,0,L|499:55,1,90,14|2,0:0|1:2,0:0:0:0:
465,30,51827,6,0,B|404:21|404:21|350:40|350:40|271:28,1,180,8|14,0:0|0:0,0:0:0:0:
200,16,52784,2,0,P|153:12|100:25,1,90,8|0,0:0|0:0,0:0:0:0:
44,81,53423,1,8,0:0:0:0:
44,170,53742,2,0,L|47:264,1,90,4|8,0:0|0:0,0:0:0:0:
105,328,54380,2,0,P|155:335|201:322,1,90,0|8,0:0|0:0,0:0:0:0:
262,268,55019,6,0,L|259:172,1,90,4|8,0:0|0:0,0:0:0:0:
312,105,55657,2,0,P|364:89|413:100,1,90,0|8,0:0|0:0,0:0:0:0:
471,146,56295,2,0,L|478:244,1,90,6|8,0:0|0:0,0:0:0:0:
481,325,56933,1,0,0:0:0:0:
396,356,57253,2,0,P|349:366|298:360,1,90,8|8,0:0|3:0,0:0:0:0:
263,339,57731,6,0,L|256:232,1,90,12|8,0:0|3:3,0:0:0:0:
240,202,58210,2,0,P|233:156|244:100,1,90,12|8,0:0|3:0,0:0:0:0:
274,78,58689,2,0,L|371:73,1,90,12|0,0:0|3:0,0:0:0:0:
400,40,59167,1,14,0:0:0:0:
95,264,60125,6,0,L|89:151,1,99.0000030212403,6|10,0:0|0:0,0:0:0:0:
136,77,60763,2,0,P|186:62|250:73,1,99.0000030212403,2|10,0:2|0:0,0:0:0:0:
324,101,61402,1,2,0:2:0:0:
418,131,61721,2,0,L|424:242,1,99.0000030212403,10|0,0:0|0:2,0:0:0:0:
477,312,62359,1,10,0:0:0:0:
378,319,62678,6,0,P|323:328|274:319,1,99.0000030212403,6|10,0:0|0:0,0:0:0:0:
205,256,63316,2,0,L|202:151,1,99.0000030212403,2|10,0:2|0:0,0:0:0:0:
117,105,63955,2,0,P|106:63|115:7,2,99.0000030212403,6|8|6,0:0|0:0|0:0,0:0:0:0:
112,203,64912,1,10,0:0:0:0:
106,301,65231,6,0,P|154:313|217:306,1,99.0000030212403,6|10,0:0|0:0,0:0:0:0:
292,266,65870,2,0,L|402:274,1,99.0000030212403,2|10,0:2|0:0,0:0:0:0:
454,197,66508,1,2,0:2:0:0:
407,109,66827,2,0,L|286:98,1,99.0000030212403,10|0,0:0|0:2,0:0:0:0:
235,33,67465,1,10,0:0:0:0:
215,130,67784,6,0,P|153:151|117:149,1,99.0000030212403,6|10,0:0|0:0,0:0:0:0:
21,135,68423,2,0,L|26:239,1,99.0000030212403,2|10,0:2|0:0,0:0:0:0:
93,305,69061,2,0,P|139:313|210:301,1,99.0000030212403,6|8,0:0|0:0,0:0:0:0:
265,243,69699,6,0,B|240:148|240:148|260:43,1,198.000006042481,8|6,0:0|0:0,0:0:0:0:
357,43,70657,1,10,0:0:0:0:
455,40,70976,1,2,0:0:0:0:
409,127,71295,1,10,0:0:0:0:
444,219,71614,1,6,0:0:0:0:
398,306,71933,6,0,B|301:330|301:330|196:313,1,198.000006042481,10|10,0:0|0:0,0:0:0:0:
106,295,72891,1,6,0:0:0:0:
8,279,73210,1,10,0:0:0:0:
70,202,73529,1,2,0:0:0:0:
35,109,73848,1,10,0:0:0:0:
97,31,74167,1,6,0:0:0:0:
131,124,74487,6,0,P|180:136|242:129,1,99.0000030212403,10|0,0:0|0:0,0:0:0:0:
302,67,75125,1,8,0:0:0:0:
324,163,75444,6,0,L|328:314,2,148.50000453186,12|12|14,0:0|0:0|0:0,0:0:0:0:
417,128,76721,2,0,L|421:279,2,148.50000453186,12|12|14,0:0|0:0|0:0,0:0:0:0:
340,65,77997,5,4,0:0:0:0:
256,12,78316,2,0,L|138:17,1,99.0000030212403,10|4,0:0|0:0,0:0:0:0:
58,22,78955,1,10,0:0:0:0:
113,104,79274,2,0,P|128:162|112:218,1,99.0000030212403,14|4,0:0|0:0,0:0:0:0:
164,288,79912,6,0,P|254:333|361:304,1,198.000006042481,8|12,0:0|0:0,0:0:0:0:
463,169,81827,6,0,L|471:8,2,148.50000453186,8|8|8,3:3|3:3|1:1,0:0:0:0:
401,241,83090,6,0,P|354:251|302:238,1,90,12|2,0:0|1:2,0:0:0:0:
269,235,83568,2,0,P|210:234|172:253,1,90,12|2,0:0|1:2,0:0:0:0:
148,275,84047,2,0,P|100:290|47:277,1,90,12|8,0:0|0:3,0:0:0:0:
23,260,84526,2,0,L|19:168,1,90,8|8,0:0|0:3,0:0:0:0:
45,133,85004,2,0,L|41:26,1,90,10|10,0:0|0:0,0:0:0:0:
135,76,85643,6,0,P|178:81|240:66,1,90,12|2,0:0|1:2,0:0:0:0:
264,45,86121,2,0,P|308:36|359:41,1,90,12|2,0:0|1:2,0:0:0:0:
394,66,86600,2,0,L|400:170,1,90,12|8,0:0|0:3,0:0:0:0:
428,195,87079,2,0,L|434:303,1,90,8|8,0:0|0:0,0:0:0:0:
407,327,87558,2,0,P|365:342|302:331,1,90,8|8,0:0|0:0,0:0:0:0:
274,319,88036,5,12,0:0:0:0:
256,192,88196,12,10,89153,0:0:0:0:
