osu file format v14

[General]
AudioFilename: audio.mp3
AudioLeadIn: 0
PreviewTime: 41252
Countdown: 0
SampleSet: Soft
StackLeniency: 0.8
Mode: 0
LetterboxInBreaks: 0
WidescreenStoryboard: 1

[Editor]
Bookmarks: 1439,11651,21864,32077,42290,52502,57609,60162,70375,75481,80587,83141,83589,88087,89364
DistanceSpacing: 1.3
BeatDivisor: 4
GridSize: 32
TimelineZoom: 1.3

[Metadata]
Title:STORY (TV Size)
TitleUnicode:STORY (TV Size)
Artist:Kensho Ono
ArtistUnicode:小野賢章
Creator:Xexxar
Version:Hobbes2's Advanced
Source:ラクエンロジック
Tags:luck & logic anime xr a_r_m_i_n armin sotarks syph borborygmos akitoshi Hobbes2 and milkshake _83
BeatmapID:1300077
BeatmapSetID:598357

[Difficulty]
HPDrainRate:5
CircleSize:3
OverallDifficulty:5
ApproachRate:6
SliderMultiplier:1.2
SliderTickRate:1

[Events]
//Background and Video events
0,0,"30042-Luck_and_Logic-PC.jpg",0,0
Video,208,"outm.avi"
//Break Periods
//Storyboard Layer 0 (Background)
//Storyboard Layer 1 (Fail)
//Storyboard Layer 2 (Pass)
//Storyboard Layer 3 (Foreground)
//Storyboard Sound Samples

[TimingPoints]
1402,319.148936170213,4,2,1,75,1,0
1402,-125,4,2,1,75,0,0
6508,-111.111111111111,4,2,1,75,0,0
9061,-100,4,2,1,75,0,0
11614,-100,4,1,1,75,0,0
11854,-100,4,1,1,5,0,0
11933,-100,4,1,1,75,0,0
12332,-100,4,1,1,5,0,0
12412,-100,4,1,1,75,0,0
12811,-100,4,1,1,5,0,0
12891,-100,4,1,1,75,0,0
14407,-100,4,1,1,5,0,0
14487,-100,4,1,1,75,0,0
14886,-100,4,1,1,5,0,0
14965,-100,4,1,1,75,0,0
15364,-100,4,1,1,5,0,0
15444,-100,4,1,1,75,0,0
16960,-100,4,1,1,5,0,0
17040,-100,4,1,1,75,0,0
17439,-100,4,1,1,5,0,0
17519,-100,4,1,1,75,0,0
17917,-100,4,1,1,5,0,0
17997,-100,4,1,1,75,0,0
19513,-100,4,1,1,5,0,0
19593,-100,4,1,1,75,0,0
19992,-100,4,1,1,5,0,0
20072,-100,4,1,1,75,0,0
20471,-100,4,1,1,5,0,0
20550,-100,4,1,1,75,0,0
21827,-125,4,2,1,75,0,0
22465,-125,4,2,1,55,0,0
32040,-111.111111111111,4,1,1,65,0,0
40338,-100,4,1,1,65,0,0
42253,-100,4,1,1,75,0,0
42492,-100,4,1,1,5,0,0
42572,-100,4,1,1,75,0,0
42971,-100,4,1,1,5,0,0
43050,-100,4,1,1,75,0,0
43449,-100,4,1,1,5,0,0
43529,-100,4,1,1,75,0,0
45045,-100,4,1,1,5,0,0
45125,-100,4,1,1,75,0,0
45524,-100,4,1,1,5,0,0
45604,-100,4,1,1,75,0,0
46003,-100,4,1,1,5,0,0
46082,-100,4,1,1,75,0,0
47598,-100,4,1,1,5,0,0
47678,-100,4,1,1,75,0,0
48077,-100,4,1,1,5,0,0
48157,-100,4,1,1,75,0,0
50152,-100,4,1,1,5,0,0
50231,-100,4,1,1,75,0,0
50630,-100,4,1,1,5,0,0
50710,-100,4,1,1,75,0,0
51109,-100,4,1,1,5,0,0
51189,-100,4,1,1,75,0,0
52465,-100,4,1,1,70,0,0
57572,-100,4,1,1,80,0,0
57971,-100,4,1,1,5,0,0
58050,-100,4,1,1,80,0,0
58449,-100,4,1,1,5,0,0
58529,-100,4,1,1,80,0,0
58928,-100,4,1,1,5,0,0
59008,-100,4,1,1,80,0,0
60125,-83.3333333333333,4,1,1,87,0,1
75125,-90.9090909090909,4,1,1,87,0,0
75444,-90.9090909090909,4,1,1,87,0,1
80550,-90.9090909090909,4,1,1,75,0,0
83090,319.148936170213,4,1,1,90,1,0

[Colours]
Combo1 : 192,130,255
Combo2 : 92,162,245
Combo3 : 255,255,108
Combo4 : 255,145,200
SliderTrackOverride : 35,35,35
SliderBorder : 255,255,255

[HitObjects]
491,313,1402,6,0,P|446:327|399:320,1,96,2|0,0:0|0:0,0:0:0:0:
342,294,1880,2,0,P|294:287|249:301,1,96,2|0,0:0|0:0,0:0:0:0:
195,333,2359,1,2,0:0:0:0:
95,255,2678,2,0,P|98:208|96:160,1,96,0|0,0:0|0:0,0:0:0:0:
207,102,3316,2,0,P|204:149|206:197,1,96,2|0,0:0|0:0,0:0:0:0:
266,217,3795,1,0,0:0:0:0:
326,201,3955,6,0,B|375:214|375:214|477:176|477:176,2,144,2|2|2,0:0|0:0|0:0,0:0:0:0:
215,259,5231,2,0,P|165:255|104:239,1,96,0|0,0:0|0:0,0:0:0:0:
58,137,5870,2,0,P|56:83|61:62,1,48,2|2,0:0|0:0,0:0:0:0:
86,35,6189,1,8,1:0:0:0:
251,1,6508,6,0,L|380:19,1,107.999996704102,4|0,1:2|1:0,0:0:0:0:
443,140,7146,2,0,L|327:154,1,107.999996704102,0|0,1:0|1:0,0:0:0:0:
186,130,7784,2,0,L|164:264,1,107.999996704102,0|0,1:0|1:0,0:0:0:0:
42,319,8422,2,0,L|25:203,1,107.999996704102,0|0,1:0|1:0,0:0:0:0:
46,63,9061,5,4,1:0:0:0:
46,63,9380,2,0,P|82:89|107:123,1,60,8|8,1:0|1:0,0:0:0:0:
175,114,9699,2,0,P|179:159|196:197,1,60,8|8,1:0|1:0,0:0:0:0:
155,252,10019,2,0,P|191:278|216:312,1,60,8|8,1:0|1:0,0:0:0:0:
283,303,10338,5,10,1:0:0:0:
283,303,11614,6,0,L|191:164,1,120,12|8,0:0|0:3,0:0:0:0:
230,119,12093,2,0,P|172:131|136:177,1,120,12|8,0:0|0:3,0:0:0:0:
155,259,12572,2,0,P|96:250|57:207,1,120,12|0,0:0|0:0,0:0:0:0:
69,124,13050,2,0,P|70:76|61:38,2,60,12|0|8,0:0|0:3|0:3,0:0:0:0:
57,207,13529,1,14,0:1:0:0:
6,366,13848,1,14,0:1:0:0:
173,350,14167,6,0,B|297:351,1,120,12|8,0:0|0:3,0:0:0:0:
357,296,14646,2,0,P|379:213|350:150,1,120,12|8,0:0|0:3,0:0:0:0:
290,154,15125,2,0,P|268:209|277:268,1,120,12|0,0:0|0:0,0:0:0:0:
357,296,15604,2,0,P|372:322|375:361,2,60,12|2|8,0:0|0:2|0:3,0:0:0:0:
292,351,16082,1,10,0:1:0:0:
155,252,16402,1,12,0:1:0:0:
292,152,16721,6,0,P|329:97|354:35,1,120,12|8,0:0|0:3,0:0:0:0:
433,56,17199,2,0,P|462:116|504:168,1,120,12|8,0:0|0:3,0:0:0:0:
446,226,17678,2,0,P|379:221|312:231,1,120,12|0,0:0|0:0,0:0:0:0:
266,287,18157,2,0,P|270:321|271:351,2,60,12|0|8,0:0|0:3|0:3,0:0:0:0:
198,236,18636,1,14,0:1:0:0:
269,84,18955,1,14,0:1:0:0:
125,173,19274,6,0,P|104:227|117:285,1,120,12|8,0:0|0:3,0:0:0:0:
189,348,19753,2,0,P|210:293|197:235,1,120,12|8,0:0|0:3,0:0:0:0:
125,173,20231,2,0,P|111:115|132:59,1,120,12|8,0:0|0:3,0:0:0:0:
214,37,20710,2,0,P|283:30|304:38,2,60,12|2|2,0:0|1:2|1:2,0:0:0:0:
131,60,21189,2,0,L|43:68,1,60,8|8,0:0|0:0,0:0:0:0:
0,109,21508,2,0,P|-2:139|0:169,1,60,8|8,0:0|0:0,0:0:0:0:
31,247,21827,6,0,P|21:302|110:360,2,144,12|2|2,1:0|0:0|0:0,0:0:0:0:
143,192,23104,2,0,P|215:189|271:193,1,96,0|0,0:0|0:0,0:0:0:0:
360,216,23742,1,2,0:0:0:0:
360,216,23902,2,0,P|407:217|455:214,1,96,12|12,1:1|1:1,0:0:0:0:
468,153,24380,6,0,B|468:101|468:101|503:9,2,144,2|2|2,1:2|0:0|0:0,0:0:0:0:
470,278,25657,1,0,3:0:0:0:
470,278,25816,2,0,P|414:289|372:315,1,96,0|0,3:0|3:0,0:0:0:0:
329,344,26295,2,0,P|259:330|256:330,1,48,2|2,0:2|0:0,0:0:0:0:
220,332,26614,2,0,P|196:327|173:319,1,48,12|2,1:1|0:0,0:0:0:0:
111,327,26933,6,0,P|128:248|109:193,1,96,2|2,1:2|1:2,0:0:0:0:
93,180,27412,1,2,0:0:0:0:
93,180,27572,2,0,P|94:122|93:118,1,48,2|2,1:2|0:0,0:0:0:0:
198,62,28050,2,0,L|264:165,1,96,2|2,0:0|0:0,0:0:0:0:
288,192,28529,2,0,P|284:232|275:258,2,48,2|2|2,1:2|0:0|1:2,0:0:0:0:
349,201,29008,2,0,L|373:89,1,96,8|12,1:0|1:0,0:0:0:0:
384,46,29487,6,0,B|420:31|420:31|460:77|459:136,2,144,4|0|0,1:0|0:0|1:0,0:0:0:0:
288,125,30763,2,0,P|226:130|224:130,1,48,0|8,1:0|1:3,0:0:0:0:
178,126,31082,1,2,1:2:0:0:
70,193,31402,2,0,P|72:238|80:252,1,48,8|8,1:0|1:0,0:0:0:0:
130,264,31721,2,0,P|128:309|120:323,1,48,8|8,1:0|1:0,0:0:0:0:
70,334,32040,6,0,P|121:349|172:367,1,107.999996704102,14|8,0:0|1:0,0:0:0:0:
249,347,32519,2,0,P|300:329|351:314,1,107.999996704102,2|0,0:2|2:0,0:0:0:0:
429,300,32997,1,10,0:0:0:0:
483,151,33316,2,0,P|470:70|446:24,1,107.999996704102,0|8,1:0|0:0,0:0:0:0:
383,22,33795,1,2,2:2:0:0:
383,22,33955,2,0,P|313:29|310:28,1,53.9999983520508,8|2,0:3|2:2,0:0:0:0:
252,16,34274,1,8,0:0:0:0:
108,83,34593,6,0,B|117:125|88:158|88:158|133:188|121:248,2,161.999995056153,2|2|10,0:0|0:2|0:0,0:0:0:0:
241,170,35870,2,0,P|302:191|372:196,1,107.999996704102,0|8,0:0|0:0,0:0:0:0:
409,150,36348,1,2,2:2:0:0:
409,150,36508,2,0,P|461:133|469:126,2,53.9999983520508,2|2|8,0:2|2:2|0:0,0:0:0:0:
290,44,37146,6,0,L|168:48,1,107.999996704102,6|10,0:0|0:1,0:0:0:0:
112,86,37625,1,2,2:0:0:0:
158,150,37784,2,0,P|164:187|165:211,1,53.9999983520508,2|2,1:2|2:0,0:0:0:0:
118,267,38104,1,10,1:1:0:0:
271,306,38423,2,0,P|279:364|282:372,2,53.9999983520508,6|2|10,0:0|2:2|0:1,0:0:0:0:
310,236,38902,1,2,2:0:0:0:
349,166,39061,2,0,P|341:108|338:100,2,53.9999983520508,2|2|8,1:2|2:0|0:0,0:0:0:0:
271,306,39699,6,0,L|130:290,1,107.999996704102,6|8,0:0|0:0,0:0:0:0:
54,206,40338,2,0,P|55:151|61:129,1,60,8|8,0:0|0:0,0:0:0:0:
110,82,40657,2,0,P|139:78|169:80,1,60,10|8,0:0|0:0,0:0:0:0:
240,140,40976,1,8,0:0:0:0:
240,140,42253,6,0,B|217:182|217:182|242:210|241:248,1,120,12|8,0:0|0:3,0:0:0:0:
189,313,42731,2,0,P|250:330|306:303,1,120,12|8,0:0|0:3,0:0:0:0:
323,228,43210,2,0,P|377:206|433:224,1,120,12|0,0:0|0:0,0:0:0:0:
467,301,43689,2,0,P|467:356|465:371,2,60,12|0|8,0:0|0:3|0:3,0:0:0:0:
433,224,44167,1,14,0:1:0:0:
496,67,44487,1,14,0:1:0:0:
331,35,44806,6,0,P|250:58|214:86,1,120,12|8,0:0|0:3,0:0:0:0:
241,160,45284,2,0,P|190:128|131:116,1,120,12|8,0:0|0:3,0:0:0:0:
69,59,45763,2,0,L|80:178,1,120,12|0,0:0|0:0,0:0:0:0:
59,259,46242,1,8,0:0:0:0:
59,259,46402,2,0,P|90:301|101:328,1,60,2|8,0:2|0:3,0:0:0:0:
145,374,46721,1,10,0:1:0:0:
291,291,47040,1,12,0:1:0:0:
293,124,47359,6,0,P|321:30|340:1,1,120,12|8,0:0|0:3,0:0:0:0:
409,45,47838,2,0,P|435:98|448:157,1,120,12|8,0:0|0:3,0:0:0:0:
378,201,48316,2,0,L|371:340,1,120,12|2,0:0|0:2,0:0:0:0:
293,351,48795,2,0,P|225:361|221:364,2,60,14|2|0,0:0|0:2|0:0,0:0:0:0:
372,320,49274,1,14,0:1:0:0:
495,205,49593,1,14,0:1:0:0:
341,137,49912,6,0,L|215:139,1,120,12|8,0:0|0:3,0:0:0:0:
220,223,50391,2,0,L|339:221,1,120,12|8,0:0|0:3,0:0:0:0:
338,305,50870,2,0,L|219:307,1,120,12|8,0:0|0:3,0:0:0:0:
146,263,51348,1,14,0:0:0:0:
144,178,51508,2,0,P|169:152|197:139,1,60,2|2,1:2|1:2,0:0:0:0:
273,127,51827,2,0,L|290:45,1,60,8|8,0:0|0:0,0:0:0:0:
368,58,52146,2,0,L|385:-24,1,60,8|8,0:0|0:0,0:0:0:0:
463,9,52465,6,0,P|496:76|488:131,1,120,14|8,0:0|0:0,0:0:0:0:
431,178,52944,2,0,L|432:307,1,120,0|0,2:2|2:0,0:0:0:0:
375,360,53423,1,8,0:0:0:0:
298,325,53582,1,0,2:0:0:0:
298,325,53742,6,0,P|234:333|230:333,1,60,4|2,0:0|2:0,0:0:0:0:
111,222,54221,2,0,L|112:91,1,120,0|2,2:2|2:2,0:0:0:0:
160,33,54699,1,8,0:0:0:0:
242,17,54859,1,0,0:0:0:0:
242,17,55019,6,0,P|326:13|368:25,1,120,4|8,0:0|0:0,0:0:0:0:
410,88,55497,2,0,P|406:172|418:214,1,120,0|0,2:2|0:0,0:0:0:0:
476,263,55976,1,8,0:0:0:0:
419,325,56136,2,0,L|289:324,1,120,0|0,2:0|2:3,0:0:0:0:
233,271,56614,1,8,0:0:0:0:
92,179,56933,2,0,P|41:208|36:212,2,60,0|0|8,0:0|2:0|0:0,0:0:0:0:
175,32,57572,5,8,3:0:0:0:
175,32,57731,2,0,P|184:90|219:139,1,120,12|8,0:0|3:3,0:0:0:0:
298,117,58210,2,0,P|343:154|368:208,1,120,12|8,0:0|3:0,0:0:0:0:
347,289,58689,2,0,P|426:237|448:221,1,120,12|0,0:0|3:0,0:0:0:0:
512,170,59167,1,14,0:0:0:0:
18,73,60125,6,0,P|89:63|160:70,1,143.999995605469,6|10,0:0|0:0,0:0:0:0:
240,119,60604,1,0,0:0:0:0:
240,119,60763,2,0,P|248:169|240:196,1,71.9999978027344,2|0,0:2|0:0,0:0:0:0:
298,264,61082,2,0,P|264:276|238:301,1,71.9999978027344,10|0,0:0|0:0,0:0:0:0:
171,366,61402,6,0,P|112:322|31:322,1,143.999995605469,2|10,0:2|0:0,0:0:0:0:
7,134,62040,1,0,0:2:0:0:
161,28,62359,2,0,P|217:11|252:16,1,71.9999978027344,10|0,0:0|0:0,0:0:0:0:
323,19,62678,6,0,B|315:60|315:60|336:177,1,143.999995605469,6|10,0:0|0:0,0:0:0:0:
377,243,63157,1,0,0:0:0:0:
377,243,63316,2,0,P|329:261|306:288,1,71.9999978027344,2|0,0:2|0:0,0:0:0:0:
220,275,63636,2,0,P|213:239|193:209,1,71.9999978027344,10|0,0:0|0:0,0:0:0:0:
99,208,63955,6,0,L|223:135,1,143.999995605469,6|8,0:0|0:0,0:0:0:0:
255,48,64433,1,0,0:0:0:0:
255,48,64593,2,0,P|306:95|310:168,1,143.999995605469,6|10,0:0|0:0,0:0:0:0:
442,298,65231,6,0,L|442:152,1,143.999995605469,6|10,0:0|0:0,0:0:0:0:
482,69,65710,1,0,0:0:0:0:
396,29,65870,2,0,P|328:21|293:27,1,71.9999978027344,2|0,0:2|0:0,0:0:0:0:
247,74,66189,2,0,P|211:73|175:66,1,71.9999978027344,10|0,0:0|0:0,0:0:0:0:
93,19,66508,6,0,P|83:88|124:145,1,143.999995605469,2|10,0:2|0:0,0:0:0:0:
277,252,67146,2,0,P|241:252|205:259,1,71.9999978027344,0|0,0:2|0:0,0:0:0:0:
130,315,67465,1,10,0:0:0:0:
315,339,67784,6,0,B|364:346|364:346|477:299,2,143.999995605469,6|10|2,0:0|0:0|0:2,0:0:0:0:
277,252,68582,1,0,0:0:0:0:
346,188,68742,2,0,P|354:132|349:97,1,71.9999978027344,10|0,0:0|0:0,0:0:0:0:
273,66,69061,6,0,P|202:53|130:60,1,143.999995605469,6|8,0:0|0:0,0:0:0:0:
56,118,69540,1,0,0:0:0:0:
56,118,69699,2,0,B|50:146|50:146|58:206,1,71.9999978027344,8|8,0:0|0:0,0:0:0:0:
76,281,70019,1,8,0:0:0:0:
239,372,70338,6,0,P|279:339|300:309,1,71.9999978027344,6|0,0:0|0:2,0:0:0:0:
276,231,70657,2,0,P|284:179|299:146,1,71.9999978027344,10|0,0:0|0:0,0:0:0:0:
380,128,70976,2,0,P|420:95|441:65,1,71.9999978027344,2|0,0:0|0:2,0:0:0:0:
496,148,71295,2,0,P|507:181|511:217,1,71.9999978027344,10|0,0:0|0:0,0:0:0:0:
478,305,71614,6,0,L|329:304,1,143.999995605469,6|10,0:0|0:0,0:0:0:0:
276,231,72093,1,0,0:0:0:0:
276,231,72253,1,0,0:0:0:0:
201,59,72572,2,0,P|152:51|114:59,1,71.9999978027344,10|2,0:0|0:2,0:0:0:0:
48,100,72891,6,0,P|49:156|47:177,1,71.9999978027344,6|0,0:0|0:2,0:0:0:0:
8,257,73210,2,0,P|7:313|9:334,1,71.9999978027344,10|0,0:0|0:0,0:0:0:0:
94,366,73529,2,0,P|150:367|171:365,1,71.9999978027344,2|0,0:0|0:2,0:0:0:0:
251,326,73848,2,0,P|307:325|328:327,1,71.9999978027344,10|0,0:0|0:0,0:0:0:0:
409,361,74167,6,0,B|424:317|400:276|400:276|421:243|415:203,1,143.999995605469,6|10,0:0|0:0,0:0:0:0:
376,138,74646,1,0,0:0:0:0:
376,138,74806,2,0,L|410:71,2,71.9999978027344,0|0|8,0:0|0:0|0:0,0:0:0:0:
210,183,75444,6,0,L|51:184,1,132.00000402832,12|8,0:0|0:3,0:0:0:0:
75,97,75923,2,0,L|234:96,1,132.00000402832,12|8,0:0|0:3,0:0:0:0:
281,136,76402,1,14,0:0:0:0:
281,136,76561,1,0,0:0:0:0:
343,193,76721,6,0,P|367:254|350:316,1,132.00000402832,12|8,0:0|0:3,0:0:0:0:
267,337,77199,2,0,L|127:336,1,132.00000402832,12|8,0:0|0:3,0:0:0:0:
63,288,77678,1,14,0:0:0:0:
63,288,77838,1,0,0:0:0:0:
93,208,77997,5,4,0:0:0:0:
250,139,78316,2,0,L|380:159,2,132.00000402832,10|4|10,0:0|0:0|0:0,0:0:0:0:
82,100,79274,6,0,P|76:151|78:186,1,66.0000020141602,14|8,0:0|0:0,0:0:0:0:
155,198,79593,2,0,P|161:249|159:284,1,66.0000020141602,4|0,0:0|0:0,0:0:0:0:
212,332,79912,2,0,P|263:338|298:336,1,66.0000020141602,8|8,0:0|0:0,0:0:0:0:
310,259,80231,2,0,P|361:253|396:255,1,66.0000020141602,8|8,0:0|0:0,0:0:0:0:
448,299,80550,5,12,0:0:0:0:
256,192,80710,12,8,81827,3:3:0:0:
14,92,83090,6,0,P|69:70|128:77,1,120,12|2,0:0|1:2,0:0:0:0:
202,114,83568,2,0,P|261:120|316:99,1,120,12|2,0:0|1:2,0:0:0:0:
368,33,84047,2,0,L|366:180,1,120,12|8,0:0|0:3,0:0:0:0:
431,206,84526,2,0,L|433:353,1,120,8|8,0:0|0:3,0:0:0:0:
502,371,85004,1,10,0:0:0:0:
334,350,85324,1,10,0:0:0:0:
166,371,85643,6,0,P|117:358|44:327,1,120,12|2,0:0|1:2,0:0:0:0:
16,256,86121,2,0,P|29:207|60:134,1,120,12|2,0:0|1:2,0:0:0:0:
134,114,86600,2,0,P|183:127|256:158,1,120,12|8,0:0|0:3,0:0:0:0:
284,229,87078,2,0,P|271:278|240:351,1,120,8|8,0:0|0:0,0:0:0:0:
166,371,87558,2,0,P|116:361|92:353,2,60,8|8|8,0:0|0:0|0:0,0:0:0:0:
244,341,88036,1,12,0:0:0:0:
256,192,88196,12,10,89153,0:0:0:0:
