osu file format v14

[General]
AudioFilename: audio.mp3
AudioLeadIn: 0
PreviewTime: 41252
Countdown: 0
SampleSet: Soft
StackLeniency: 0.7
Mode: 0
LetterboxInBreaks: 0
WidescreenStoryboard: 1

[Editor]
DistanceSpacing: 1.3
BeatDivisor: 4
GridSize: 8
TimelineZoom: 1.3

[Metadata]
Title:STORY (TV Size)
TitleUnicode:STORY (TV Size)
Artist:Kensho Ono
ArtistUnicode:小野賢章
Creator:Xexxar
Version:A r M i N's Extreme
Source:ラクエンロジック
Tags:luck & logic anime xr a_r_m_i_n armin sotarks syph borborygmos akitoshi Hobbes2 and milkshake _83
BeatmapID:1271007
BeatmapSetID:598357

[Difficulty]
HPDrainRate:6
CircleSize:3.7
OverallDifficulty:9
ApproachRate:9.4
SliderMultiplier:1.4
SliderTickRate:1

[Events]
//Background and Video events
0,0,"30042-Luck_and_Logic-PC.jpg",0,0
Video,208,"outm.avi"
//Break Periods
//Storyboard Layer 0 (Background)
//Storyboard Layer 1 (Fail)
//Storyboard Layer 2 (Pass)
//Storyboard Layer 3 (Foreground)
//Storyboard Sound Samples

[TimingPoints]
1402,319.148936170213,4,2,1,75,1,0
1402,-151.515151515152,4,2,1,75,0,0
6029,-133.333333333333,4,2,1,75,0,0
6827,-133.333333333333,4,2,1,75,0,0
7146,-117.647058823529,4,2,1,75,0,0
7465,-105.263157894737,4,2,1,75,0,0
7784,-95.2380952380952,4,2,1,75,0,0
8104,-86.9565217391304,4,2,1,75,0,0
8423,-80,4,2,1,75,0,0
8742,-74.0740740740741,4,2,1,75,0,0
9061,-71.4285714285714,4,2,1,75,0,0
11614,-71.4285714285714,4,1,1,75,0,0
11854,-71.4285714285714,4,1,1,5,0,0
11933,-71.4285714285714,4,1,1,75,0,0
12332,-71.4285714285714,4,1,1,5,0,0
12412,-71.4285714285714,4,1,1,75,0,0
12811,-71.4285714285714,4,1,1,5,0,0
12891,-71.4285714285714,4,1,1,75,0,0
14407,-71.4285714285714,4,1,1,5,0,0
14487,-71.4285714285714,4,1,1,75,0,0
14886,-71.4285714285714,4,1,1,5,0,0
14965,-71.4285714285714,4,1,1,75,0,0
15364,-71.4285714285714,4,1,1,5,0,0
15444,-71.4285714285714,4,1,1,75,0,0
16960,-71.4285714285714,4,1,1,5,0,0
17040,-71.4285714285714,4,1,1,75,0,0
17439,-71.4285714285714,4,1,1,5,0,0
17519,-71.4285714285714,4,1,1,75,0,0
17917,-71.4285714285714,4,1,1,5,0,0
17997,-71.4285714285714,4,1,1,75,0,0
19513,-71.4285714285714,4,1,1,5,0,0
19593,-71.4285714285714,4,1,1,75,0,0
19992,-71.4285714285714,4,1,1,5,0,0
20072,-71.4285714285714,4,1,1,75,0,0
20471,-71.4285714285714,4,1,1,5,0,0
20550,-71.4285714285714,4,1,1,75,0,0
21826,-100,4,1,1,75,0,0
21827,-100,4,2,1,75,0,0
22465,-100,4,2,1,55,0,0
26932,-95.2380952380952,4,2,1,55,0,0
27251,-90.9090909090909,4,2,1,55,0,0
27570,-86.9565217391304,4,2,1,55,0,0
27889,-83.3333333333333,4,2,1,55,0,0
29485,-76.9230769230769,4,2,1,55,0,0
32038,-83.3333333333333,4,2,1,55,0,0
32040,-83.3333333333333,4,1,1,65,0,0
42251,-71.4285714285714,4,1,1,65,0,0
42253,-71.4285714285714,4,1,1,75,0,0
42492,-71.4285714285714,4,1,1,5,0,0
42572,-71.4285714285714,4,1,1,75,0,0
42971,-71.4285714285714,4,1,1,5,0,0
43050,-71.4285714285714,4,1,1,75,0,0
43449,-71.4285714285714,4,1,1,5,0,0
43529,-71.4285714285714,4,1,1,75,0,0
45045,-71.4285714285714,4,1,1,5,0,0
45125,-71.4285714285714,4,1,1,75,0,0
45524,-71.4285714285714,4,1,1,5,0,0
45604,-71.4285714285714,4,1,1,75,0,0
46003,-71.4285714285714,4,1,1,5,0,0
46082,-71.4285714285714,4,1,1,75,0,0
47598,-71.4285714285714,4,1,1,5,0,0
47678,-71.4285714285714,4,1,1,75,0,0
48077,-71.4285714285714,4,1,1,5,0,0
48157,-71.4285714285714,4,1,1,75,0,0
50152,-71.4285714285714,4,1,1,5,0,0
50231,-71.4285714285714,4,1,1,75,0,0
50630,-71.4285714285714,4,1,1,5,0,0
50710,-71.4285714285714,4,1,1,75,0,0
51109,-71.4285714285714,4,1,1,5,0,0
51189,-71.4285714285714,4,1,1,75,0,0
52464,-83.3333333333333,4,1,1,75,0,0
52465,-83.3333333333333,4,1,1,70,0,0
57572,-83.3333333333333,4,1,1,80,0,0
57731,-76.9230769230769,4,1,1,80,0,0
57971,-76.9230769230769,4,1,1,5,0,0
58050,-76.9230769230769,4,1,1,80,0,0
58210,-71.4285714285714,4,1,1,80,0,0
58449,-71.4285714285714,4,1,1,5,0,0
58529,-71.4285714285714,4,1,1,80,0,0
58689,-66.6666666666667,4,1,1,80,0,0
58928,-66.6666666666667,4,1,1,5,0,0
59008,-66.6666666666667,4,1,1,80,0,0
59167,-58.8235294117647,4,1,1,80,0,0
60125,-66.6666666666667,4,1,1,87,0,1
68024,-66.6666666666667,4,1,1,87,0,1
68104,-62.5,4,1,1,87,0,1
68343,-62.5,4,1,1,87,0,1
68423,-58.8235294117647,4,1,1,87,0,1
68662,-58.8235294117647,4,1,1,87,0,1
68742,-58.8235294117647,4,1,1,87,0,1
69061,-66.6666666666667,4,1,1,87,0,1
71614,-58.8235294117647,4,1,1,87,0,1
75125,-100,4,1,1,87,0,0
75364,-100,4,1,1,87,0,0
75444,-66.6666666666667,4,1,1,87,0,1
80550,-83.3333333333333,4,1,1,75,0,0
83090,319.148936170213,4,1,1,90,1,0
83090,-66.6666666666667,4,1,1,90,0,0
88036,-100,4,1,1,90,0,0
89074,-100,4,1,1,90,0,0
89153,-100,4,1,1,90,0,0

[Colours]
Combo1 : 192,130,255
Combo2 : 92,162,245
Combo3 : 255,255,108
Combo4 : 255,145,200
SliderTrackOverride : 35,35,35
SliderBorder : 255,255,255

[HitObjects]
124,358,444,5,0,2:0:0:0:
63,289,763,1,0,2:0:0:0:
124,220,1082,1,0,2:0:0:0:
63,151,1402,6,0,B|74:50|74:50|99:22,2,138.599999577026,2|2|2,0:0|0:0|0:0,0:0:0:0:
124,220,2678,6,0,P|171:224|215:202,1,92.3999997180176,0|0,0:0|0:0,0:0:0:0:
260,126,3157,1,2,0:0:0:0:
328,209,3316,2,0,P|369:227|415:223,1,92.3999997180176,2|0,0:0|0:0,0:0:0:0:
509,159,3795,6,0,L|501:257,1,92.3999997180176,0|0,0:0|0:0,0:0:0:0:
445,324,4274,1,0,0:0:0:0:
344,287,4433,2,0,P|319:246|225:224,1,138.599999577026,2|2,0:0|0:0,0:0:0:0:
93,334,5231,6,0,P|147:318|173:281,1,92.3999997180176,0|0,0:0|0:0,0:0:0:0:
85,158,5710,1,2,0:0:0:0:
16,350,5870,1,2,0:0:0:0:
168,291,6029,1,2,0:0:0:0:
16,112,6189,1,8,1:0:0:0:
44,267,6348,1,0,0:0:0:0:
202,117,6508,6,0,P|194:144|199:181,1,52.5000020027161,4|0,1:2|3:0,0:0:0:0:
270,153,6827,2,0,P|276:180|299:209,1,52.5000020027161,0|0,1:0|3:0,0:0:0:0:
346,149,7146,2,0,P|365:169|399:183,1,59.5000011348725,0|0,1:0|3:0,0:0:0:0:
410,107,7465,2,0,P|437:114|474:110,1,66.4999982242585,0|0,1:0|3:0,0:0:0:0:
361,320,7784,6,0,L|349:243,1,73.4999977569581,0|0,1:0|3:0,0:0:0:0:
202,117,8104,2,0,L|188:196,1,80.5000015354157,0|0,1:0|3:0,0:0:0:0:
381,294,8423,2,0,L|366:201,1,87.5,0|0,1:0|3:0,0:0:0:0:
222,91,8743,2,0,L|206:184,1,94.5000003604889,0|0,1:0|2:0,0:0:0:0:
280,359,9061,5,4,1:0:0:0:
254,345,9380,5,8,1:0:0:0:
358,127,9540,1,8,1:0:0:0:
94,196,9699,1,8,1:0:0:0:
352,317,9859,1,8,1:0:0:0:
276,47,10019,1,8,1:0:0:0:
167,271,10178,1,8,1:0:0:0:
444,184,10338,5,10,1:0:0:0:
167,178,10657,6,0,P|153:230|169:275,1,97.9999970092774,0|0,0:0|0:0,0:0:0:0:
444,184,10976,2,0,B|394:162|394:162|253:183,1,195.999994018555,0|0,0:0|0:0,0:0:0:0:
109,30,11455,1,0,0:0:0:0:
68,277,11614,6,0,L|168:270,1,97.9999970092774,12|0,0:0|0:0,0:0:0:0:
346,177,11933,1,8,0:3:0:0:
109,30,12093,2,0,P|95:82|111:127,1,97.9999970092774,12|0,0:0|0:0,0:0:0:0:
268,247,12412,1,8,0:3:0:0:
387,45,12572,2,0,L|287:38,1,97.9999970092774,12|0,0:0|0:0,0:0:0:0:
156,213,12891,5,0,0:0:0:0:
368,344,13050,2,0,P|381:297|367:251,1,97.9999970092774,12|0,0:0|0:3,0:0:0:0:
219,128,13370,1,8,0:3:0:0:
121,338,13529,5,14,0:1:0:0:
322,177,13689,1,8,0:3:0:0:
78,85,13848,5,14,0:1:0:0:
195,291,14008,1,8,0:3:0:0:
328,79,14167,6,0,L|321:179,1,97.9999970092774,12|0,0:0|0:0,0:0:0:0:
173,44,14487,1,8,0:3:0:0:
97,297,14646,2,0,L|194:290,1,97.9999970092774,12|0,0:0|0:0,0:0:0:0:
380,219,14965,1,8,0:3:0:0:
173,44,15125,2,0,P|158:90|172:136,1,97.9999970092774,12|0,0:0|0:0,0:0:0:0:
303,291,15444,5,0,0:0:0:0:
400,54,15604,2,0,L|302:60,1,97.9999970092774,12|2,0:0|0:2,0:0:0:0:
211,237,15923,1,8,0:3:0:0:
75,37,16082,2,0,L|172:43,1,97.9999970092774,10|8,0:1|0:3,0:0:0:0:
15,236,16402,2,0,B|4:209|4:209|15:133,1,97.9999970092774,12|8,0:1|0:3,0:0:0:0:
279,196,16721,6,0,B|290:223|290:223|280:291,1,97.9999970092774,12|0,0:0|0:0,0:0:0:0:
400,148,17040,1,8,0:3:0:0:
172,43,17199,2,0,L|75:49,1,97.9999970092774,12|0,0:0|0:0,0:0:0:0:
192,210,17519,1,8,0:3:0:0:
333,8,17678,2,0,P|348:54|334:100,1,97.9999970092774,12|0,0:0|0:0,0:0:0:0:
192,210,17997,5,0,0:0:0:0:
372,367,18157,2,0,L|275:361,1,97.9999970092774,12|0,0:0|0:3,0:0:0:0:
205,129,18476,1,8,0:3:0:0:
48,347,18636,5,14,0:1:0:0:
287,262,18795,1,8,0:3:0:0:
94,119,18955,5,14,0:1:0:0:
333,34,19114,1,8,0:3:0:0:
182,264,19274,5,12,0:0:0:0:
154,28,19433,1,0,0:0:0:0:
360,125,19593,1,8,0:3:0:0:
121,182,19753,6,0,L|218:188,1,97.9999970092774,12|0,0:0|0:0,0:0:0:0:
360,125,20072,1,8,0:3:0:0:
230,328,20231,5,12,0:0:0:0:
305,73,20391,1,0,0:0:0:0:
121,182,20550,1,8,0:3:0:0:
228,97,20710,5,12,0:0:0:0:
264,259,20869,1,2,1:2:0:0:
112,208,21029,1,2,1:2:0:0:
228,97,21188,5,8,0:0:0:0:
258,77,21269,1,8,0:0:0:0:
295,74,21348,1,8,0:0:0:0:
328,88,21428,1,8,0:0:0:0:
352,115,21508,1,8,0:0:0:0:
376,141,21588,1,8,0:0:0:0:
410,155,21667,1,8,0:0:0:0:
446,152,21747,1,8,0:0:0:0:
477,133,21827,6,2,L|466:62,1,70,12|0,1:0|0:0,0:0:0:0:
284,150,22146,2,2,L|273:219,1,70,0|2,0:0|0:0,0:0:0:0:
498,109,22465,2,0,L|487:38,1,70,0|0,0:0|0:0,0:0:0:0:
305,126,22784,2,0,L|294:195,1,70,2|0,0:0|0:0,0:0:0:0:
106,313,23104,6,0,P|69:317|38:303,1,70,0|0,0:0|0:0,0:0:0:0:
124,119,23423,2,0,P|161:115|192:129,1,70,0|0,0:0|0:0,0:0:0:0:
245,307,23742,1,2,0:0:0:0:
395,143,23902,2,0,L|406:212,1,70,12|0,1:1|3:0,0:0:0:0:
190,127,24221,1,12,1:1:0:0:
245,307,24380,6,0,L|234:376,2,70,2|0|0,1:2|0:0|0:0,0:0:0:0:
135,188,24859,2,0,L|124:119,2,70,2|0|0,0:0|0:0|0:0,0:0:0:0:
304,78,25338,2,0,P|271:64|237:69,1,70,2|0,0:0|0:0,0:0:0:0:
356,164,25657,5,0,3:0:0:0:
386,32,25817,1,0,3:0:0:0:
351,185,25976,1,0,3:0:0:0:
381,53,26136,1,0,3:0:0:0:
237,68,26296,1,2,0:2:0:0:
434,135,26455,1,2,0:0:0:0:
300,335,26615,2,0,P|307:285|286:232,1,105,12|0,1:1|0:0,0:0:0:0:
231,183,26934,6,0,L|151:189,1,73.4999977569581,2|2,1:2|0:0,0:0:0:0:
234,11,27253,2,0,L|310:17,1,77.0000023498536,2|2,1:2|0:0,0:0:0:0:
214,203,27572,2,0,L|131:209,1,80.5000015354157,2|2,1:2|0:0,0:0:0:0:
217,31,27891,2,0,L|300:37,1,83.9999974365235,0|2,1:0|0:0,0:0:0:0:
214,203,28210,6,0,P|204:252|224:300,1,83.9999974365235,0|2,1:0|0:0,0:0:0:0:
379,179,28530,2,0,P|388:138|378:98,1,83.9999974365235,2|2,1:2|0:0,0:0:0:0:
217,31,28849,1,2,1:2:0:0:
130,209,29008,2,0,L|213:202,1,83.9999974365235,8|0,1:0|1:2,0:0:0:0:
69,45,29328,1,12,1:0:0:0:
5,268,29487,6,0,B|0:299|0:299|21:358,1,90.9999958343508,4|0,1:0|0:0,0:0:0:0:
213,202,29806,2,0,B|218:171|218:171|197:112,1,90.9999958343508,0|0,1:0|0:0,0:0:0:0:
126,331,30125,1,0,1:0:0:0:
333,228,30285,1,0,0:3:0:0:
119,108,30445,2,0,L|26:114,1,90.9999958343508,0|0,1:0|0:0,0:0:0:0:
213,202,30764,5,0,1:0:0:0:
72,12,30923,1,8,1:3:0:0:
39,266,31083,1,2,1:2:0:0:
198,114,31242,1,0,1:0:0:0:
361,287,31402,5,8,1:0:0:0:
330,322,31481,1,8,1:0:0:0:
286,340,31561,1,8,1:0:0:0:
240,338,31641,1,8,1:0:0:0:
199,311,31721,1,8,1:0:0:0:
170,274,31801,1,8,1:0:0:0:
129,250,31881,1,8,1:0:0:0:
81,247,31961,1,8,1:0:0:0:
39,266,32040,6,0,L|47:349,1,83.9999974365235,14|0,0:0|0:0,0:0:0:0:
198,114,32359,1,8,1:0:0:0:
313,286,32519,2,0,L|396:278,1,83.9999974365235,2|0,0:2|0:0,0:0:0:0:
170,274,32838,1,0,2:0:0:0:
293,72,32998,2,0,P|303:115|288:162,1,83.9999974365235,10|0,0:0|0:0,0:0:0:0:
95,28,33317,5,0,1:0:0:0:
315,2,33476,1,0,0:0:0:0:
246,237,33636,1,8,0:0:0:0:
170,49,33796,1,2,2:2:0:0:
370,77,33955,1,8,0:3:0:0:
246,237,34115,2,0,L|329:245,1,83.9999974365235,2|8,2:2|0:0,0:0:0:0:
166,126,34434,1,2,2:2:0:0:
36,283,34593,6,0,P|26:326|41:373,1,83.9999974365235,2|0,0:0|0:0,0:0:0:0:
166,126,34913,1,8,1:1:0:0:
329,245,35072,2,0,P|339:288|324:335,1,83.9999974365235,2|0,0:2|0:0,0:0:0:0:
431,139,35391,1,0,2:0:0:0:
241,35,35551,2,0,L|249:118,1,83.9999974365235,10|0,0:0|0:0,0:0:0:0:
115,267,35870,6,0,B|104:244|104:244|115:184,2,83.9999974365235,0|0|8,0:0|0:0|0:0,0:0:0:0:
329,245,36348,2,0,B|340:268|340:268|329:328,2,83.9999974365235,2|2|2,2:2|0:2|2:2,0:0:0:0:
184,112,36826,1,8,0:0:0:0:
115,267,36987,6,0,L|198:259,1,83.9999974365235,2|6,2:2|0:0,0:0:0:0:
77,47,37306,1,2,2:2:0:0:
26,294,37466,5,10,0:1:0:0:
251,175,37625,1,2,2:0:0:0:
77,47,37785,5,2,1:2:0:0:
198,258,37944,1,2,2:0:0:0:
211,27,38104,5,10,1:1:0:0:
108,258,38263,1,2,2:0:0:0:
346,140,38423,5,6,0:0:0:0:
77,47,38582,1,2,2:2:0:0:
373,55,38742,5,10,0:1:0:0:
90,152,38902,1,2,2:0:0:0:
325,243,39061,5,2,1:2:0:0:
184,65,39220,2,0,L|192:148,1,83.9999974365235,2|8,2:0|0:0,0:0:0:0:
109,260,39539,1,2,2:0:0:0:
325,243,39699,5,6,0:0:0:0:
100,56,40019,6,0,L|183:64,1,83.9999974365235,8|2,0:0|0:2,0:0:0:0:
363,5,40338,1,8,0:0:0:0:
387,52,40417,1,8,0:0:0:0:
389,104,40497,1,8,0:0:0:0:
368,152,40577,1,8,0:0:0:0:
330,187,40657,1,10,0:0:0:0:
291,221,40737,1,8,0:0:0:0:
271,269,40817,1,8,0:0:0:0:
273,321,40897,1,8,0:0:0:0:
297,368,40976,5,8,0:0:0:0:
123,136,41295,6,0,L|131:219,1,83.9999974365235,0|0,0:0|0:0,0:0:0:0:
63,36,41614,2,0,P|117:19|218:69,1,167.999994873047,0|0,0:0|0:0,0:0:0:0:
131,219,42093,1,0,0:0:0:0:
308,64,42253,6,0,B|281:53|281:53|213:63,1,97.9999970092774,12|0,0:0|0:0,0:0:0:0:
278,234,42572,1,8,0:3:0:0:
464,99,42732,2,0,L|454:1,1,97.9999970092774,12|0,0:0|0:0,0:0:0:0:
260,56,43051,1,8,0:3:0:0:
420,222,43210,2,0,L|410:319,1,97.9999970092774,12|0,0:0|0:0,0:0:0:0:
344,135,43530,5,0,0:0:0:0:
208,328,43689,2,0,P|162:343|116:329,1,97.9999970092774,12|0,0:0|0:3,0:0:0:0:
185,100,44008,1,8,0:3:0:0:
326,288,44167,5,14,0:1:0:0:
260,56,44327,1,8,0:3:0:0:
43,288,44486,5,14,0:1:0:0:
109,56,44646,1,8,0:3:0:0:
303,208,44805,6,0,L|401:198,1,97.9999970092774,12|0,0:0|0:0,0:0:0:0:
260,56,45124,1,8,0:3:0:0:
90,238,45284,2,0,P|75:284|90:330,1,97.9999970092774,12|0,0:0|0:0,0:0:0:0:
257,216,45603,1,8,0:3:0:0:
101,31,45763,2,0,L|3:41,1,97.9999970092774,12|0,0:0|0:0,0:0:0:0:
170,197,46082,5,0,0:0:0:0:
291,6,46241,1,8,0:0:0:0:
387,229,46402,2,0,L|289:219,1,97.9999970092774,2|8,0:2|0:3,0:0:0:0:
457,48,46721,5,10,0:1:0:0:
502,306,46881,1,8,0:3:0:0:
314,102,47040,5,12,0:1:0:0:
269,360,47200,1,8,0:3:0:0:
123,134,47359,6,0,L|221:144,1,97.9999970092774,12|0,0:0|0:0,0:0:0:0:
122,331,47679,1,8,0:3:0:0:
11,112,47838,2,0,B|0:85|0:85|10:17,1,97.9999970092774,12|0,0:0|0:0,0:0:0:0:
79,229,48157,1,8,0:3:0:0:
221,51,48317,2,0,P|235:97|220:143,1,97.9999970092774,12|2,0:0|1:2,0:0:0:0:
312,348,48636,5,2,0:2:0:0:
79,229,48796,1,14,0:0:0:0:
304,187,48955,1,2,0:2:0:0:
180,356,49115,1,0,0:0:0:0:
95,83,49274,5,14,0:1:0:0:
217,257,49434,1,0,0:0:0:0:
299,20,49593,5,14,0:1:0:0:
421,194,49753,1,2,0:2:0:0:
188,112,49913,6,0,L|286:122,2,97.9999970092774,12|0|0,0:0|0:0|0:0,0:0:0:0:
125,316,50391,2,0,L|27:326,2,97.9999970092774,12|0|8,0:0|0:0|0:3,0:0:0:0:
16,89,50870,2,0,B|5:116|5:116|15:184,2,97.9999970092774,12|0|8,0:0|0:0|0:3,0:0:0:0:
196,250,51349,5,14,0:0:0:0:
277,30,51508,2,0,L|179:40,1,97.9999970092774,2|2,1:2|1:2,0:0:0:0:
353,169,51827,1,8,0:0:0:0:
337,214,51906,1,8,0:0:0:0:
346,262,51986,1,8,0:0:0:0:
377,298,52066,1,8,0:0:0:0:
423,314,52146,1,8,0:0:0:0:
391,279,52225,1,8,0:0:0:0:
347,262,52305,1,8,0:0:0:0:
300,271,52385,1,8,0:0:0:0:
264,308,52465,6,0,P|221:318|174:303,1,83.9999974365235,14|0,0:0|2:3,0:0:0:0:
114,96,52784,1,8,0:0:0:0:
48,194,52944,2,0,L|56:280,1,83.9999974365235,0|0,2:2|0:0,0:0:0:0:
234,173,53263,1,0,2:0:0:0:
300,271,53423,2,0,L|291:357,1,83.9999974365235,8|0,0:0|2:0,0:0:0:0:
366,173,53742,5,4,0:0:0:0:
218,299,53902,2,0,B|195:310|195:310|135:299,1,83.9999974365235,2|8,2:0|0:0,0:0:0:0:
231,104,54221,2,0,B|254:93|254:93|314:104,1,83.9999974365235,0|0,2:2|0:0,0:0:0:0:
101,196,54540,2,0,L|109:112,1,83.9999974365235,2|8,2:2|0:0,0:0:0:0:
300,271,54859,1,0,0:0:0:0:
394,63,55019,6,0,P|404:106|389:153,1,83.9999974365235,4|0,0:0|2:3,0:0:0:0:
211,287,55338,1,8,0:0:0:0:
109,112,55497,2,0,L|192:120,1,83.9999974365235,0|0,2:2|0:0,0:0:0:0:
31,243,55816,1,0,0:0:0:0:
100,15,55976,1,8,0:0:0:0:
222,200,56136,6,0,B|266:218|266:218|392:199,1,167.999994873047,0|0,2:0|2:3,0:0:0:0:
267,23,56614,2,0,L|275:106,1,83.9999974365235,8|0,0:0|2:2,0:0:0:0:
100,195,56933,2,0,L|108:112,1,83.9999974365235,0|0,0:0|2:0,0:0:0:0:
287,235,57253,2,0,L|295:318,1,83.9999974365235,8|0,0:0|2:0,0:0:0:0:
193,123,57572,5,8,3:0:0:0:
444,74,57731,2,0,P|478:123|401:99,1,181.999991668702,12|8,0:0|3:3,0:0:0:0:
235,30,58210,6,0,B|190:15|190:15|45:49,1,195.999994018555,12|8,0:0|3:0,0:0:0:0:
157,290,58689,6,0,P|227:201|192:122,1,210.000008010865,12|0,0:0|3:0,0:0:0:0:
114,76,59061,6,0,P|104:103|101:128,1,35.0000013351441,0|0,3:0|3:0,0:0:0:0:
132,197,59167,2,0,B|161:210|194:213|221:198|221:198|262:238|262:238|289:223|321:225|351:239,1,238.00000453949,14|0,0:0|0:0,0:0:0:0:
389,215,59806,5,0,0:0:0:0:
389,63,60125,6,0,L|399:170,1,105.000004005432,6|0,0:0|0:0,0:0:0:0:
167,309,60444,2,0,L|177:204,1,105.000004005432,10|0,0:0|0:0,0:0:0:0:
378,346,60763,5,2,0:2:0:0:
149,186,60923,1,0,0:0:0:0:
429,120,61082,5,10,0:0:0:0:
269,349,61242,1,0,0:0:0:0:
138,81,61402,6,0,L|148:185,1,105.000004005432,2|0,0:2|0:0,0:0:0:0:
358,49,61721,2,0,B|306:25|306:25|153:49,1,210.000008010865,10|0,0:0|0:2,0:0:0:0:
291,222,62199,1,0,0:0:0:0:
440,0,62359,2,0,P|454:57|426:114,1,105.000004005432,10|0,0:0|0:0,0:0:0:0:
280,326,62678,6,0,L|290:221,1,105.000004005432,6|0,0:0|0:0,0:0:0:0:
481,343,62997,1,10,0:0:0:0:
265,205,63157,1,0,0:0:0:0:
452,325,63316,1,2,0:2:0:0:
506,78,63476,1,0,0:0:0:0:
265,205,63636,2,0,L|369:215,1,105.000004005432,10|0,0:0|0:0,0:0:0:0:
150,112,63955,6,0,B|126:164|126:164|150:317,1,210.000008010865,6|8,0:0|0:0,0:0:0:0:
265,205,64433,1,0,0:0:0:0:
82,44,64593,2,0,P|171:18|244:95,1,210.000008010865,6|10,0:0|0:0,0:0:0:0:
87,207,65072,1,0,0:0:0:0:
294,324,65231,6,0,P|309:274|294:224,1,105.000004005432,6|0,0:0|0:0,0:0:0:0:
86,107,65550,2,0,P|71:156|86:206,1,105.000004005432,10|0,0:0|0:0,0:0:0:0:
288,77,65870,2,0,B|220:66|220:66|185:77,1,105.000004005432,2|0,0:2|0:0,0:0:0:0:
294,324,66189,2,0,B|361:334|361:334|396:323,1,105.000004005432,10|0,0:0|0:0,0:0:0:0:
190,198,66508,6,0,L|179:302,1,105.000004005432,2|0,0:2|0:0,0:0:0:0:
249,45,66827,2,0,L|228:262,1,210.000008010865,10|0,0:0|0:2,0:0:0:0:
103,80,67306,1,0,0:0:0:0:
346,20,67465,2,0,L|450:30,1,105.000004005432,10|0,0:0|0:0,0:0:0:0:
322,257,67784,6,0,P|268:172|299:100,1,157.500006008148,6|0,0:0|0:0,0:0:0:0:
364,171,68104,6,0,B|322:190|322:190|201:171,1,168,10|0,0:0|0:0,0:0:0:0:
129,81,68423,6,0,L|146:258,1,178.500003404617,2|0,0:2|0:0,0:0:0:0:
49,221,68742,6,0,P|107:162|242:219,1,238.00000453949,10|6,0:0|0:0,0:0:0:0:
125,26,69221,1,0,0:0:0:0:
356,116,69380,2,0,L|251:105,1,105.000004005432,8|0,0:0|0:0,0:0:0:0:
132,309,69699,1,8,0:0:0:0:
146,258,69778,1,8,0:0:0:0:
138,207,69858,1,8,0:0:0:0:
108,164,69938,1,8,0:0:0:0:
64,136,70019,6,0,L|12:127,1,52.5000020027161,8|8,0:0|0:0,0:0:0:0:
80,317,70178,2,0,L|132:308,1,52.5000020027161,8|8,0:0|0:0,0:0:0:0:
181,94,70338,5,6,0:0:0:0:
6,241,70497,1,0,0:2:0:0:
63,48,70657,5,10,0:0:0:0:
255,209,70816,1,0,0:0:0:0:
217,12,70976,5,2,0:0:0:0:
115,240,71135,1,0,0:2:0:0:
63,48,71295,5,10,0:0:0:0:
323,133,71454,1,0,0:0:0:0:
109,304,71614,6,0,L|121:178,1,119.000002269745,6|0,0:0|0:0,0:0:0:0:
311,14,71933,2,0,L|322:132,1,119.000002269745,10|0,0:0|0:0,0:0:0:0:
135,54,72253,1,0,0:0:0:0:
223,204,72412,1,0,0:0:0:0:
406,49,72572,1,10,0:0:0:0:
345,296,72731,1,2,0:2:0:0:
311,14,72891,5,6,0:0:0:0:
413,226,73050,1,0,0:2:0:0:
173,162,73210,5,10,0:0:0:0:
406,49,73369,1,0,0:0:0:0:
149,53,73529,5,2,0:0:0:0:
405,177,73688,1,0,0:2:0:0:
55,193,73848,5,10,0:0:0:0:
311,14,74007,1,0,0:0:0:0:
206,293,74167,6,0,P|189:232|211:172,1,119.000002269745,6|0,0:0|0:0,0:0:0:0:
406,49,74487,2,0,P|423:105|406:161,1,119.000002269745,10|0,0:0|0:0,0:0:0:0:
211,52,74806,1,0,0:0:0:0:
111,232,74965,1,0,0:0:0:0:
321,154,75125,6,0,L|216:143,1,105,8|0,0:0|0:0,0:0:0:0:
133,132,75444,5,12,0:0:0:0:
234,352,75604,1,8,0:3:0:0:
336,66,75763,1,8,0:3:0:0:
436,286,75923,2,0,L|448:181,1,105.000004005432,12|8,0:0|0:3,0:0:0:0:
211,254,76242,1,8,0:3:0:0:
361,29,76402,5,14,0:0:0:0:
318,310,76561,1,0,0:0:0:0:
125,45,76721,5,12,0:0:0:0:
376,140,76880,1,8,0:3:0:0:
67,215,77040,1,8,0:3:0:0:
318,310,77199,2,0,L|213:321,1,105.000004005432,12|8,0:0|0:3,0:0:0:0:
291,84,77519,1,8,0:3:0:0:
419,333,77678,5,14,0:0:0:0:
67,215,77838,1,0,0:0:0:0:
291,84,77997,5,4,0:0:0:0:
213,320,78157,1,0,0:0:0:0:
213,43,78316,5,10,0:0:0:0:
291,279,78476,1,2,0:2:0:0:
393,83,78636,6,0,B|356:72|356:72|279:85,1,105.000004005432,4|0,0:0|0:0,0:0:0:0:
213,320,78955,2,0,B|250:331|250:331|327:318,1,105.000004005432,10|0,0:0|0:0,0:0:0:0:
197,74,79274,5,14,0:0:0:0:
37,256,79433,2,0,L|48:361,1,105.000004005432,8|4,0:0|0:0,0:0:0:0:
154,166,79753,1,0,0:0:0:0:
315,319,79912,2,0,L|367:313,3,52.5000020027161,8|8|8|8,0:0|0:0|0:0|0:0,0:0:0:0:
285,225,80231,2,0,L|233:219,3,52.5000020027161,8|8|8|8,0:0|0:0|0:0|0:0,0:0:0:0:
315,131,80550,5,12,0:0:0:0:
115,189,81667,5,0,0:0:0:0:
324,118,81827,1,8,3:3:0:0:
112,83,82146,5,8,3:3:0:0:
180,313,82306,1,8,3:3:0:0:
222,35,82625,5,8,3:3:0:0:
67,277,82784,2,0,L|58:192,1,83.9999974365235,8|0,1:1|0:0,0:0:0:0:
281,243,83090,5,12,0:0:0:0:
145,8,83249,1,2,1:2:0:0:
67,277,83409,1,2,1:2:0:0:
298,58,83568,5,12,0:0:0:0:
54,152,83728,1,2,1:2:0:0:
326,247,83887,1,2,1:2:0:0:
145,8,84047,6,0,L|157:122,1,105.000004005432,12|0,0:0|0:0,0:0:0:0:
215,289,84366,1,8,0:3:0:0:
298,58,84526,5,8,0:0:0:0:
118,274,84685,1,0,0:0:0:0:
40,61,84845,1,8,0:3:0:0:
313,162,85004,5,10,0:0:0:0:
23,223,85164,1,0,0:0:0:0:
370,264,85324,5,10,0:0:0:0:
108,125,85484,1,0,0:0:0:0:
361,12,85643,5,12,0:0:0:0:
270,295,85802,1,2,1:2:0:0:
160,51,85962,1,2,1:2:0:0:
452,119,86121,5,12,0:0:0:0:
178,245,86281,1,2,1:2:0:0:
250,20,86441,1,2,1:2:0:0:
396,217,86600,6,0,L|282:205,1,105.000004005432,12|0,0:0|0:0,0:0:0:0:
160,51,86919,1,8,0:3:0:0:
42,284,87079,6,0,B|31:247|31:247|44:167,1,105.000004005432,8|0,0:0|0:0,0:0:0:0:
281,66,87398,1,8,0:0:0:0:
153,364,87558,5,8,0:0:0:0:
90,106,87717,1,8,0:0:0:0:
362,204,87877,1,8,0:0:0:0:
42,284,88036,6,0,B|258:156|258:412|474:284,1,455,12|0,0:0|0:0,0:0:0:0:
362,204,89153,5,10,0:0:0:0:
153,364,89313,1,14,0:0:0:0:
