osu file format v14

[General]
AudioFilename: audio.mp3
AudioLeadIn: 0
PreviewTime: -1
Countdown: 1
SampleSet: Soft
StackLeniency: 0.7
Mode: 0
LetterboxInBreaks: 0
WidescreenStoryboard: 1

[Editor]
DistanceSpacing: 1.4
BeatDivisor: 4
GridSize: 4
TimelineZoom: 2.899999

[Metadata]
Title:Peace Sign
TitleUnicode:Peace Sign
Artist:Kenshi Yonezu
ArtistUnicode:米津玄師
Creator:_Friel_
Version:Insane
Source:Boku no Hero Academia 2nd Season
Tags:Boku no hero academia op2
BeatmapID:1284925
BeatmapSetID:605498

[Difficulty]
HPDrainRate:5
CircleSize:4
OverallDifficulty:6
ApproachRate:8.6
SliderMultiplier:1.40000000596046
SliderTickRate:3

[Events]
//Background and Video events
0,0,"e38ca305242024b7d94ee125f3bee091cfe3ce0091ba05a50a3120e1a9927777.jpg",0,0
//Break Periods
//Storyboard Layer 0 (Background)
//Storyboard Layer 1 (Fail)
//Storyboard Layer 2 (Pass)
//Storyboard Layer 3 (Foreground)
//Storyboard Sound Samples

[TimingPoints]
359,300,4,2,11,70,1,0
1553,-100,4,2,11,70,0,0
9977,-100,4,2,11,70,0,0
19559,-133.333333333333,4,2,11,70,0,0
29159,-100,4,2,11,70,0,0
38759,-111.111111111111,4,2,11,70,0,0
59459,-133.333333333333,4,2,11,60,0,0
60359,-90.9090909090909,4,1,11,80,0,1
69209,-90.9090909090909,4,1,11,80,0,1
78809,-90.9090909090909,4,2,11,80,0,1
84359,-100,4,2,11,70,0,0

[HitObjects]
112,248,359,5,0,0:0:0:0:
208,60,509,1,0,0:0:0:0:
348,216,659,1,0,0:0:0:0:
148,156,809,2,0,P|184:108|208:104,1,70.000000298023
348,244,1109,1,0,0:0:0:0:
144,284,1259,2,0,P|112:240|128:204,1,70.000000298023
180,28,1559,1,0,0:0:0:0:
388,64,1709,2,0,P|388:108|352:128,1,70.000000298023
196,244,2009,1,0,0:0:0:0:
76,72,2159,5,0,0:0:0:0:
236,208,2309,1,0,0:0:0:0:
148,16,2459,1,0,0:0:0:0:
328,76,2609,1,0,0:0:0:0:
288,308,2759,2,0,P|232:332|136:304,1,140.000000596046
52,136,3209,1,0,0:0:0:0:
260,136,3359,1,0,0:0:0:0:
80,248,3509,1,0,0:0:0:0:
288,212,3659,1,0,0:0:0:0:
120,84,3809,1,0,0:0:0:0:
324,128,3959,2,0,B|304:172|364:168|372:164|388:188,1,70.000000298023
176,264,4259,2,0,B|204:244|220:296|232:288|256:292,1,70.000000298023
420,192,4559,2,0,P|436:248|412:268,1,70.000000298023
360,324,4859,1,0,0:0:0:0:
416,120,5009,1,0,0:0:0:0:
300,40,5159,2,0,B|204:4|192:92,1,140.000000596046
300,180,5609,1,0,0:0:0:0:
160,176,5759,2,0,P|112:196|120:232,1,70.000000298023
208,308,6059,2,0,P|228:344|272:348,1,70.000000298023
376,168,6359,2,0,P|388:128|368:104,1,70.000000298023
136,172,6659,2,0,P|76:164|68:144,1,70.000000298023
376,220,6959,1,0,0:0:0:0:
256,108,7109,1,0,0:0:0:0:
296,308,7259,1,0,0:0:0:0:
372,116,7409,1,0,0:0:0:0:
200,152,7559,2,0,P|108:120|20:196,1,210.000000894069
256,192,8759,12,0,9659,0:0:0:0:
80,144,9959,6,0,L|160:96,1,70.000000298023
256,300,10409,1,0,0:0:0:0:
332,80,10709,1,0,0:0:0:0:
476,196,11009,2,0,P|484:268|428:316,1,140.000000596046
244,312,11609,1,0,0:0:0:0:
168,132,11909,2,0,L|248:100,2,70.000000298023
244,196,12509,2,0,L|264:116,2,70.000000298023
76,300,13109,1,0,0:0:0:0:
80,204,13259,1,0,0:0:0:0:
160,260,13409,1,0,0:0:0:0:
156,164,13559,6,0,L|196:76,1,70.000000298023
272,56,13859,2,0,L|368:44,1,70.000000298023
484,180,14309,2,0,P|492:232|464:240,2,70.000000298023
420,104,14759,2,0,L|336:140,1,70.000000298023
192,240,15209,1,0,0:0:0:0:
372,320,15509,1,0,0:0:0:0:
360,124,15809,1,0,0:0:0:0:
192,240,16109,1,0,0:0:0:0:
352,128,16409,1,0,0:0:0:0:
176,40,16709,1,0,0:0:0:0:
92,92,16859,1,0,0:0:0:0:
84,188,17009,1,0,0:0:0:0:
276,160,17309,1,0,0:0:0:0:
364,116,17459,1,0,0:0:0:0:
320,28,17609,1,0,0:0:0:0:
132,80,17909,6,0,L|104:176,1,70.000000298023
252,140,18209,2,0,L|296:232,1,70.000000298023
152,200,18509,1,0,0:0:0:0:
264,284,18659,1,0,0:0:0:0:
384,212,18809,1,0,0:0:0:0:
384,84,19109,2,0,P|416:108|404:204,1,140.000000596046
360,256,19559,1,0,0:0:0:0:
264,144,19859,2,0,P|224:160|216:184,1,52.5000022262334
200,236,20309,2,0,P|148:232|136:176,1,105.000004452467
152,116,20759,2,0,L|212:92,2,52.5000022262334
92,156,21209,1,0,0:0:0:0:
236,132,21509,2,0,L|304:108,1,52.5000022262334
280,188,21809,2,0,L|248:240,1,52.5000022262334
192,188,22109,2,0,L|128:152,1,52.5000022262334
284,112,22559,1,0,0:0:0:0:
448,156,22859,2,0,P|456:216|424:232,1,105.000004452467
260,276,23459,1,0,0:0:0:0:
200,248,23609,1,0,0:0:0:0:
92,148,23909,2,0,L|152:112,1,52.5000022262334
148,192,24209,2,0,L|208:156,1,52.5000022262334
316,84,24659,2,0,L|368:136,1,52.5000022262334
372,192,25109,1,0,0:0:0:0:
248,116,25409,2,0,P|220:136|220:164,1,52.5000022262334
284,240,25859,2,0,P|240:264|224:252,1,52.5000022262334
104,224,26309,1,0,0:0:0:0:
128,124,26459,1,0,0:0:0:0:
212,188,26609,1,0,0:0:0:0:
252,92,26759,1,0,0:0:0:0:
436,196,27059,2,0,P|440:232|416:240,1,52.5000022262334
220,252,27509,2,0,L|216:192,2,52.5000022262334
40,144,28109,2,0,P|68:104|88:96,1,52.5000022262334
112,164,28409,2,0,P|152:136|172:136,1,52.5000022262334
228,136,28709,1,0,0:0:0:0:
172,272,28859,1,0,0:0:0:0:
52,188,29009,1,0,0:0:0:0:
244,236,29159,1,0,0:0:0:0:
396,112,29459,2,0,P|432:148|432:180,1,70.000000298023
304,312,29909,1,0,0:0:0:0:
116,260,30209,2,0,P|104:208|128:188,1,70.000000298023
212,32,30659,2,0,P|248:56|232:92,1,70.000000298023
88,200,31109,1,0,0:0:0:0:
176,152,31259,1,0,0:0:0:0:
80,156,31409,1,0,0:0:0:0:
168,200,31559,1,0,0:0:0:0:
328,316,31859,2,0,P|392:264|400:256,2,70.000000298023
400,132,32459,1,0,0:0:0:0:
308,104,32609,1,0,0:0:0:0:
244,176,32759,1,0,0:0:0:0:
420,264,33059,2,0,P|456:224|448:192,1,70.000000298023
284,120,33509,1,0,0:0:0:0:
144,128,33659,1,0,0:0:0:0:
216,248,33809,1,0,0:0:0:0:
356,264,33959,2,0,P|396:188|380:116,1,140.000000596046
332,56,34409,1,0,0:0:0:0:
136,56,34709,2,0,P|116:104|172:168,1,140.000000596046
244,228,35159,1,0,0:0:0:0:
384,156,35459,2,0,P|364:204|336:204,1,70.000000298023
160,244,35909,1,0,0:0:0:0:
240,128,36059,1,0,0:0:0:0:
316,244,36209,1,0,0:0:0:0:
340,104,36359,2,0,P|392:156|376:248,1,140.000000596046
348,308,36809,1,0,0:0:0:0:
160,260,37109,2,0,P|112:224|124:200,1,70.000000298023
128,128,37409,1,0,0:0:0:0:
212,76,37559,2,0,P|264:56|284:68,1,70.000000298023
344,128,37859,1,0,0:0:0:0:
356,224,38009,2,0,P|332:256|296:252,1,70.000000298023
288,160,38309,2,0,P|248:184|208:172,1,70.000000298023
140,136,38609,1,0,0:0:0:0:
184,60,38759,1,0,0:0:0:0:
340,140,39059,2,0,P|328:216|268:232,1,125.999996691227
280,56,39659,1,0,0:0:0:0:
196,84,39809,1,0,0:0:0:0:
260,144,39959,1,0,0:0:0:0:
92,88,40259,2,0,P|116:172|152:200,1,125.999996691227
316,160,40859,6,0,L|368:108,2,62.9999983456133
144,52,41459,2,0,P|116:100|124:116,1,62.9999983456133
120,280,41909,2,0,P|196:320|244:284,1,125.999996691227
312,284,42359,2,0,P|368:292|376:280,1,62.9999983456133
312,224,42659,2,0,P|344:212|352:172,1,62.9999983456133
348,100,42959,1,0,0:0:0:0:
292,32,43109,1,0,0:0:0:0:
280,120,43259,1,0,0:0:0:0:
212,60,43409,2,0,P|176:92|168:120,1,62.9999983456133
84,96,43859,2,0,P|72:136|84:160,1,62.9999983456133
208,276,44309,1,0,0:0:0:0:
348,172,44609,2,0,P|304:148|272:148,1,62.9999983456133
124,96,45059,2,0,L|88:176,1,62.9999983456133
112,240,45509,1,0,0:0:0:0:
276,308,45809,2,0,L|344:256,1,62.9999983456133
260,212,46109,2,0,L|272:128,1,62.9999983456133
180,144,46409,1,0,0:0:0:0:
324,44,46709,2,0,P|384:108|388:160,1,125.999996691227
344,220,47159,2,0,P|304:256|276:256,1,62.9999983456133
288,344,47459,2,0,P|232:316|228:300,1,62.9999983456133
108,88,48059,1,0,0:0:0:0:
112,176,48209,1,0,0:0:0:0:
184,128,48359,2,0,P|204:200|160:228,1,125.999996691227
296,80,49259,1,0,0:0:0:0:
352,148,49409,1,0,0:0:0:0:
264,160,49559,2,0,P|200:120|216:80,1,125.999996691227
88,320,50459,1,0,0:0:0:0:
128,240,50609,1,0,0:0:0:0:
192,300,50759,2,0,P|272:280|280:220,1,125.999996691227
252,164,51209,1,0,0:0:0:0:
108,24,51509,2,0,P|64:92|84:136,1,125.999996691227
160,184,51959,1,0,0:0:0:0:
256,216,52109,1,0,0:0:0:0:
352,188,52259,1,0,0:0:0:0:
440,136,52409,1,0,0:0:0:0:
356,80,52559,2,0,P|316:80|292:108,1,62.9999983456133
268,56,52859,2,0,P|236:88|236:116,1,62.9999983456133
184,112,53159,1,0,0:0:0:0:
92,152,53459,2,0,P|112:196|148:204,1,62.9999983456133
144,296,54059,2,0,P|188:312|204:296,1,62.9999983456133
140,236,54359,2,0,P|168:212|164:180,1,62.9999983456133
80,180,54659,2,0,P|56:144|32:144,1,62.9999983456133
304,132,55259,1,0,0:0:0:0:
172,12,55559,2,0,P|124:80|116:136,1,125.999996691227
140,204,56009,1,0,0:0:0:0:
196,272,56159,2,0,P|292:268|340:248,1,125.999996691227
368,196,56609,1,0,0:0:0:0:
372,108,56759,2,0,P|300:68|236:68,1,125.999996691227
280,148,57209,1,0,0:0:0:0:
232,220,57359,2,0,P|180:160|196:104,1,125.999996691227
256,192,57959,12,0,59009,0:0:0:0:
112,276,59459,6,0,L|116:216,1,52.5000022262334
172,268,59759,2,0,L|216:220,1,52.5000022262334
248,292,60059,2,0,L|304:308,1,52.5000022262334
400,268,60359,1,0,0:0:0:0:
316,68,60659,2,0,L|220:124,1,77.0000026776789
356,128,61109,1,0,0:0:0:0:
240,80,61409,2,0,P|144:136|152:192,1,154.000005355358
296,148,61859,1,0,0:0:0:0:
204,236,62009,1,0,0:0:0:0:
108,184,62159,1,0,0:0:0:0:
184,108,62309,1,0,0:0:0:0:
392,56,62609,2,0,P|416:152|368:192,1,154.000005355358
284,228,63059,1,0,0:0:0:0:
228,136,63209,2,0,P|156:208|176:252,1,154.000005355358
260,304,63659,1,0,0:0:0:0:
356,256,63809,1,0,0:0:0:0:
392,44,64109,2,0,P|328:52|308:76,1,77.0000026776789
388,140,64409,1,0,0:0:0:0:
176,172,64709,1,0,0:0:0:0:
248,252,64859,1,0,0:0:0:0:
108,88,65159,1,0,0:0:0:0:
140,300,65459,2,0,L|224:248,1,77.0000026776789
192,152,65909,1,0,0:0:0:0:
392,68,66209,2,0,P|444:144|432:200,1,154.000005355358
348,268,66659,1,0,0:0:0:0:
248,232,66809,1,0,0:0:0:0:
308,144,66959,1,0,0:0:0:0:
308,276,67109,1,0,0:0:0:0:
360,92,67259,1,0,0:0:0:0:
188,224,67409,1,0,0:0:0:0:
256,192,67709,12,0,68759,0:0:0:0:
112,148,69059,6,0,L|188:104,1,77.0000026776789
176,216,69359,2,0,L|268:232,1,77.0000026776789
300,132,69659,1,0,0:0:0:0:
476,256,69959,2,0,P|380:292|336:272,1,154.000005355358
248,212,70409,1,0,0:0:0:0:
84,72,70709,1,0,0:0:0:0:
300,68,71009,2,0,P|384:120|384:204,1,154.000005355358
308,236,71459,1,0,0:0:0:0:
200,244,71609,2,0,P|144:200|140:168,1,77.0000026776789
240,148,71909,1,0,0:0:0:0:
452,112,72209,2,0,P|372:40|324:64,1,154.000005355358
260,120,72659,1,0,0:0:0:0:
328,204,72809,1,0,0:0:0:0:
128,288,73109,2,0,P|112:216|128:192,1,77.0000026776789
220,232,73409,1,0,0:0:0:0:
372,80,73709,2,0,P|328:36|300:52,1,77.0000026776789
264,128,74009,2,0,P|292:228|328:220,1,154.000005355358
156,52,74759,2,0,P|112:144|140:216,1,154.000005355358
200,268,75209,1,0,0:0:0:0:
368,132,75509,1,0,0:0:0:0:
368,352,75809,6,0,P|456:292|448:248,1,154.000005355358
416,156,76259,1,0,0:0:0:0:
324,96,76409,2,0,L|232:84,1,77.0000026776789
280,188,76709,1,0,0:0:0:0:
172,188,76859,2,0,L|196:276,1,77.0000026776789
256,192,77309,12,0,78959,0:0:0:0:
432,56,79259,6,0,L|344:92,1,77.0000026776789
300,172,79559,1,0,0:0:0:0:
440,276,79859,1,0,0:0:0:0:
336,296,80009,1,0,0:0:0:0:
208,124,80309,2,0,P|144:148|140:172,1,77.0000026776789
220,228,80609,1,0,0:0:0:0:
432,184,80909,2,0,P|412:124|392:120,1,77.0000026776789
300,108,81209,1,0,0:0:0:0:
196,80,81659,1,0,0:0:0:0:
196,188,81809,1,0,0:0:0:0:
292,136,81959,1,0,0:0:0:0:
496,64,82259,2,0,P|496:128|476:140,1,77.0000026776789
456,344,82709,2,0,P|372:344|344:280,1,154.000005355358
328,184,83159,1,0,0:0:0:0:
260,100,83309,1,0,0:0:0:0:
328,236,83459,1,0,0:0:0:0:
152,180,83609,1,0,0:0:0:0:
360,132,83759,1,0,0:0:0:0:
176,268,83909,1,0,0:0:0:0:
