osu file format v14

[General]
AudioFilename: audio.mp3
AudioLeadIn: 0
PreviewTime: -1
Countdown: 1
SampleSet: Soft
StackLeniency: 0.7
Mode: 0
LetterboxInBreaks: 0
WidescreenStoryboard: 1

[Editor]
DistanceSpacing: 0.8
BeatDivisor: 4
GridSize: 4
TimelineZoom: 2.899999

[Metadata]
Title:Peace Sign
TitleUnicode:Peace Sign
Artist:Kenshi Yonezu
ArtistUnicode:米津玄師
Creator:_Friel_
Version:Hard
Source:Boku no Hero Academia 2nd Season
Tags:Boku no hero academia op2
BeatmapID:1282962
BeatmapSetID:605498

[Difficulty]
HPDrainRate:6
CircleSize:4
OverallDifficulty:6
ApproachRate:8
SliderMultiplier:1.40000000596046
SliderTickRate:3

[Events]
//Background and Video events
0,0,"e38ca305242024b7d94ee125f3bee091cfe3ce0091ba05a50a3120e1a9927777.jpg",0,0
//Break Periods
//Storyboard Layer 0 (Background)
//Storyboard Layer 1 (Fail)
//Storyboard Layer 2 (Pass)
//Storyboard Layer 3 (Foreground)
//Storyboard Sound Samples

[TimingPoints]
359,300,4,2,11,70,1,0
1553,-100,4,2,11,70,0,0
9977,-100,4,2,11,70,0,0
19559,-133.333333333333,4,2,11,70,0,0
29159,-100,4,2,11,70,0,0
38759,-111.111111111111,4,2,11,70,0,0
59459,-133.333333333333,4,2,11,60,0,0
60359,-90.9090909090909,4,1,11,80,0,1
69209,-90.9090909090909,4,1,11,80,0,1
78809,-90.9090909090909,4,2,11,80,0,1
84359,-100,4,2,11,70,0,0

[HitObjects]
104,208,359,6,0,P|88:152|104:116,1,70.000000298023
128,64,659,2,0,P|156:36|192:32,2,70.000000298023
264,48,1109,5,0,0:0:0:0:
324,88,1259,1,0,0:0:0:0:
336,168,1409,6,0,P|328:224|296:240,2,70.000000298023
124,288,1859,2,0,P|80:252|92:220,1,70.000000298023
124,156,2159,2,0,P|172:152|184:116,1,70.000000298023
212,48,2459,2,0,P|248:32|292:40,1,70.000000298023
376,60,2759,6,0,P|472:176|428:292,1,280.000001192092
406,300,3509,1,0,0:0:0:0:
335,340,3659,1,0,0:0:0:0:
263,313,3809,1,0,0:0:0:0:
254,235,3959,1,0,0:0:0:0:
310,180,4109,1,0,0:0:0:0:
354,117,4259,6,0,L|296:52,1,70.000000298023
241,39,4559,2,0,L|156:55,1,70.000000298023
121,122,4859,2,0,L|91:201,1,70.000000298023
132,286,5159,2,0,P|272:340|392:253,1,280.000001192092
370,82,6059,6,0,L|281:65,1,70.000000298023
228,72,6359,2,0,L|137:113,1,70.000000298023
120,162,6659,2,0,L|88:258,1,70.000000298023
181,299,6959,2,0,L|265:288,1,70.000000298023
370,189,7259,2,0,L|295:170,1,70.000000298023
256,192,7559,12,0,9359,0:0:0:0:
174,84,9959,6,0,L|106:143,1,70.000000298023
94,280,10409,1,0,0:0:0:0:
126,56,10709,1,0,0:0:0:0:
28,226,11009,1,0,0:0:0:0:
213,91,11309,1,0,0:0:0:0:
113,332,11609,1,0,0:0:0:0:
232,327,11909,2,0,L|320:288,1,70.000000298023
367,264,12209,1,0,0:0:0:0:
424,98,12509,2,0,L|403:173,1,70.000000298023
376,265,12809,1,0,0:0:0:0:
101,293,13109,1,0,0:0:0:0:
95,198,13259,1,0,0:0:0:0:
156,113,13409,1,0,0:0:0:0:
299,100,13559,1,0,0:0:0:0:
171,191,13709,1,0,0:0:0:0:
242,32,13859,1,0,0:0:0:0:
247,230,14009,1,0,0:0:0:0:
341,163,14309,2,0,L|401:245,2,70.000000298023
221,96,14759,2,0,L|139:159,1,70.000000298023
87,205,15209,1,0,0:0:0:0:
153,308,15509,2,0,L|303:324,1,140.000000596046
369,255,16109,2,0,L|386:110,1,140.000000596046
287,98,16709,2,0,L|201:58,2,70.000000298023
274,178,17309,2,0,L|187:213,2,70.000000298023
235,106,17909,1,0,0:0:0:0:
155,97,18059,1,0,0:0:0:0:
113,164,18209,1,0,0:0:0:0:
139,236,18359,1,0,0:0:0:0:
205,266,18509,1,0,0:0:0:0:
274,231,18659,1,0,0:0:0:0:
320,168,18809,2,0,P|360:76|320:32,1,140.000000596046
184,40,19259,2,0,L|120:116,1,70.000000298023
120,136,19559,1,0,0:0:0:0:
112,228,19859,2,0,L|140:284,1,52.5000022262334
196,292,20309,1,0,0:0:0:0:
384,276,20609,2,0,P|416:252|412:224,1,52.5000022262334
360,88,21059,1,0,0:0:0:0:
288,48,21209,1,0,0:0:0:0:
164,68,21509,2,0,L|100:112,1,52.5000022262334
168,160,21809,2,0,L|132:204,1,52.5000022262334
200,248,22109,2,0,L|208:304,1,52.5000022262334
256,96,22559,1,0,0:0:0:0:
424,156,22859,1,0,0:0:0:0:
204,168,23159,1,0,0:0:0:0:
380,236,23459,2,0,L|320:280,1,52.5000022262334
184,296,23909,2,0,P|140:272|136:260,1,52.5000022262334
192,212,24209,2,0,P|172:172|184:156,1,52.5000022262334
264,156,24659,1,0,0:0:0:0:
264,156,24809,1,0,0:0:0:0:
128,60,25109,1,0,0:0:0:0:
132,228,25409,2,0,P|140:256|172:276,1,52.5000022262334
224,208,25859,2,0,P|260:220|288:204,1,52.5000022262334
424,48,26309,2,0,P|444:88|432:112,1,52.5000022262334
376,112,26609,2,0,P|368:148|340:160,1,52.5000022262334
104,160,27059,2,0,P|88:196|100:228,1,52.5000022262334
184,288,27509,1,0,0:0:0:0:
264,292,27659,1,0,0:0:0:0:
340,248,27809,2,0,P|376:200|348:144,1,105.000004452467
264,80,28709,1,0,0:0:0:0:
152,56,28859,1,0,0:0:0:0:
200,156,29009,1,0,0:0:0:0:
152,56,29159,1,0,0:0:0:0:
104,136,29459,2,0,P|72:192|80:220,1,70.000000298023
160,256,29909,1,0,0:0:0:0:
248,212,30209,2,0,P|284:176|292:136,1,70.000000298023
300,64,30659,1,0,0:0:0:0:
300,64,30809,1,0,0:0:0:0:
132,80,31109,2,0,P|100:120|108:140,1,70.000000298023
176,148,31409,2,0,P|184:196|216:208,1,70.000000298023
348,140,31859,1,0,0:0:0:0:
376,200,32009,1,0,0:0:0:0:
352,264,32159,1,0,0:0:0:0:
156,284,32459,2,0,P|112:240|108:216,1,70.000000298023
108,220,32759,1,0,0:0:0:0:
112,96,33059,2,0,P|144:56|192:60,1,70.000000298023
308,80,33509,1,0,0:0:0:0:
408,72,33659,1,0,0:0:0:0:
344,160,33809,1,0,0:0:0:0:
408,72,33959,1,0,0:0:0:0:
432,196,34259,2,0,P|428:236|396:264,1,70.000000298023
280,284,34709,1,0,0:0:0:0:
148,244,35009,2,0,P|112:212|112:160,1,70.000000298023
192,80,35459,2,0,P|244:56|268:64,1,70.000000298023
344,84,35909,1,0,0:0:0:0:
396,132,36059,1,0,0:0:0:0:
384,200,36209,1,0,0:0:0:0:
336,248,36359,1,0,0:0:0:0:
248,288,36659,2,0,P|196:292|164:292,1,70.000000298023
120,224,37109,1,0,0:0:0:0:
56,140,37259,1,0,0:0:0:0:
160,112,37409,2,0,P|200:92|232:112,1,70.000000298023
400,160,37859,2,0,L|376:248,1,70.000000298023
308,232,38309,2,0,L|344:312,1,70.000000298023
260,312,38759,2,0,P|168:328|120:296,1,125.999996691227
96,208,39359,1,0,0:0:0:0:
176,96,39659,2,0,P|248:64|312:72,2,125.999996691227
112,196,40559,1,0,0:0:0:0:
232,312,40859,2,0,L|312:304,2,62.9999983456133
136,276,41459,2,0,P|92:240|84:208,1,62.9999983456133
284,240,41909,2,0,P|348:224|368:160,1,125.999996691227
312,72,42359,2,0,P|256:60|228:72,1,62.9999983456133
256,132,42659,2,0,P|208:140|184:172,1,62.9999983456133
244,208,42959,2,0,P|208:244|204:276,1,62.9999983456133
280,272,43259,2,0,P|292:304|332:320,1,62.9999983456133
164,320,43559,1,0,0:0:0:0:
88,240,43859,2,0,P|64:196|80:160,1,62.9999983456133
136,92,44309,1,0,0:0:0:0:
248,80,44609,2,0,P|300:88|328:112,1,62.9999983456133
348,120,45059,1,0,0:0:0:0:
384,160,45209,2,0,P|424:232|400:276,1,125.999996691227
364,292,45809,1,0,0:0:0:0:
364,292,45959,1,0,0:0:0:0:
288,324,46259,2,0,P|244:332|208:308,1,62.9999983456133
152,276,46709,1,0,0:0:0:0:
88,132,47009,1,0,0:0:0:0:
312,104,48059,2,0,P|312:156|288:180,1,62.9999983456133
232,132,48359,2,0,P|224:208|272:252,1,125.999996691227
148,304,49259,2,0,P|104:280|100:244,1,62.9999983456133
168,236,49559,2,0,P|120:184|48:200,1,125.999996691227
96,96,50459,2,0,L|180:68,1,62.9999983456133
220,52,50759,2,0,P|300:48|348:80,1,125.999996691227
352,92,51209,1,0,0:0:0:0:
392,216,51509,2,0,P|364:284|312:288,1,125.999996691227
232,300,52559,2,0,L|168:264,1,62.9999983456133
268,224,52859,2,0,L|296:168,1,62.9999983456133
204,180,53159,1,0,0:0:0:0:
132,160,53459,2,0,P|116:116|140:88,1,62.9999983456133
352,56,54059,2,0,L|420:96,1,62.9999983456133
360,144,54359,2,0,L|352:228,1,62.9999983456133
444,196,54659,1,0,0:0:0:0:
396,252,55259,1,0,0:0:0:0:
356,280,55559,2,0,P|264:324|148:268,1,220.499994209647
144,256,56159,2,0,P|116:156|184:72,1,220.499994209647
216,56,56759,2,0,P|308:40|384:172,1,251.999993382453
256,192,57509,12,0,58859,0:0:0:0:
124,204,59459,5,0,0:0:0:0:
452,136,59759,1,0,0:0:0:0:
208,92,60059,1,0,0:0:0:0:
408,192,60359,2,0,P|356:256|276:280,1,154.000005355358
204,296,60809,1,0,0:0:0:0:
128,264,61109,2,0,P|72:200|92:116,1,154.000005355358
216,60,61709,1,0,0:0:0:0:
300,68,61859,2,0,P|344:80|368:136,1,77.0000026776789
384,228,62159,2,0,P|368:276|316:288,1,77.0000026776789
208,300,62609,1,0,0:0:0:0:
108,204,62909,2,0,P|96:148|120:112,1,77.0000026776789
180,152,63209,2,0,P|216:132|272:152,1,77.0000026776789
240,212,63509,2,0,P|276:240|288:288,1,77.0000026776789
408,148,63809,1,0,0:0:0:0:
392,224,64109,2,0,P|384:288|352:300,1,77.0000026776789
284,312,64409,1,0,0:0:0:0:
208,312,64559,1,0,0:0:0:0:
144,272,64709,1,0,0:0:0:0:
132,200,64859,1,0,0:0:0:0:
196,80,65159,2,0,L|352:104,1,154.000005355358
408,200,65609,1,0,0:0:0:0:
224,280,65909,1,0,0:0:0:0:
100,260,66209,2,0,P|60:184|76:104,1,154.000005355358
176,36,66659,1,0,0:0:0:0:
252,80,66809,2,0,P|288:96|308:136,1,77.0000026776789
332,244,67109,2,0,P|304:288|264:300,1,77.0000026776789
256,192,67409,12,0,68459,0:0:0:0:
132,224,69059,5,0,0:0:0:0:
244,32,69359,1,0,0:0:0:0:
364,200,69659,1,0,0:0:0:0:
416,260,69959,2,0,L|232:288,1,154.000005355358
192,252,70409,1,0,0:0:0:0:
136,168,70709,1,0,0:0:0:0:
236,56,71009,1,0,0:0:0:0:
380,72,71309,2,0,L|432:152,1,77.0000026776789
352,168,71609,2,0,L|324:256,1,77.0000026776789
428,260,71909,1,0,0:0:0:0:
328,308,72209,2,0,P|240:312|156:276,1,154.000005355358
104,236,72659,2,0,L|88:132,1,77.0000026776789
140,92,73109,1,0,0:0:0:0:
228,72,73259,1,0,0:0:0:0:
300,116,73409,1,0,0:0:0:0:
344,200,73559,2,0,L|260:252,1,77.0000026776789
216,188,73859,2,0,L|172:288,1,77.0000026776789
252,300,74309,1,0,0:0:0:0:
252,300,74459,1,0,0:0:0:0:
64,208,74759,2,0,P|92:140|184:92,1,154.000005355358
160,184,75209,2,0,P|228:148|256:56,1,154.000005355358
360,176,75809,1,0,0:0:0:0:
304,296,76109,2,0,L|220:232,1,77.0000026776789
184,308,76409,2,0,L|156:224,1,77.0000026776789
72,240,76709,2,0,L|104:144,1,77.0000026776789
124,88,77009,1,0,0:0:0:0:
256,192,77159,12,0,78959,0:0:0:0:
76,208,79259,6,0,L|96:104,1,77.0000026776789
136,72,79559,1,0,0:0:0:0:
152,256,79859,2,0,L|240:280,1,77.0000026776789
340,268,80309,2,0,L|400:188,2,77.0000026776789
364,112,80759,1,0,0:0:0:0:
316,52,80909,2,0,L|232:40,1,77.0000026776789
180,44,81209,1,0,0:0:0:0:
100,184,81659,2,0,P|108:240|148:260,2,77.0000026776789
244,312,82259,2,0,P|288:328|328:296,1,77.0000026776789
408,280,82709,2,0,P|432:244|440:196,1,77.0000026776789
496,236,83009,2,0,P|496:168|476:132,1,77.0000026776789
440,88,83309,1,0,0:0:0:0:
384,40,83459,1,0,0:0:0:0:
312,52,83609,1,0,0:0:0:0:
256,96,83759,2,0,P|228:140|252:184,1,77.0000026776789
