osu file format v14

[General]
AudioFilename: audio.mp3
AudioLeadIn: 0
PreviewTime: 59384
Countdown: 0
SampleSet: Normal
StackLeniency: 0.3
Mode: 0
LetterboxInBreaks: 0
WidescreenStoryboard: 0

[Editor]
DistanceSpacing: 1.5
BeatDivisor: 4
GridSize: 4
TimelineZoom: 2.3

[Metadata]
Title:Peace Sign (TV edit.)
TitleUnicode:ピースサイン(TV edit.)
Artist:Kenshi Yonezu
ArtistUnicode:米津玄師
Creator:Yasaija 714
Version:toybot's Insane
Source:僕のヒーローアカデミア
Tags:ハチ boku no hero academia opening tv size Lefia Pata-Mon toybot _kotachi_ Lasse
BeatmapID:1283324
BeatmapSetID:593466

[Difficulty]
HPDrainRate:5
CircleSize:3.5
OverallDifficulty:7
ApproachRate:9
SliderMultiplier:1.6
SliderTickRate:1

[Events]
//Background and Video events
0,0,"BG.jpg",0,0
Video,0,"video.avi"
//Break Periods
//Storyboard Layer 0 (Background)
//Storyboard Layer 1 (Fail)
//Storyboard Layer 2 (Pass)
//Storyboard Layer 3 (Foreground)
//Storyboard Sound Samples

[TimingPoints]
359,300,4,1,1,50,1,0
359,-133.333333333333,4,1,1,50,0,0
9359,-133.333333333333,4,2,1,40,0,0
9959,-100,4,1,1,60,0,0
19559,-125,4,2,1,50,0,0
28859,-100,4,2,1,50,0,0
29609,-125,4,2,1,50,0,0
38759,-125,4,2,1,60,0,0
56159,-111.111111111111,4,2,1,60,0,0
57959,-111.111111111111,4,1,1,70,0,0
58409,-90.9090909090909,4,1,1,70,0,0
58446,-90.9090909090909,4,1,1,5,0,0
58709,-90.9090909090909,4,1,1,70,0,0
58746,-90.9090909090909,4,1,1,70,0,0
59459,-90.9090909090909,4,2,1,50,0,0
59759,-325,4,2,1,60,0,0
60284,-136.986301369863,4,2,1,5,0,0
60359,-90.9090909090909,4,1,1,80,0,1
69059,-80,4,1,1,80,0,1
69959,-90.9090909090909,4,1,1,80,0,1
84359,-100,4,1,1,80,0,0
88559,-90.9090909090909,4,1,1,80,0,0
89159,-90.9090909090909,4,1,1,20,0,0

[Colours]
Combo1 : 181,136,0
Combo2 : 0,132,0
Combo3 : 128,255,255
Combo4 : 255,128,128

[HitObjects]
122,179,359,6,0,L|266:171,1,120.000004577637,4|0,0:0|0:0,0:0:0:0:
106,275,809,2,0,L|250:267,1,120.000004577637,8|0,0:0|0:0,0:0:0:0:
90,371,1259,2,0,L|168:368,1,60.0000022888184,8|0,0:0|2:0,0:0:0:0:
345,261,1559,6,0,L|201:269,1,120.000004577637,0|0,0:0|0:0,0:0:0:0:
361,165,2009,2,0,L|217:173,1,120.000004577637,8|2,0:0|0:0,0:0:0:0:
377,69,2459,2,0,L|299:72,1,60.0000022888184,8|0,0:0|2:0,0:0:0:0:
104,12,2759,6,0,L|182:15,1,60.0000022888184,0|0,0:0|2:0,0:0:0:0:
248,20,3059,1,0,0:0:0:0:
112,104,3209,2,0,L|190:107,1,60.0000022888184,8|0,0:0|2:0,0:0:0:0:
256,112,3509,1,0,0:0:0:0:
120,196,3659,2,0,L|198:199,1,60.0000022888184,8|0,0:0|2:0,0:0:0:0:
331,298,3959,6,0,L|253:295,1,60.0000022888184,0|0,0:0|2:0,0:0:0:0:
187,290,4259,1,0,0:0:0:0:
323,206,4409,2,0,L|245:203,1,60.0000022888184,8|0,0:0|2:0,0:0:0:0:
179,198,4709,1,2,0:0:0:0:
315,114,4859,2,0,L|256:112,1,60.0000022888184,8|2,0:0|0:0,0:0:0:0:
68,93,5159,6,0,P|88:148|73:205,1,120.000004577637,4|0,0:0|0:0,0:0:0:0:
164,77,5609,2,0,P|154:135|112:177,1,120.000004577637,8|0,0:0|0:0,0:0:0:0:
255,111,6059,2,0,P|240:137|217:156,1,60.0000022888184,8|0,0:0|2:0,0:0:0:0:
24,200,6359,6,0,P|81:215|136:194,1,120.000004577637,0|0,0:0|0:0,0:0:0:0:
15,295,6809,2,0,P|72:280|110:234,1,120.000004577637,8|2,0:0|0:0,0:0:0:0:
57,382,7259,2,0,P|81:365|98:341,1,60.0000022888184,8|0,0:0|2:0,0:0:0:0:
136,194,7559,6,0,L|120:120,1,60.0000022888184,0|0,0:0|2:0,0:0:0:0:
92,52,7859,1,0,0:0:0:0:
311,88,8009,2,0,P|254:104|197:88,1,120.000004577637,8|0,0:0|0:0,0:0:0:0:
376,194,8459,2,0,L|388:135,1,60.0000022888184,8|0,0:0|2:0,0:0:0:0:
448,64,8759,5,8,0:0:0:0:
424,280,8909,1,2,0:0:0:0:
388,135,9059,1,2,0:0:0:0:
508,304,9209,1,2,0:0:0:0:
356,216,9359,5,2,1:0:0:0:
465,193,9509,1,2,2:0:0:0:
454,195,9584,1,2,2:0:0:0:
443,197,9659,2,0,L|355:216,1,90.0000034332277,2|0,2:0|2:0,0:0:0:0:
268,232,9959,5,4,0:0:0:0:
356,16,10109,2,0,L|344:132,1,80,2|8,0:0|0:0,0:0:0:0:
268,232,10409,2,0,L|256:60,1,160,2|0,0:0|0:0,0:0:0:0:
355,215,10859,1,8,0:0:0:0:
176,148,11009,6,0,L|164:307,1,160,0|2,0:0|0:0,0:0:0:0:
256,72,11459,1,8,0:0:0:0:
72,220,11609,2,0,L|60:116,1,80,0|0,0:0|0:0,0:0:0:0:
268,232,11909,1,2,0:0:0:0:
164,307,12059,1,8,0:0:0:0:
60,236,12209,6,0,L|40:60,1,160,0|0,0:0|0:0,0:0:0:0:
152,323,12659,1,8,0:0:0:0:
48,252,12809,2,0,L|28:76,1,160,2|0,0:0|0:0,0:0:0:0:
244,160,13259,2,0,L|232:240,1,80,8|0,0:0|0:0,0:0:0:0:
152,323,13559,6,0,L|140:219,1,80,0|2,0:0|0:0,0:0:0:0:
132,152,13859,1,8,0:0:0:0:
332,120,14009,2,0,P|368:176|336:268,1,160,2|2,0:0|0:0,0:0:0:0:
280,336,14459,2,0,P|244:280|276:188,1,160,8|4,0:0|0:0,0:0:0:0:
428,304,14909,6,0,L|516:296,1,80,2|8,0:0|0:0,0:0:0:0:
268,195,15209,2,0,L|180:187,1,80,2|0,0:0|0:0,0:0:0:0:
416,80,15509,2,0,L|504:72,1,80,0|8,0:0|0:0,0:0:0:0:
272,184,15809,6,0,L|108:169,1,160,0|2,0:0|0:0,0:0:0:0:
380,192,16259,1,8,0:0:0:0:
348,311,16409,2,0,L|512:296,1,160,0|2,0:0|0:0,0:0:0:0:
252,319,16859,1,8,0:0:0:0:
156,327,17009,6,0,P|124:280|164:176,1,160
255,122,17459,1,8,0:0:0:0:
140,340,17609,2,0,P|108:293|136:176,1,160
249,201,18059,1,8,0:0:0:0:
220,36,18209,2,0,P|276:31|346:118,1,160,0|0,0:0|0:0,0:0:0:0:
249,201,18659,2,0,L|254:121,1,80,12|2,0:0|0:0,0:0:0:0:
344,101,18959,5,8,0:0:0:0:
150,186,19109,1,8,0:0:0:0:
340,180,19259,1,8,0:0:0:0:
156,108,19409,1,8,0:0:0:0:
76,288,19559,6,0,P|128:304|200:256,1,128,4|8,1:0|0:0,0:0:0:0:
363,184,20009,2,0,P|311:168|239:216,1,128,0|0,0:0|0:0,0:0:0:0:
179,334,20459,2,0,L|190:270,1,64,8|0,0:0|0:0,0:0:0:0:
270,74,20759,2,0,L|247:200,1,128,0|8,0:0|0:0,0:0:0:0:
292,384,21209,2,0,L|314:257,1,128,0|0,0:0|0:0,0:0:0:0:
383,124,21659,1,8,0:0:0:0:
247,200,21809,1,2,1:0:0:0:
392,300,21959,6,0,L|472:288,1,64,0|0,1:0|0:0,0:0:0:0:
508,208,22259,2,0,L|428:196,1,64,8|2,0:0|0:1,0:0:0:0:
316,324,22559,2,0,L|468:304,1,128,0|8,0:0|0:0,0:0:0:0:
442,307,23009,1,0,0:0:0:0:
444,198,23159,2,0,L|317:181,1,128,0|8,0:0|0:0,0:0:0:0:
256,64,23609,2,0,P|260:95|249:124,1,64,0|0,0:0|0:0,0:0:0:0:
128,240,23909,1,2,1:0:0:0:
210,231,24059,2,0,P|203:199|182:176,1,64,8|2,0:0|1:0,0:0:0:0:
4,164,24359,6,0,P|48:172|120:112,1,128,2|8,1:0|0:0,0:0:0:0:
292,139,24809,2,0,P|248:131|176:191,1,128,0|0,0:0|0:0,0:0:0:0:
120,63,25259,2,0,L|113:126,1,64,8|0,0:0|0:0,0:0:0:0:
169,302,25559,2,0,L|183:159,1,128,2|8,0:1|0:0,0:0:0:0:
276,16,26009,2,0,L|261:158,1,128,0|2,0:0|0:0,0:0:0:0:
325,255,26459,1,8,0:0:0:0:
181,174,26609,1,2,1:0:0:0:
348,100,26759,6,0,P|396:88|468:148,1,128,2|8,1:0|0:0,0:0:0:0:
439,257,27209,2,0,P|381:280|325:255,1,128
296,172,27659,2,0,L|232:164,1,64,8|0,0:0|0:0,0:0:0:0:
153,207,27959,6,0,P|46:138|167:99,1,320,2|2,0:1|1:0,0:0:0:0:
310,173,28859,2,0,L|231:163,1,80,8|2,0:0|1:0,0:0:0:0:
231,163,29159,6,0,L|400:148,1,160,6|8,1:0|0:0,0:0:0:0:
452,84,29609,2,0,P|424:64|388:60,1,64,0|0,0:0|0:0,0:0:0:0:
414,233,29909,2,0,P|445:218|466:189,1,64,0|8,0:0|0:0,0:0:0:0:
390,148,30209,1,0,0:0:0:0:
320,204,30359,2,0,P|308:233|312:265,1,64,2|0,1:0|0:0,0:0:0:0:
390,148,30659,1,8,0:0:0:0:
307,107,30809,2,0,P|289:48|320:-12,1,128,0|2,0:0|0:0,0:0:0:0:
390,148,31259,1,8,0:0:0:0:
232,168,31409,1,2,1:0:0:0:
453,93,31559,6,0,P|471:152|440:212,1,128,2|8,1:0|0:0,0:0:0:0:
340,240,32009,1,0,0:0:0:0:
270,69,32159,2,0,P|311:23|379:19,1,128,0|8,0:0|0:0,0:0:0:0:
453,93,32609,1,0,0:0:0:0:
340,240,32759,2,0,P|279:226|242:169,1,128,2|8,1:0|0:0,0:0:0:0:
320,92,33209,2,0,L|328:160,1,64
224,320,33509,1,2,1:0:0:0:
235,238,33659,2,0,L|242:174,1,64,8|2,0:0|1:0,0:0:0:0:
316,304,33959,6,0,P|356:320|440:276,1,128,2|8,1:0|0:0,0:0:0:0:
235,238,34409,2,0,P|195:222|111:266,1,128,0|0,0:0|0:0,0:0:0:0:
308,367,34859,2,0,L|315:303,1,64,8|0,0:0|0:0,0:0:0:0:
249,110,35159,2,0,L|235:238,1,128,2|8,1:0|0:0,0:0:0:0:
315,303,35609,2,0,L|329:175,1,128,0|2,0:0|1:0,0:0:0:0:
235,237,36059,2,0,L|227:300,1,64,8|2,0:0|1:0,0:0:0:0:
133,312,36359,6,0,P|77:320|17:256,1,128,2|8,1:0|0:0,0:0:0:0:
97,241,36809,2,0,L|105:178,1,64
116,98,37109,1,0,0:0:0:0:
34,109,37259,2,0,P|35:77|49:48,1,64,8|0,0:0|0:0,0:0:0:0:
166,162,37559,6,0,P|137:176|106:179,1,64,6|0,1:0|0:0,0:0:0:0:
146,22,37859,1,8,1:0:0:0:
310,66,38009,2,0,P|249:53|195:86,1,128,8|4,1:0|0:3,0:0:0:0:
196,86,38459,1,8,1:3:0:0:
246,150,38609,1,2,1:0:0:0:
296,214,38759,6,0,P|298:256|290:280,1,64,6|0,1:0|0:0,0:0:0:0:
225,326,39059,1,8,0:1:0:0:
340,346,39209,2,0,P|286:313|225:326,1,128,10|0,1:1|0:0,0:0:0:0:
156,378,39659,1,8,0:1:0:0:
156,378,39809,1,0,0:0:0:0:
292,277,39959,6,0,P|290:235|298:211,1,64,2|0,1:0|0:0,0:0:0:0:
363,159,40259,1,8,0:1:0:0:
249,139,40409,2,0,P|303:172|364:159,1,128,10|2,1:1|0:1,0:0:0:0:
428,92,40859,1,8,0:1:0:0:
428,92,41009,1,0,0:0:0:0:
371,223,41159,6,0,L|364:160,1,64,2|0,1:1|0:0,0:0:0:0:
452,264,41459,1,8,0:1:0:0:
292,264,41609,2,0,L|276:120,1,128,10|2,1:1|0:1,0:0:0:0:
452,264,42059,2,0,L|459:327,1,64,8|0,0:1|0:0,0:0:0:0:
212,304,42359,6,0,L|204:240,1,64,2|0,1:1|0:0,0:0:0:0:
292,344,42659,1,8,0:1:0:0:
292,344,42809,1,10,1:1:0:0:
132,344,42959,1,0,0:0:0:0:
124,265,43109,1,2,0:1:0:0:
116,186,43259,2,0,L|108:122,1,64,8|2,0:1|0:1,0:0:0:0:
49,53,43559,6,0,P|17:106|29:167,1,128,2|8,1:1|0:1,0:0:0:0:
173,254,44009,2,0,P|206:200|194:139,1,128,10|0,1:1|0:0,0:0:0:0:
108,122,44459,1,8,0:1:0:0:
272,88,44609,1,0,0:0:0:0:
272,88,44759,6,0,P|328:80|392:136,1,128,2|8,1:1|0:1,0:0:0:0:
296,228,45209,2,0,P|240:220|176:276,1,128,10|2,1:1|0:1,0:0:0:0:
333,360,45659,1,8,0:1:0:0:
333,360,45809,1,0,0:0:0:0:
146,342,45959,6,0,P|202:350|266:294,1,128,2|8,1:1|0:1,0:0:0:0:
78,211,46409,2,0,P|115:253|200:251,1,128,10|0,1:0|0:0,0:0:0:0:
156,108,46859,2,0,P|152:140|160:170,1,64,8|0,1:0|0:0,0:0:0:0:
300,84,47159,6,0,P|274:64|244:56,1,64,2|0,1:1|0:0,0:0:0:0:
249,220,47459,1,8,0:1:0:0:
249,220,47609,2,0,P|278:208|301:185,2,64,8|0|2,1:0|0:0|0:1,0:0:0:0:
376,228,48059,1,10,0:1:0:0:
235,138,48209,1,2,0:1:0:0:
289,313,48359,6,0,L|301:185,1,128,6|8,1:0|0:1,0:0:0:0:
309,96,48809,1,10,1:1:0:0:
309,96,48959,2,0,L|228:112,1,64,0|2,0:0|0:1,0:0:0:0:
380,252,49259,2,0,L|406:173,1,64,8|0,1:0|0:0,0:0:0:0:
209,235,49559,6,0,L|263:297,2,64,2|0|8,1:0|0:0|0:1,0:0:0:0:
141,187,50009,2,0,P|192:151|254:162,1,128,2|0,1:0|0:0,0:0:0:0:
399,220,50459,1,8,1:0:0:0:
399,220,50609,1,0,0:0:0:0:
311,358,50759,6,0,L|298:213,1,128,2|8,1:1|0:1,0:0:0:0:
370,165,51209,2,0,P|382:201|406:225,1,64,8|0,1:0|0:0,0:0:0:0:
199,237,51509,2,0,P|215:209|219:178,1,64,2|8,0:1|0:1,0:0:0:0:
299,230,51809,1,0,0:0:0:0:
311,358,51959,6,0,P|251:378|187:334,1,128,2|8,1:1|0:1,0:0:0:0:
196,349,52409,1,8,1:0:0:0:
62,301,52559,2,0,L|146:293,1,64,0|2,0:0|0:1,0:0:0:0:
263,243,52859,2,0,L|179:235,1,64,8|2,0:1|0:1,0:0:0:0:
4,172,53159,6,0,L|131:160,1,128,6|8,1:0|0:1,0:0:0:0:
204,100,53609,2,0,P|168:72|84:80,1,128,8|0,1:0|0:0,0:0:0:0:
175,239,54059,2,0,P|200:220|217:193,1,64,8|0,0:1|0:0,0:0:0:0:
307,43,54359,6,0,P|245:52|203:99,1,128,2|8,1:0|0:1,0:0:0:0:
217,193,54809,2,0,P|253:221|337:213,1,128,8|2,1:0|0:1,0:0:0:0:
352,129,55259,2,0,L|276:137,1,64,8|0,0:1|0:0,0:0:0:0:
424,32,55559,6,0,L|444:188,1,128,2|8,1:0|0:1,0:0:0:0:
252,276,56009,1,8,1:0:0:0:
292,204,56159,2,0,P|322:185|358:186,1,71.9999978027344,0|0,0:0|0:0,0:0:0:0:
242,355,56459,2,0,P|207:346|183:321,1,71.9999978027344,8|0,0:1|0:0,0:0:0:0:
344,268,56759,6,0,L|504:260,1,143.999995605469,2|8,1:0|0:1,0:0:0:0:
487,260,57209,1,8,1:0:0:0:
416,184,57359,1,0,0:0:0:0:
364,347,57509,1,2,0:1:0:0:
271,202,57659,1,8,0:1:0:0:
364,347,57809,1,2,0:1:0:0:
336,144,57959,6,0,L|328:68,1,71.9999978027344,14|0,0:0|2:0,0:0:0:0:
350,253,58259,1,8,0:0:0:0:
459,147,58409,6,0,B|417:124|417:124|336:144,1,132.00000402832,10|0,0:0|0:0,0:0:0:0:
271,202,58709,1,0,0:0:0:0:
408,40,58859,1,8,0:0:0:0:
456,252,59009,1,10,0:0:0:0:
271,202,59459,5,2,0:0:0:0:
271,202,59759,2,0,L|184:197,1,86.1538461538462,2|0,0:0|0:0,0:0:0:0:
184,197,60359,6,0,P|230:126|314:127,1,176.000005371094,4|8,0:0|0:0,0:0:0:0:
400,184,60809,2,0,L|408:296,1,88.000002685547,2|0,0:0|0:0,0:0:0:0:
502,116,61109,2,0,L|494:228,1,88.000002685547,2|8,0:0|0:0,0:0:0:0:
448,348,61409,6,0,P|363:348|317:278,1,176.000005371094,2|0,0:0|0:0,0:0:0:0:
496,204,61859,2,0,L|392:192,1,88.000002685547,8|2,0:0|0:0,0:0:0:0:
392,56,62159,1,0,0:0:0:0:
230,130,62309,2,0,L|317:119,1,88.000002685547,2|8,0:0|0:0,0:0:0:0:
183,219,62609,6,0,P|130:154|151:72,1,176.000005371094,2|0,0:0|0:0,0:0:0:0:
230,130,63059,1,8,0:0:0:0:
244,316,63209,2,0,L|68:300,1,176.000005371094,2|0,0:0|0:0,0:0:0:0:
68,300,63659,1,8,0:0:0:0:
142,138,63809,6,0,L|230:130,1,88.000002685547,2|0,0:0|0:0,0:0:0:0:
244,316,64109,1,0,0:0:0:0:
180,220,64259,1,8,0:0:0:0:
348,296,64409,2,0,L|309:378,1,88.000002685547,2|0,0:0|0:0,0:0:0:0:
180,220,64709,1,0,0:0:0:0:
399,221,64859,2,0,P|435:265|419:349,1,132.00000402832,8|0,0:0|2:0,0:0:0:0:
348,296,65159,6,0,L|356:112,1,176.000005371094,4|8,0:0|0:0,0:0:0:0:
260,52,65609,2,0,P|246:93|256:135,1,88.000002685547,2|0,0:0|0:0,0:0:0:0:
456,148,65909,2,0,P|469:106|461:64,1,88.000002685547,2|8,0:0|0:0,0:0:0:0:
256,32,66209,6,0,P|218:109|243:192,1,176.000005371094,2|0,0:0|0:0,0:0:0:0:
355,120,66659,1,8,0:0:0:0:
140,64,66809,1,0,0:0:0:0:
355,120,66959,2,0,P|365:163|351:204,1,88.000002685547,0|2,0:0|0:0,0:0:0:0:
136,204,67259,1,8,0:0:0:0:
252,76,67409,6,0,L|235:251,1,176.000005371094
384,196,67859,2,0,L|395:283,1,88.000002685547,8|0,0:0|0:0,0:0:0:0:
140,315,68159,2,0,L|152:228,1,88.000002685547,2|2,0:0|0:0,0:0:0:0:
312,296,68459,2,0,L|323:383,1,88.000002685547,10|2,0:0|0:0,0:0:0:0:
60,280,68759,5,8,0:0:0:0:
236,252,68909,1,0,0:0:0:0:
60,280,69059,2,0,P|20:219|50:154,1,150,4|0,0:2|2:0,0:0:0:0:
128,120,69359,6,0,L|200:128,1,50,8|0,0:0|2:0,0:0:0:0:
355,138,69509,1,8,0:0:0:0:
325,147,69584,1,0,0:0:0:0:
296,136,69659,1,8,0:0:0:0:
280,110,69734,1,8,0:0:0:0:
284,79,69809,1,8,0:0:0:0:
307,58,69884,1,8,0:0:0:0:
337,55,69959,6,0,L|352:260,1,176.000005371094,4|8,0:0|0:0,0:0:0:0:
424,296,70409,2,0,P|447:258|444:204,1,88.000002685547,2|0,0:0|0:0,0:0:0:0:
251,230,70709,2,0,P|259:272|288:306,1,88.000002685547,0|8,0:0|0:0,0:0:0:0:
384,140,71009,6,0,L|176:124,1,176.000005371094,2|0,0:0|0:0,0:0:0:0:
48,72,71459,1,8,0:0:0:0:
160,240,71609,1,0,0:0:0:0:
136,80,71759,1,2,0:0:0:0:
71,235,71909,2,0,P|55:196|69:155,1,88.000002685547,2|8,0:0|0:0,0:0:0:0:
208,126,72209,6,0,P|264:166|243:274,1,176.000005371094,2|0,0:0|0:0,0:0:0:0:
192,208,72659,1,8,0:0:0:0:
272,64,72809,2,0,L|468:40,1,176.000005371094,2|0,0:0|0:0,0:0:0:0:
280,180,73259,1,8,0:0:0:0:
208,126,73409,6,0,L|12:102,1,176.000005371094,2|0,0:0|0:0,0:0:0:0:
164,36,73859,1,8,0:0:0:0:
280,180,74009,2,0,L|372:168,1,88.000002685547,2|0,0:0|0:0,0:0:0:0:
288,340,74309,2,0,L|231:266,1,88.000002685547,0|8,0:0|0:0,0:0:0:0:
440,220,74609,1,0,0:0:0:0:
440,220,74759,6,0,P|445:304|379:356,1,176.000005371094,4|8,0:0|0:0,0:0:0:0:
280,180,75209,2,0,L|384:168,1,88.000002685547,2|0,0:0|0:0,0:0:0:0:
321,280,75509,2,0,L|217:268,1,88.000002685547,0|8,0:0|0:0,0:0:0:0:
224,100,75809,6,0,L|412:76,1,176.000005371094,2|2,0:0|0:0,0:0:0:0:
165,321,76259,2,0,P|149:280|157:237,1,88.000002685547,8|0,0:0|0:0,0:0:0:0:
224,100,76559,2,0,P|239:140|231:183,1,88.000002685547,2|2,0:0|0:0,0:0:0:0:
72,268,76859,1,10,0:0:0:0:
248,352,77009,6,0,P|300:368|380:264,1,176.000005371094,2|0,0:0|0:0,0:0:0:0:
319,174,77459,2,0,L|232:184,1,88.000002685547,8|0,0:0|0:0,0:0:0:0:
348,92,77759,2,0,P|386:112|407:150,1,88.000002685547,2|0,0:0|0:0,0:0:0:0:
203,266,78059,2,0,P|164:245|143:207,1,88.000002685547,8|0,0:0|0:0,0:0:0:0:
296,12,78359,5,2,0:0:0:0:
140,116,78509,1,0,0:0:0:0:
232,184,78659,2,0,L|216:48,1,132.00000402832,4|2,0:2|0:0,0:0:0:0:
216,52,78959,5,2,0:0:0:0:
319,174,79109,1,8,0:0:0:0:
140,116,79259,1,8,0:0:0:0:
296,12,79409,1,8,0:0:0:0:
232,184,79559,6,0,P|161:230|77:211,1,176.000005371094,4|8,0:0|0:0,0:0:0:0:
156,352,80009,2,0,L|166:264,1,88.000002685547,2|0,0:0|0:0,0:0:0:0:
140,116,80309,1,0,0:0:0:0:
256,284,80459,1,8,0:0:0:0:
324,204,80609,6,0,L|300:24,1,176.000005371094,0|0,0:0|0:0,0:0:0:0:
231,184,81059,1,8,0:0:0:0:
416,104,81209,2,0,P|480:152|464:240,1,176.000005371094,2|0,0:0|0:0,0:0:0:0:
405,184,81659,1,8,0:0:0:0:
464,32,81809,1,0,0:0:0:0:
332,120,81959,6,0,L|156:136,1,176.000005371094,4|8,0:0|0:0,0:0:0:0:
8,56,82409,2,0,L|116:72,1,88.000002685547,2|0,0:0|0:0,0:0:0:0:
160,228,82709,2,0,L|52:212,1,88.000002685547,0|8,0:0|0:0,0:0:0:0:
0,300,83009,6,0,P|40:252|8:140,1,176.000005371094,0|0,0:0|0:0,0:0:0:0:
108,312,83459,2,0,P|145:333|189:333,1,88.000002685547,4|0,0:0|0:0,0:0:0:0:
276,304,83759,5,12,0:0:0:0:
236,92,83909,1,8,0:0:0:0:
236,92,84359,5,4,0:0:0:0:
180,180,84509,2,0,L|268:192,1,80,0|8,0:0|0:0,0:0:0:0:
395,74,84809,2,0,L|236:92,1,160,2|0,0:0|0:0,0:0:0:0:
273,282,85259,1,8,0:0:0:0:
180,180,85409,6,0,L|339:197,1,160,0|2,0:0|0:0,0:0:0:0:
392,368,85859,1,8,0:0:0:0:
448,268,86009,2,0,L|344:284,1,80
273,282,86309,1,2,0:0:0:0:
392,368,86459,1,8,0:0:0:0:
432,260,86609,6,0,L|273:282,1,160,0|0,0:0|0:0,0:0:0:0:
392,368,87059,1,8,0:0:0:0:
416,252,87209,2,0,L|257:274,1,160,2|0,0:0|0:0,0:0:0:0:
176,152,87659,2,0,P|220:148|260:168,1,80,8|2,0:0|0:0,0:0:0:0:
180,340,87959,6,0,P|136:344|96:324,1,80,2|2,0:0|0:0,0:0:0:0:
72,184,88259,1,12,0:0:0:0:
152,252,88409,1,2,0:0:0:0:
183,64,88559,6,0,L|175:156,1,88.000002685547,8|8,0:0|0:0,0:0:0:0:
344,244,88859,2,0,L|336:156,1,88.000002685547,8|8,0:0|0:0,0:0:0:0:
256,292,89159,5,2,0:0:0:0:
