osu file format v14

[General]
AudioFilename: audio.mp3
AudioLeadIn: 0
PreviewTime: 59384
Countdown: 0
SampleSet: Normal
StackLeniency: 0.7
Mode: 0
LetterboxInBreaks: 0
WidescreenStoryboard: 1

[Editor]
DistanceSpacing: 2.2
BeatDivisor: 4
GridSize: 4
TimelineZoom: 3.299999

[Metadata]
Title:Peace Sign (TV edit.)
TitleUnicode:ピースサイン(TV edit.)
Artist:Kenshi Yonezu
ArtistUnicode:米津玄師
Creator:Yasaija 714
Version:kotachi's Insane
Source:僕のヒーローアカデミア
Tags:ハチ boku no hero academia opening tv size Lefia Pata-Mon toybot _kotachi_ Lasse
BeatmapID:1256349
BeatmapSetID:593466

[Difficulty]
HPDrainRate:6
CircleSize:4
OverallDifficulty:7.5
ApproachRate:9
SliderMultiplier:1.6
SliderTickRate:1

[Events]
//Background and Video events
0,0,"BG.jpg",0,0
Video,0,"video.avi"
//Break Periods
//Storyboard Layer 0 (Background)
//Storyboard Layer 1 (Fail)
//Storyboard Layer 2 (Pass)
//Storyboard Layer 3 (Foreground)
//Storyboard Sound Samples

[TimingPoints]
359,300,4,2,11,70,1,0
9359,-133.333333333333,4,2,11,30,0,0
9959,-100,4,1,1,70,0,0
19559,-133.333333333333,4,2,11,50,0,0
38759,-111.111111111111,4,1,1,60,0,0
59459,-200,4,2,11,50,0,0
60359,-90.9090909090909,4,1,1,80,0,1
69059,-90.9090909090909,4,1,11,80,0,1
69209,-90.9090909090909,4,1,1,80,0,1
78659,-90.9090909090909,4,2,11,80,0,1
78809,-90.9090909090909,4,1,1,80,0,1
84359,-100,4,1,1,70,0,0
89159,-100,4,1,1,10,0,0

[Colours]
Combo1 : 181,136,0
Combo2 : 0,132,0
Combo3 : 128,255,255
Combo4 : 255,128,128

[HitObjects]
164,148,359,6,0,B|252:128|236:196|336:159,1,160,2|0,0:0|0:0,0:0:0:0:
193,301,809,2,0,P|183:262|192:224,1,80,2|0,0:0|0:0,0:0:0:0:
285,92,1109,1,0,0:0:0:0:
360,256,1259,2,0,L|268:264,1,80,2|0,0:0|0:0,0:0:0:0:
285,92,1559,6,0,L|377:100,2,80,2|0|0,0:0|0:0|0:0,0:0:0:0:
164,148,2009,2,0,L|72:156,1,80,2|0,0:0|0:0,0:0:0:0:
208,68,2309,1,0,0:0:0:0:
256,180,2459,2,0,L|256:272,1,80,2|0,0:0|0:0,0:0:0:0:
192,328,2759,6,0,P|240:352|336:308,1,160,2|0,0:0|0:0,0:0:0:0:
256,180,3209,2,0,L|256:272,1,80,2|0,0:0|0:0,0:0:0:0:
405,203,3509,1,0,0:0:0:0:
375,102,3659,2,0,L|278:95,1,80,2|0,0:0|0:0,0:0:0:0:
176,173,3959,6,0,L|273:180,2,80,2|0|0,0:0|0:0|0:0,0:0:0:0:
108,112,4409,2,0,P|88:140|85:193,1,80,2|0,0:0|0:0,0:0:0:0:
112,344,4709,1,0,0:0:0:0:
184,252,4859,2,0,L|174:155,1,80,2|0,0:0|0:0,0:0:0:0:
160,36,5159,6,0,B|221:42|221:42|255:26|255:26|333:32,1,160,4|0,0:0|0:0,0:0:0:0:
373,128,5609,2,0,L|286:122,1,80,2|0,0:0|0:0,0:0:0:0:
424,17,5909,1,0,0:0:0:0:
457,129,6059,2,0,P|450:164|413:200,1,80,2|0,0:0|0:0,0:0:0:0:
369,270,6359,6,0,P|341:244|330:206,2,80,2|0|0,0:0|0:0|0:0,0:0:0:0:
373,128,6809,2,0,L|286:122,1,80,2|0,0:0|0:0,0:0:0:0:
164,68,7109,1,0,0:0:0:0:
162,194,7259,2,0,L|249:200,1,80,2|0,0:0|0:0,0:0:0:0:
311,272,7559,6,0,P|338:224|300:118,1,160,2|0,0:0|0:0,0:0:0:0:
162,194,8009,2,0,L|249:200,1,80,2|0,0:0|0:0,0:0:0:0:
251,59,8309,1,0,0:0:0:0:
107,73,8459,2,0,L|20:79,1,80,2|0,0:0|0:0,0:0:0:0:
29,200,8759,6,0,L|37:285,1,80,2|0,0:0|0:0,0:0:0:0:
185,341,9059,1,2,0:0:0:0:
40,295,9209,1,2,0:0:0:0:
134,188,9359,6,0,B|177:172|221:204|221:204|264:233|311:202,1,180.000006866455
384,157,9959,6,0,P|397:197|388:246,1,80,4|2,0:0|0:0,0:0:0:0:
284,289,10259,1,8,0:0:0:0:
226,112,10409,2,0,L|305:121,1,80,2|0,0:0|0:0,0:0:0:0:
167,261,10709,2,0,L|87:270,1,80,2|8,0:0|0:0,0:0:0:0:
70,106,11009,6,0,B|130:101|130:101|170:118|170:118|229:111,1,160,2|2,0:0|0:0,0:0:0:0:
343,45,11459,1,8,0:0:0:0:
333,188,11609,2,0,B|370:148|370:148|340:34,1,160,2|2,0:0|0:0,0:0:0:0:
226,110,12059,1,8,0:0:0:0:
226,110,12209,1,0,0:0:0:0:
333,188,12359,6,0,L|426:183,2,80,2|0|8,0:0|0:0|0:0,0:0:0:0:
226,110,12809,2,0,P|231:188|232:288,1,160,2|2,0:0|0:0,0:0:0:0:
131,170,13259,1,8,0:0:0:0:
222,83,13409,1,2,0:0:0:0:
303,167,13559,6,0,P|305:206|305:248,1,80,0|2,0:0|0:0,0:0:0:0:
180,332,13859,1,8,0:0:0:0:
131,170,14009,2,0,P|177:232|117:246,1,160,2|2,0:0|0:0,0:0:0:0:
60,138,14459,2,0,P|85:107|138:92,1,80,8|0,0:0|0:0,0:0:0:0:
250,83,14759,5,4,0:0:0:0:
131,171,14909,1,0,0:0:0:0:
165,0,15059,1,8,0:0:0:0:
213,157,15209,2,0,L|217:242,1,80,2|0,0:0|0:0,0:0:0:0:
68,325,15509,2,0,L|71:245,1,80,2|8,0:0|0:0,0:0:0:0:
117,133,15809,6,0,B|168:124|213:158|213:158|267:127,1,160,2|2,0:0|0:0,0:0:0:0:
382,123,16259,1,8,0:0:0:0:
297,204,16409,2,0,P|261:130|290:51,1,160,2|2,0:0|0:0,0:0:0:0:
410,122,16859,1,8,0:0:0:0:
410,122,17009,1,0,0:0:0:0:
343,277,17159,6,0,P|303:284|248:270,1,80,2|0,0:0|0:0,0:0:0:0:
137,137,17459,1,8,0:0:0:0:
253,104,17609,2,0,B|337:89|329:144|430:118,1,160,2|2,0:0|0:0,0:0:0:0:
473,33,18059,1,8,0:0:0:0:
479,207,18209,1,2,0:0:0:0:
409,122,18359,6,0,L|496:117,1,80,0|2,0:0|0:0,0:0:0:0:
382,215,18659,1,12,0:0:0:0:
331,70,18809,1,0,0:0:0:0:
222,161,18959,2,0,L|309:156,1,80,0|8,0:0|0:0,0:0:0:0:
301,156,19184,1,8,0:0:0:0:
301,156,19259,1,8,0:0:0:0:
165,228,19409,1,8,0:0:0:0:
191,72,19559,6,0,P|243:67|319:53,1,120.000004577637,4|0,0:0|0:0,0:0:0:0:
411,3,20009,2,0,P|399:54|409:146,1,120.000004577637
498,159,20459,1,0,0:0:0:0:
501,67,20609,1,0,0:0:0:0:
402,121,20759,6,0,B|412:197|412:197|377:237,1,120.000004577637
318,107,21209,2,0,P|344:60|419:41,1,120.000004577637
501,67,21659,1,0,0:0:0:0:
496,171,21809,1,2,0:0:0:0:
402,121,21959,6,0,L|275:129,1,120.000004577637,2|0,0:0|0:0,0:0:0:0:
196,69,22409,1,0,0:0:0:0:
191,168,22559,2,0,L|199:234,1,60.0000022888184
95,178,22859,2,0,L|102:118,1,60.0000022888184
112,11,23159,6,0,P|153:37|230:40,1,120.000004577637
365,84,23609,2,0,L|302:87,1,60.0000022888184
236,39,23909,1,2,0:0:0:0:
215,155,24059,1,0,0:0:0:0:
305,86,24209,1,2,0:0:0:0:
229,171,24359,6,0,P|286:176|358:194,1,120.000004577637,2|0,0:0|0:0,0:0:0:0:
248,274,24809,2,0,P|189:287|129:293,1,120.000004577637
35,317,25259,2,0,P|33:274|49:238,1,60.0000022888184
125,173,25559,6,0,L|129:293,1,120.000004577637
34,167,26009,2,0,L|36:95,1,60.0000022888184
150,23,26309,1,0,0:0:0:0:
115,102,26459,1,0,0:0:0:0:
66,31,26609,1,2,0:0:0:0:
202,95,26759,6,0,P|261:98|332:93,1,120.000004577637,2|0,0:0|0:0,0:0:0:0:
419,36,27209,2,0,P|417:95|410:162,1,120.000004577637
346,224,27659,2,0,P|326:197|316:153,1,60.0000022888184
430,242,27959,6,0,L|428:305,2,60.0000022888184
411,156,28409,2,0,L|410:97,1,60.0000022888184
393,1,28709,1,2,0:0:0:0:
314,62,28859,1,0,0:0:0:0:
410,97,29009,1,2,0:0:0:0:
246,140,29159,6,0,P|259:209|260:268,1,120.000004577637,4|0,0:0|0:0,0:0:0:0:
166,139,29609,2,0,P|173:104|196:76,1,60.0000022888184
332,155,29909,2,0,P|345:224|346:283,1,120.000004577637
200,255,30359,6,0,P|237:255|280:263,1,60.0000022888184
225,348,30659,1,0,0:0:0:0:
123,274,30809,2,0,P|123:236|137:198,1,60.0000022888184
250,131,31109,1,0,0:0:0:0:
215,210,31259,1,0,0:0:0:0:
166,139,31409,1,2,0:0:0:0:
300,203,31559,6,0,L|378:198,1,60.0000022888184
266,283,31859,1,0,0:0:0:0:
266,283,32009,1,0,0:0:0:0:
348,279,32159,2,0,L|426:274,1,60.0000022888184
314,360,32459,1,0,0:0:0:0:
314,360,32609,1,0,0:0:0:0:
199,345,32759,6,0,B|64:348,1,120.000004577637
21,248,33209,2,0,B|156:251,1,120.000004577637,0|2,0:0|0:0,0:0:0:0:
231,257,33659,1,0,0:0:0:0:
199,177,33809,1,2,0:0:0:0:
199,345,33959,6,0,P|267:345|318:290,1,120.000004577637,2|0,0:0|0:0,0:0:0:0:
199,177,34409,2,0,L|194:250,1,60.0000022888184
307,195,34709,2,0,L|302:135,1,60.0000022888184
314,25,35009,1,0,0:0:0:0:
210,62,35159,6,0,B|152:75|152:75|67:54,1,120.000004577637
0,7,35609,2,0,L|5:89,1,60.0000022888184
31,217,35909,1,0,0:0:0:0:
123,200,36059,1,0,0:0:0:0:
55,129,36209,1,2,0:0:0:0:
123,200,36359,6,0,L|190:200,1,60.0000022888184,2|0,0:0|0:0,0:0:0:0:
284,198,36659,1,0,0:0:0:0:
299,330,36809,2,0,B|273:299|273:299|280:216,1,120.000004577637
387,208,37259,2,0,L|380:282,1,60.0000022888184
314,125,37559,5,12,0:0:0:0:
328,138,37859,5,8,0:3:0:0:
475,97,38009,1,8,0:3:0:0:
489,109,38309,5,4,0:3:0:0:
458,256,38459,1,0,0:0:0:0:
396,78,38609,1,4,0:3:0:0:
330,226,38759,6,0,P|257:234|169:225,1,143.999995605469,4|8,1:0|0:0,0:0:0:0:
248,55,39209,2,0,P|254:98|249:151,2,71.9999978027344,2|0|0,0:0|0:0|0:0,0:0:0:0:
108,128,39659,2,0,P|103:163|103:199,1,71.9999978027344,8|0,0:0|0:0,0:0:0:0:
185,321,39959,6,0,P|195:268|181:161,1,143.999995605469,2|8,0:0|0:0,0:0:0:0:
26,291,40409,2,0,L|97:288,1,71.9999978027344,2|0,0:0|0:0,0:0:0:0:
186,178,40709,1,2,0:0:0:0:
100,108,40859,2,0,L|29:106,1,71.9999978027344,8|0,0:0|0:0,0:0:0:0:
186,178,41159,6,0,B|195:269|195:269|154:328,1,143.999995605469,2|8,0:0|0:0,0:0:0:0:
103,179,41609,2,0,L|99:96,1,71.9999978027344,8|0,0:0|0:0,0:0:0:0:
272,212,41909,1,2,0:0:0:0:
165,312,42059,1,8,0:0:0:0:
97,194,42209,1,0,0:0:0:0:
248,85,42359,6,0,L|90:97,1,143.999995605469,2|8,0:0|0:0,0:0:0:0:
16,66,42809,2,0,P|13:112|25:146,1,71.9999978027344,8|0,0:0|0:0,0:0:0:0:
97,194,43109,1,2,0:0:0:0:
104,95,43259,1,8,0:0:0:0:
11,225,43409,1,2,0:0:0:0:
174,239,43559,6,0,P|251:236|324:229,1,143.999995605469,2|8,0:0|0:0,0:0:0:0:
188,76,44009,2,0,L|259:70,1,71.9999978027344,2|0,0:0|0:0,0:0:0:0:
356,160,44309,1,0,0:0:0:0:
224,156,44459,1,8,0:0:0:0:
252,276,44609,1,0,0:0:0:0:
96,272,44759,6,0,L|244:263,1,143.999995605469,2|8,0:0|0:0,0:0:0:0:
191,74,45209,2,0,L|170:151,1,71.9999978027344,2|0,0:0|0:0,0:0:0:0:
252,276,45509,1,2,0:0:0:0:
321,108,45659,2,0,L|302:38,1,71.9999978027344,8|0,0:0|0:0,0:0:0:0:
328,189,45959,6,0,P|371:170|476:200,1,143.999995605469,2|8,0:0|0:0,0:0:0:0:
255,227,46409,2,0,P|248:192|251:157,1,71.9999978027344,8|0,0:0|0:0,0:0:0:0:
383,271,46709,1,2,0:0:0:0:
298,330,46859,1,8,0:0:0:0:
328,189,47009,1,0,0:0:0:0:
435,332,47159,6,0,P|460:298|455:244,1,71.9999978027344,2|0,0:0|0:0,0:0:0:0:
355,126,47459,1,8,0:0:0:0:
355,126,47609,2,0,P|330:160|335:214,1,71.9999978027344,8|0,0:0|0:0,0:0:0:0:
512,205,47909,1,2,0:0:0:0:
424,53,48059,1,8,0:0:0:0:
386,246,48209,1,0,0:0:0:0:
498,128,48359,6,0,L|352:125,1,143.999995605469,4|8,0:0|0:0,0:0:0:0:
266,68,48809,2,0,P|252:131|293:210,1,143.999995605469,2|0,0:0|0:0,0:0:0:0:
386,246,49259,1,8,0:0:0:0:
386,246,49409,1,0,0:0:0:0:
295,309,49559,6,0,P|241:302|135:324,1,143.999995605469,2|8,0:0|0:0,0:0:0:0:
102,131,50009,2,0,L|118:217,1,71.9999978027344,2|0,0:0|0:0,0:0:0:0:
207,122,50309,1,2,0:0:0:0:
138,35,50459,2,0,L|67:33,1,71.9999978027344,8|0,0:0|0:0,0:0:0:0:
207,122,50759,6,0,B|361:133,1,143.999995605469,2|8,0:0|0:0,0:0:0:0:
219,287,51209,2,0,L|215:204,1,71.9999978027344,8|0,0:0|0:0,0:0:0:0:
282,79,51509,1,2,0:0:0:0:
324,232,51659,1,8,0:0:0:0:
207,122,51809,1,0,0:0:0:0:
364,116,51959,6,0,B|453:117|453:117|500:80,1,143.999995605469,2|8,0:0|0:0,0:0:0:0:
344,16,52409,1,8,0:0:0:0:
344,16,52559,2,0,L|347:87,1,71.9999978027344,0|2,0:0|0:0,0:0:0:0:
184,108,52859,2,0,L|187:36,1,71.9999978027344,8|0,0:0|0:0,0:0:0:0:
164,236,53159,6,0,P|100:212|63:147,1,143.999995605469,4|8,0:0|0:0,0:0:0:0:
187,36,53609,2,0,B|264:17|256:71|348:37,1,143.999995605469,2|0,0:0|0:0,0:0:0:0:
451,17,54059,2,0,L|464:105,1,71.9999978027344,8|0,0:0|0:0,0:0:0:0:
344,161,54359,6,0,L|355:233,2,71.9999978027344,2|0|8,0:0|0:0|0:0,0:0:0:0:
413,319,54809,2,0,P|439:295|452:262,1,71.9999978027344,2|0,0:0|0:0,0:0:0:0:
276,241,55109,1,2,0:0:0:0:
276,241,55259,2,0,L|286:312,1,71.9999978027344,8|0,0:0|0:0,0:0:0:0:
344,161,55559,6,0,P|267:139|194:173,1,143.999995605469,2|8,0:0|0:0,0:0:0:0:
286,312,56009,1,2,0:0:0:0:
286,312,56159,2,0,L|276:241,1,71.9999978027344,0|2,0:0|0:0,0:0:0:0:
219,88,56459,2,0,L|208:159,1,71.9999978027344,8|0,0:0|0:0,0:0:0:0:
368,330,56759,6,0,L|343:181,1,143.999995605469,2|8,0:0|0:0,0:0:0:0:
482,144,57209,1,2,0:0:0:0:
482,144,57359,2,0,P|493:193|487:239,1,71.9999978027344,0|2,0:0|0:0,0:0:0:0:
391,92,57659,2,0,P|392:56|402:22,1,71.9999978027344,8|2,0:0|0:0,0:0:0:0:
419,246,57959,5,2,0:0:0:0:
303,117,58109,1,2,0:0:0:0:
472,70,58259,1,8,0:0:0:0:
328,236,58409,2,0,L|235:224,1,71.9999978027344,2|0,0:0|0:0,0:0:0:0:
391,92,58709,2,0,L|484:80,1,71.9999978027344,2|8,0:0|0:0,0:0:0:0:
485,297,59009,5,2,0:0:0:0:
485,297,59459,6,0,P|439:302|398:320,2,80
392,148,60359,6,0,B|328:145|328:145|288:164|288:164|192:152,1,176.000005371094,4|8,0:0|0:0,0:0:0:0:
19,135,60809,2,0,L|10:35,1,88.000002685547,2|0,0:0|0:0,0:0:0:0:
142,105,61109,2,0,P|131:149|137:193,1,88.000002685547,2|8,0:0|0:0,0:0:0:0:
199,340,61409,1,0,0:0:0:0:
39,339,61559,6,0,P|48:252|16:148,1,176.000005371094,2|0,0:0|0:0,0:0:0:0:
0,40,62009,1,2,0:0:0:0:
136,190,62159,1,0,0:0:0:0:
152,0,62309,1,2,0:0:0:0:
25,167,62459,1,8,0:0:0:0:
136,190,62609,6,0,P|132:140|140:80,1,88.000002685547,0|2,0:0|0:0,0:0:0:0:
212,244,62909,1,0,0:0:0:0:
305,154,63059,1,0,0:0:0:0:
305,154,63209,2,0,L|210:159,1,88.000002685547,2|0,0:0|0:0,0:0:0:0:
200,343,63509,2,0,L|295:348,1,88.000002685547,2|8,0:0|0:0,0:0:0:0:
394,198,63809,6,0,P|401:138|296:56,1,176.000005371094,2|2,0:0|0:0,0:0:0:0:
217,158,64259,1,8,0:0:0:0:
217,158,64409,2,0,P|216:212|232:252,1,88.000002685547,2|0,0:0|0:0,0:0:0:0:
328,288,64709,1,2,0:0:0:0:
148,332,64859,2,0,L|235:329,1,88.000002685547,8|0,0:0|0:0,0:0:0:0:
362,212,65159,6,0,B|269:188|293:267|185:231,1,176.000005371094,4|8,0:0|0:0,0:0:0:0:
225,71,65609,2,0,P|229:120|228:182,1,88.000002685547,2|0,0:0|0:0,0:0:0:0:
363,97,65909,2,0,P|363:53|367:9,1,88.000002685547,2|8,0:0|0:0,0:0:0:0:
362,212,66209,6,0,L|460:210,2,88.000002685547,0|2|0,0:0|0:0|0:0,0:0:0:0:
211,232,66659,1,8,0:0:0:0:
305,153,66809,1,2,0:0:0:0:
298,343,66959,1,0,0:0:0:0:
194,233,67109,1,2,0:0:0:0:
362,212,67259,2,0,L|460:210,1,88.000002685547,8|0,0:0|0:0,0:0:0:0:
298,343,67559,6,0,P|231:360|120:323,1,176.000005371094,2|8,0:0|0:0,0:0:0:0:
161,146,68009,2,0,P|166:196|161:245,1,88.000002685547,2|0,0:0|0:0,0:0:0:0:
305,153,68309,2,0,P|302:109|307:65,1,88.000002685547,2|8,0:0|0:0,0:0:0:0:
302,250,68609,1,0,0:0:0:0:
399,113,68759,5,2,0:0:0:0:
399,113,68909,1,2,0:0:0:0:
392,308,69059,2,0,L|399:206,1,88.000002685547,12|2,1:2|0:0,0:0:0:0:
266,338,69359,5,6,0:0:0:0:
240,186,69509,1,8,0:0:0:0:
240,186,69584,1,8,0:0:0:0:
240,186,69659,2,8,L|244:124,1,44.0000013427735
125,207,69809,2,8,L|134:265,1,44.0000013427735
231,311,69959,6,0,B|339:348|339:348|415:320,1,176.000005371094,4|8,0:0|0:0,0:0:0:0:
316,137,70409,2,0,L|313:254,1,88.000002685547,2|0,0:0|0:0,0:0:0:0:
451,231,70709,1,2,0:0:0:0:
421,90,70859,1,8,0:0:0:0:
317,249,71009,1,0,0:0:0:0:
489,133,71159,6,0,P|501:81|485:35,1,88.000002685547,2|0,0:0|0:0,0:0:0:0:
280,56,71459,1,8,0:0:0:0:
336,232,71609,1,2,0:0:0:0:
421,90,71759,1,0,0:0:0:0:
224,168,71909,1,2,0:0:0:0:
384,164,72059,1,8,0:0:0:0:
266,37,72209,6,0,L|163:50,1,88.000002685547,0|2,0:0|0:0,0:0:0:0:
4,128,72509,1,0,0:0:0:0:
76,40,72659,1,8,0:0:0:0:
104,224,72809,2,0,P|106:180|102:116,1,88.000002685547
8,264,73109,1,2,0:0:0:0:
172,296,73259,2,0,P|132:324|84:328,1,88.000002685547,8|0,0:0|0:0,0:0:0:0:
0,216,73559,6,0,P|45:212|93:232,1,88.000002685547,2|0,0:0|0:0,0:0:0:0:
214,217,73859,1,8,0:0:0:0:
126,86,74009,2,0,B|57:61|-3:108|-3:108|55:155,1,176.000005371094,2|2,0:0|0:0,0:0:0:0:
202,122,74459,2,0,P|207:80|192:37,1,88.000002685547,8|0,0:0|0:0,0:0:0:0:
110,219,74759,6,0,B|120:336|120:336|184:300,1,176.000005371094,4|8,0:0|0:0,0:0:0:0:
113,135,75209,2,0,P|72:145|36:184,1,88.000002685547,2|0,0:0|0:0,0:0:0:0:
184,180,75509,2,0,P|195:139|180:88,1,88.000002685547,2|8,0:0|0:0,0:0:0:0:
171,307,75809,6,0,L|265:301,2,88.000002685547,0|2|0,0:0|0:0|0:0,0:0:0:0:
39,176,76259,1,8,0:0:0:0:
70,330,76409,1,2,0:0:0:0:
204,182,76559,1,0,0:0:0:0:
186,331,76709,1,2,0:0:0:0:
122,179,76859,1,8,0:0:0:0:
286,185,77009,1,0,0:0:0:0:
197,349,77159,6,0,P|137:355|32:297,1,176.000005371094,2|8,0:0|0:0,0:0:0:0:
110,134,77609,2,0,P|115:197|102:245,1,88.000002685547
262,286,77909,1,2,0:0:0:0:
209,141,78059,2,0,P|203:97|209:54,1,88.000002685547,8|0,0:0|0:0,0:0:0:0:
362,70,78359,5,2,0:0:0:0:
337,223,78509,1,0,0:0:0:0:
489,189,78659,1,12,1:2:0:0:
448,41,78809,1,8,0:0:0:0:
448,41,78884,1,8,0:0:0:0:
448,41,78959,5,8,0:0:0:0:
283,102,79109,1,8,0:0:0:0:
461,226,79259,1,8,0:0:0:0:
362,70,79409,1,8,0:0:0:0:
277,195,79559,6,0,P|261:259|317:367,1,176.000005371094,4|8,0:0|0:0,0:0:0:0:
461,226,80009,2,0,P|477:162|421:54,1,176.000005371094,2|2,0:0|0:0,0:0:0:0:
283,102,80459,1,8,0:0:0:0:
362,262,80609,1,0,0:0:0:0:
351,57,80759,6,0,P|249:61|153:73,1,176.000005371094,2|8,0:0|0:0,0:0:0:0:
191,239,81209,2,0,P|222:213|236:143,1,88.000002685547,2|0,0:0|0:0,0:0:0:0:
99,52,81509,1,2,0:0:0:0:
161,167,81659,1,8,0:0:0:0:
229,14,81809,1,0,0:0:0:0:
78,140,81959,6,0,L|81:237,2,88.000002685547,4|0|8,0:0|0:0|0:0,0:0:0:0:
237,168,82409,2,0,P|223:210|191:240,1,88.000002685547,2|0,0:0|0:0,0:0:0:0:
183,84,82709,2,0,P|196:42|229:12,1,88.000002685547,2|8,0:0|0:0,0:0:0:0:
327,152,83009,1,0,0:0:0:0:
160,169,83159,5,4,0:0:0:0:
271,249,83309,1,0,0:0:0:0:
142,168,83459,1,2,0:0:0:0:
290,252,83609,1,0,0:0:0:0:
221,115,83759,5,8,0:0:0:0:
180,361,83909,1,8,0:0:0:0:
410,199,84359,6,0,L|319:201,1,80,4|2,0:0|0:0,0:0:0:0:
231,210,84659,1,8,0:0:0:0:
260,38,84809,2,0,L|274:124,1,80,2|0,0:0|0:0,0:0:0:0:
243,288,85109,2,0,L|229:201,1,80,2|8,0:0|0:0,0:0:0:0:
272,116,85409,6,0,B|241:122|212:111|212:111|172:128|172:128|140:119|117:120,1,160,2|2,0:0|0:0,0:0:0:0:
165,24,85859,1,8,0:0:0:0:
43,188,86009,2,0,B|6:148|6:148|36:34,1,160,2|2,0:0|0:0,0:0:0:0:
145,207,86459,1,8,0:0:0:0:
152,40,86609,1,0,0:0:0:0:
272,116,86759,6,0,L|374:115,2,80,2|0|8,0:0|0:0|0:0,0:0:0:0:
181,205,87209,2,0,L|183:46,1,160,2|2,0:0|0:0,0:0:0:0:
351,115,87659,2,0,L|272:116,1,80,8|0,0:0|0:0,0:0:0:0:
142,276,87959,6,0,P|183:286|221:275,1,80,2|0,0:0|0:0,0:0:0:0:
363,213,88259,2,0,P|322:203|283:213,1,80,12|0,0:0|0:0,0:0:0:0:
286,212,88484,1,2,0:0:0:0:
286,212,88559,1,2,0:0:0:0:
302,328,88709,1,8,0:0:0:0:
332,120,88859,1,8,0:0:0:0:
492,248,89009,1,8,0:0:0:0:
376,228,89159,5,2,1:2:0:0:
