osu file format v14

[General]
AudioFilename: audio.mp3
AudioLeadIn: 0
PreviewTime: 59384
Countdown: 0
SampleSet: Soft
StackLeniency: 0.7
Mode: 0
LetterboxInBreaks: 0
WidescreenStoryboard: 0

[Editor]
Bookmarks: 9959,19559,38759,60359,84359
DistanceSpacing: 1
BeatDivisor: 2
GridSize: 32
TimelineZoom: 1.3

[Metadata]
Title:Peace Sign (TV edit.)
TitleUnicode:ピースサイン(TV edit.)
Artist:Kenshi Yonezu
ArtistUnicode:米津玄師
Creator:Yasaija 714
Version:Pata-Mon's Normal
Source:僕のヒーローアカデミア
Tags:ハチ boku no hero academia opening tv size Lefia Pata-Mon toybot _kotachi_ Lasse
BeatmapID:1279289
BeatmapSetID:593466

[Difficulty]
HPDrainRate:4
CircleSize:3
OverallDifficulty:4
ApproachRate:5
SliderMultiplier:1.15
SliderTickRate:1

[Events]
//Background and Video events
0,0,"BG.jpg",0,0
Video,0,"video.avi"
//Break Periods
//Storyboard Layer 0 (Background)
//Storyboard Layer 1 (Fail)
//Storyboard Layer 2 (Pass)
//Storyboard Layer 3 (Foreground)
//Storyboard Sound Samples

[TimingPoints]
359,300,4,2,0,60,1,0
359,-125,4,2,0,60,0,0
9959,-100,4,2,0,75,0,0
19559,-125,4,2,0,60,0,0
38759,-111.111111111111,4,2,0,75,0,0
60359,-100,4,2,1,75,0,1
69809,-100,4,2,1,75,0,0
69959,-100,4,2,1,75,0,1
84359,-100,4,2,1,75,0,0

[Colours]
Combo1 : 181,136,0
Combo2 : 0,132,0
Combo3 : 128,255,255
Combo4 : 255,128,128

[HitObjects]
104,176,359,6,0,P|185:173|250:151,1,138,2|2,0:0|0:0,0:0:0:0:
276,121,959,2,0,L|405:132,1,92,0|2,0:0|0:0,0:0:0:0:
440,199,1559,2,0,P|450:272|420:368,1,138,2|2,0:0|0:0,0:0:0:0:
395,364,2159,2,0,L|266:353,1,92,0|2,0:0|0:0,0:0:0:0:
236,279,2759,6,0,P|162:276|79:302,1,138,2|2,0:0|0:0,0:0:0:0:
57,318,3359,2,0,L|57:387,2,46,0|0|2,0:0|0:0|0:0,0:0:0:0:
2,232,3959,2,0,P|4:177|35:71,1,138,2|2,0:0|0:0,0:0:0:0:
61,61,4559,2,0,L|180:69,1,92,0|2,0:0|0:0,0:0:0:0:
229,133,5159,6,0,P|306:131|399:108,1,138,6|2,0:0|0:0,0:0:0:0:
405,87,5759,2,0,L|497:93,1,92,0|2,0:0|0:0,0:0:0:0:
464,189,6359,2,0,P|453:274|473:349,1,138,2|2,0:0|0:0,0:0:0:0:
483,370,6959,2,0,L|391:364,1,92,0|2,0:0|0:0,0:0:0:0:
319,293,7559,6,0,P|270:292|188:376,2,138,2|2|2,0:0|0:0|0:0,0:0:0:0:
391,364,8759,2,0,P|412:254|375:209,1,92,2|0,0:0|0:0,0:0:0:0:
400,232,9209,1,2,0:0:0:0:
125,313,9959,6,0,L|133:402,2,57.5,6|0|0,0:0|0:0|1:0,0:0:0:0:
117,256,10409,2,0,P|134:207|133:117,1,115,2|0,0:0|1:0,0:0:0:0:
27,108,11009,2,0,P|10:157|11:247,1,115,2|0,0:0|1:0,0:0:0:0:
31,332,11609,2,0,P|110:371|174:356,1,115,2|2,0:0|0:0,0:0:0:0:
185,343,12059,2,0,L|244:350,1,57.5,0|0,1:0|0:0,0:0:0:0:
282,308,12359,6,0,L|341:301,2,57.5,2|0|0,0:0|0:0|1:0,0:0:0:0:
263,253,12809,2,0,P|256:195|262:112,1,115,2|2,0:0|0:0,0:0:0:0:
300,99,13259,2,0,L|294:33,1,57.5,0|2,1:0|0:0,0:0:0:0:
250,6,13559,2,0,B|176:6|167:55|87:55,2,172.5,2|2|0,0:0|0:0|1:0,0:0:0:0:
350,62,14759,6,0,L|356:128,2,57.5,6|0|0,0:0|0:0|1:0,0:0:0:0:
392,23,15209,2,0,P|437:15|519:22,1,115,2|0,0:0|1:0,0:0:0:0:
483,131,15809,2,0,P|470:188|473:273,1,115,2|0,0:0|1:0,0:0:0:0:
367,299,16409,2,0,P|354:242|357:157,1,115,2|2,0:0|0:0,0:0:0:0:
387,138,16859,2,0,L|381:55,1,57.5,0|0,1:0|0:0,0:0:0:0:
329,59,17159,6,0,L|335:-24,2,57.5,2|0|0,0:0|0:0|1:0,0:0:0:0:
275,80,17609,2,0,P|216:87|134:79,1,115,2|2,0:0|0:0,0:0:0:0:
120,43,18059,2,0,L|54:49,1,57.5,0|0,1:0|0:0,0:0:0:0:
24,90,18359,2,0,B|24:164|73:173|73:253,2,172.5,2|2|0,0:0|0:0|1:0,0:0:0:0:
93,16,19559,6,0,P|158:25|258:22,1,138,6|2,0:0|0:0,0:0:0:0:
330,13,20309,2,0,P|339:56|339:142,1,92,2|2,0:0|0:0,0:0:0:0:
304,138,20759,2,0,P|297:235|348:286,1,138,2|2,0:0|0:0,0:0:0:0:
389,193,21509,1,2,0:0:0:0:
416,291,21809,1,2,0:0:0:0:
416,291,21959,6,0,P|372:351|319:366,1,92,2|0,0:0|0:0,0:0:0:0:
257,346,22559,2,0,P|217:278|223:229,1,92,2|0,0:0|0:0,0:0:0:0:
318,265,23159,2,0,P|332:205|331:113,1,138,2|2,0:0|0:0,0:0:0:0:
298,33,23909,2,0,L|227:28,1,46,2|0,0:0|0:0,0:0:0:0:
208,55,24209,1,2,0:0:0:0:
208,55,24359,6,0,P|193:114|195:207,1,138,2|2,0:0|0:0,0:0:0:0:
106,244,25109,2,0,P|35:252|-22:244,1,92,2|2,0:0|0:0,0:0:0:0:
0,299,25559,2,0,P|38:347|148:353,1,138,2|2,0:0|0:0,0:0:0:0:
199,317,26309,2,0,L|248:317,1,46,2|0,0:0|0:0,0:0:0:0:
288,343,26609,1,2,0:0:0:0:
288,343,26759,6,0,P|361:343|424:309,1,138,2|2,0:0|0:0,0:0:0:0:
466,225,27509,2,0,L|535:222,2,46,2|0|2,0:0|0:0|0:0,0:0:0:0:
439,182,27959,2,0,P|426:130|424:40,1,138,2|2,0:0|0:0,0:0:0:0:
330,6,28709,2,0,L|251:9,1,46,2|0,0:0|0:0,0:0:0:0:
243,39,29009,1,2,0:0:0:0:
243,39,29159,6,0,P|230:90|228:181,1,138,6|2,0:0|0:0,0:0:0:0:
304,241,29909,2,0,P|311:289|311:348,1,92,2|2,0:0|0:0,0:0:0:0:
276,368,30359,2,0,P|197:369|124:347,1,138,2|2,0:0|0:0,0:0:0:0:
72,279,31109,2,0,L|74:214,1,46,2|0,0:0|0:0,0:0:0:0:
106,194,31409,1,2,0:0:0:0:
106,194,31559,6,0,L|102:64,1,92,2|0,0:0|0:0,0:0:0:0:
4,79,32159,2,0,L|8:209,1,92,2|0,0:0|0:0,0:0:0:0:
10,272,32759,2,0,P|93:283|176:276,1,138,2|2,0:0|0:0,0:0:0:0:
238,237,33509,2,0,L|319:244,1,46,2|0,0:0|0:0,0:0:0:0:
321,275,33809,1,2,0:0:0:0:
321,275,33959,6,0,P|421:273|465:217,1,138,2|2,0:0|0:0,0:0:0:0:
369,186,34709,2,0,P|367:134|379:60,1,92,2|2,0:0|0:0,0:0:0:0:
384,45,35159,2,0,P|331:42|237:42,1,138,2|2,0:0|0:0,0:0:0:0:
159,93,35909,2,0,L|91:91,1,46,2|0,0:0|0:0,0:0:0:0:
72,61,36209,1,2,0:0:0:0:
72,61,36359,6,0,P|73:129|65:209,1,138,2|2,0:0|0:0,0:0:0:0:
20,288,37109,2,0,L|22:357,2,46,2|0|2,0:0|0:0|0:0,0:0:0:0:
70,296,37559,2,0,P|106:297|205:285,1,92,2|0,0:0|1:0,0:0:0:0:
211,284,38009,1,0,1:0:0:0:
280,210,38309,2,0,L|278:141,2,46,2|2|2,0:0|0:0|0:0,0:0:0:0:
324,236,38759,6,0,P|360:237|459:225,1,103.499996841431,6|0,0:0|1:0,0:0:0:0:
477,217,39209,2,0,L|473:79,1,103.499996841431,2|0,0:0|0:0,0:0:0:0:
472,61,39659,1,0,1:0:0:0:
379,13,39959,2,0,P|343:12|244:24,1,103.499996841431,2|0,0:0|1:0,0:0:0:0:
226,32,40409,2,0,L|230:170,1,103.499996841431,2|2,0:0|0:0,0:0:0:0:
231,188,40859,1,0,1:0:0:0:
330,158,41159,6,0,P|319:243|231:291,1,103.499996841431,2|0,0:0|1:0,0:0:0:0:
267,285,41609,2,0,P|146:247|127:188,1,103.499996841431,0|2,1:0|0:0,0:0:0:0:
136,230,42059,2,0,P|150:124|204:88,1,103.499996841431,0|2,1:0|0:0,0:0:0:0:
231,188,42659,1,0,1:0:0:0:
231,188,42809,2,0,P|247:139|239:89,1,103.499996841431,0|2,1:0|0:0,0:0:0:0:
273,49,43259,2,0,P|296:44|372:46,1,51.7499984207154,0|2,1:0|0:0,0:0:0:0:
362,76,43559,6,0,P|410:86|475:86,1,103.499996841431,2|0,0:0|1:0,0:0:0:0:
501,123,44009,2,0,L|491:248,1,103.499996841431,2|0,0:0|0:0,0:0:0:0:
491,277,44459,1,0,1:0:0:0:
403,332,44759,2,0,P|351:331|300:320,1,103.499996841431,2|0,0:0|1:0,0:0:0:0:
256,293,45209,1,2,0:0:0:0:
172,354,45509,2,0,L|92:344,1,51.7499984207154,2|0,0:0|1:0,0:0:0:0:
161,251,45959,6,0,P|167:202|168:121,1,103.499996841431,2|0,0:0|1:0,0:0:0:0:
160,96,46409,1,0,1:0:0:0:
96,14,46709,2,0,L|26:22,1,51.7499984207154,2|0,0:0|1:0,0:0:0:0:
7,116,47159,2,0,P|1:165|0:246,1,103.499996841431,2|0,0:0|1:0,0:0:0:0:
0,271,47609,2,0,L|143:279,1,103.499996841431,0|2,1:0|0:0,0:0:0:0:
143,308,48059,2,0,L|214:304,1,51.7499984207154,0|2,1:0|0:0,0:0:0:0:
234,271,48359,6,0,L|377:279,1,103.499996841431,6|0,0:0|1:0,0:0:0:0:
372,238,48809,2,0,P|389:191|400:92,1,103.499996841431,2|0,0:0|0:0,0:0:0:0:
401,86,49259,1,0,1:0:0:0:
315,28,49559,2,0,L|172:20,1,103.499996841431,2|0,0:0|1:0,0:0:0:0:
177,61,50009,2,0,P|160:108|149:207,1,103.499996841431,2|2,0:0|0:0,0:0:0:0:
148,213,50459,1,0,1:0:0:0:
249,190,50759,6,0,L|392:198,1,103.499996841431,2|0,0:0|1:0,0:0:0:0:
389,232,51209,2,0,P|391:287|383:335,1,103.499996841431,0|2,1:0|0:0,0:0:0:0:
340,364,51659,2,0,L|197:356,1,103.499996841431,0|2,1:0|0:0,0:0:0:0:
156,291,52259,1,0,1:0:0:0:
156,291,52409,2,0,L|13:299,1,103.499996841431,0|0,1:0|0:0,0:0:0:0:
10,266,52859,2,0,P|3:228|8:191,1,51.7499984207154,0|2,1:0|0:0,0:0:0:0:
42,180,53159,6,0,P|53:139|59:47,1,103.499996841431,6|0,0:0|1:0,0:0:0:0:
56,26,53609,2,0,L|159:20,1,103.499996841431,2|0,0:0|0:0,0:0:0:0:
212,18,54059,1,0,1:0:0:0:
305,62,54359,2,0,L|408:56,1,103.499996841431,2|0,0:0|1:0,0:0:0:0:
434,100,54809,2,0,P|445:141|451:233,1,103.499996841431,2|2,0:0|0:0,0:0:0:0:
446,253,55259,1,0,1:0:0:0:
363,315,55559,6,0,L|260:321,1,103.499996841431,2|0,0:0|1:0,0:0:0:0:
219,288,56009,1,2,0:0:0:0:
219,288,56159,2,0,L|116:294,1,103.499996841431,2|0,0:0|1:0,0:0:0:0:
125,193,56759,2,0,L|228:187,1,103.499996841431,2|0,0:0|1:0,0:0:0:0:
277,205,57209,1,2,0:0:0:0:
277,205,57359,2,0,L|380:199,1,103.499996841431,2|0,0:0|1:0,0:0:0:0:
478,233,57959,6,0,P|479:295|457:376,1,103.499996841431,6|0,0:0|1:0,0:0:0:0:
422,352,58409,2,0,L|319:358,2,103.499996841431,2|2|2,0:0|0:0|0:0,0:0:0:0:
422,352,60359,6,0,L|298:359,1,115,6|0,0:0|1:0,0:0:0:0:
261,323,60809,2,0,L|137:316,1,115,2|0,0:0|1:0,0:0:0:0:
31,308,61409,2,0,P|14:243|18:156,1,115,2|2,0:0|0:0,0:0:0:0:
56,157,61859,2,0,L|64:69,1,57.5,0|2,1:0|0:0,0:0:0:0:
13,68,62159,2,0,L|5:-20,1,57.5,2|2,0:0|0:0,0:0:0:0:
122,16,62609,6,0,P|168:26|261:21,1,115,2|2,0:0|0:0,0:0:0:0:
292,16,63059,1,0,1:0:0:0:
292,16,63209,2,0,L|295:154,1,115,2|2,0:0|0:0,0:0:0:0:
249,166,63659,1,0,1:0:0:0:
249,166,63809,2,0,L|246:304,1,115,2|2,0:0|0:0,0:0:0:0:
293,314,64259,1,0,1:0:0:0:
293,314,64409,2,0,P|339:324|432:319,1,115,2|2,0:0|0:0,0:0:0:0:
463,319,64859,1,0,1:0:0:0:
508,213,65159,6,0,L|511:75,1,115,6|0,0:0|1:0,0:0:0:0:
512,40,65609,2,0,P|466:30|373:35,1,115,2|0,0:0|1:0,0:0:0:0:
314,109,66209,2,0,P|256:110|200:99,1,115,2|2,0:0|0:0,0:0:0:0:
150,69,66659,2,0,L|57:72,1,57.5,0|2,1:0|0:0,0:0:0:0:
59,118,66959,2,0,L|-34:115,2,57.5,2|2|0,0:0|0:0|1:0,0:0:0:0:
94,163,67409,6,0,P|122:273|89:327,1,115,2|0,0:0|0:0,0:0:0:0:
96,320,67859,2,0,L|224:331,2,115,0|2|0,1:0|0:0|1:0,0:0:0:0:
11,243,68759,1,2,0:0:0:0:
120,207,69059,2,0,L|248:218,2,115,0|0|0,1:0|1:0|1:0,0:0:0:0:
11,243,69959,6,0,P|21:149|92:95,1,115,6|0,0:0|1:0,0:0:0:0:
77,99,70409,2,0,L|205:110,1,115,2|0,0:0|1:0,0:0:0:0:
234,217,71009,2,0,L|362:228,1,115,2|2,0:0|0:0,0:0:0:0:
392,189,71459,2,0,P|406:153|407:96,1,57.5,0|2,1:0|0:0,0:0:0:0:
375,88,71759,2,0,P|380:59|391:33,1,57.5,2|2,0:0|0:0,0:0:0:0:
505,17,72209,6,0,P|512:68|512:139,1,115,2|2,0:0|0:0,0:0:0:0:
494,185,72659,1,0,1:0:0:0:
494,185,72809,2,0,P|487:236|487:307,1,115,2|2,0:0|0:0,0:0:0:0:
498,355,73259,1,0,1:0:0:0:
498,355,73409,2,0,L|336:351,1,115,2|2,0:0|0:0,0:0:0:0:
334,321,73859,1,0,1:0:0:0:
334,321,74009,2,0,L|172:325,1,115,2|2,0:0|0:0,0:0:0:0:
161,325,74459,1,0,1:0:0:0:
177,211,74759,6,0,L|339:207,1,115,6|0,0:0|1:0,0:0:0:0:
350,207,75209,2,0,P|364:164|370:66,1,115,2|0,0:0|1:0,0:0:0:0:
295,8,75809,2,0,L|133:12,1,115,2|2,0:0|0:0,0:0:0:0:
146,57,76259,2,0,P|139:90|140:149,1,57.5,0|2,1:0|0:0,0:0:0:0:
172,159,76559,2,0,P|179:192|178:251,2,57.5,2|2|0,0:0|0:0|1:0,0:0:0:0:
226,139,77009,6,0,P|273:131|362:133,1,115,2|0,0:0|0:0,0:0:0:0:
380,172,77459,2,0,P|427:179|516:178,2,115,0|2|0,1:0|0:0|1:0,0:0:0:0:
402,58,78359,1,2,0:0:0:0:
293,96,78659,1,0,1:0:0:0:
184,134,78959,2,0,L|178:226,1,57.5,0|0,1:0|1:0,0:0:0:0:
221,231,79259,2,0,L|227:323,1,57.5,0|0,1:0|1:0,0:0:0:0:
191,335,79559,6,0,P|243:348|337:343,1,115,6|0,0:0|1:0,0:0:0:0:
360,337,80009,1,2,0:0:0:0:
451,267,80309,2,0,L|525:260,2,57.5,2|0|0,0:0|1:0|0:0,0:0:0:0:
406,229,80759,2,0,P|354:216|260:221,1,115,2|0,0:0|1:0,0:0:0:0:
237,227,81209,1,2,0:0:0:0:
146,157,81509,2,0,L|72:150,2,57.5,2|0|0,0:0|1:0|0:0,0:0:0:0:
191,119,81959,6,0,P|243:106|337:111,1,115,2|0,0:0|1:0,0:0:0:0:
360,117,82409,1,2,0:0:0:0:
451,187,82709,2,0,L|525:194,2,57.5,2|0|0,0:0|1:0|0:0,0:0:0:0:
406,225,83159,2,0,P|354:238|260:233,1,115,6|0,0:0|1:0,0:0:0:0:
180,211,83759,2,0,L|106:218,1,57.5,0|0,1:0|1:0,0:0:0:0:
122,43,84359,6,0,L|196:50,2,57.5,6|0|0,0:0|0:0|1:0,0:0:0:0:
64,38,84809,2,0,P|30:90|19:182,1,115,2|0,0:0|1:0,0:0:0:0:
17,255,85409,2,0,P|31:310|63:357,1,115,2|0,0:0|1:0,0:0:0:0:
176,334,86009,2,0,P|249:335|337:356,1,115,2|2,0:0|0:0,0:0:0:0:
338,375,86459,2,0,L|408:371,1,57.5,0|2,1:0|0:0,0:0:0:0:
437,331,86759,6,0,L|507:335,2,57.5,2|0|0,0:0|0:0|1:0,0:0:0:0:
428,273,87209,2,0,P|428:217|447:142,1,115,2|2,0:0|0:0,0:0:0:0:
480,118,87659,2,0,L|477:48,1,57.5,0|2,1:0|0:0,0:0:0:0:
444,13,87959,2,0,P|391:6|323:8,1,115,2|4,0:0|0:0,0:0:0:0:
275,28,88409,1,2,0:0:0:0:
275,28,88559,2,0,L|281:168,2,115,0|0|0,1:0|1:0|0:0,0:0:0:0:
