osu file format v14

[General]
AudioFilename: audio.mp3
AudioLeadIn: 0
PreviewTime: 59384
Countdown: 0
SampleSet: Soft
StackLeniency: 0.3
Mode: 0
LetterboxInBreaks: 0
WidescreenStoryboard: 0

[Editor]
DistanceSpacing: 0.5
BeatDivisor: 4
GridSize: 32
TimelineZoom: 2.1

[Metadata]
Title:Peace Sign (TV edit.)
TitleUnicode:ピースサイン(TV edit.)
Artist:Kenshi Yonezu
ArtistUnicode:米津玄師
Creator:Yasaija 714
Version:Lasse's Extra
Source:僕のヒーローアカデミア
Tags:ハチ boku no hero academia opening tv size Lefia Pata-Mon toybot _kotachi_ Lasse
BeatmapID:1258156
BeatmapSetID:593466

[Difficulty]
HPDrainRate:7
CircleSize:4.5
OverallDifficulty:8.7
ApproachRate:9.2
SliderMultiplier:1.92
SliderTickRate:1

[Events]
//Background and Video events
0,0,"BG.jpg",0,0
Video,0,"video.avi"
//Break Periods
//Storyboard Layer 0 (Background)
//Storyboard Layer 1 (Fail)
//Storyboard Layer 2 (Pass)
//Storyboard Layer 3 (Foreground)
//Storyboard Sound Samples

[TimingPoints]
359,300,4,2,22,50,1,0
359,-133.333333333333,4,2,22,50,0,0
809,-133.333333333333,4,2,22,50,0,0
9359,-133.333333333333,4,2,22,40,0,0
9509,-133.333333333333,4,2,22,45,0,0
9659,-266.666666666667,4,2,22,30,0,0
9959,-100,4,2,22,70,0,0
11234,-100,4,2,23,5,0,0
11309,-100,4,2,22,70,0,0
13034,-100,4,2,23,5,0,0
13109,-100,4,2,22,70,0,0
14234,-100,4,2,23,5,0,0
14309,-100,4,2,22,70,0,0
16034,-100,4,2,23,5,0,0
16109,-100,4,2,22,70,0,0
17834,-100,4,2,23,5,0,0
17909,-100,4,2,22,70,0,0
19109,-100,4,2,22,65,0,0
19259,-100,4,2,22,63,0,0
19409,-100,4,2,22,60,0,0
19559,-153.846153846153,4,2,25,55,0,0
37859,-153.846153846153,4,2,25,50,0,0
38009,-200,4,2,22,58,0,0
38759,-125,4,2,22,60,0,0
38984,-125,4,2,23,5,0,0
39059,-125,4,2,22,60,0,0
39884,-125,4,2,23,5,0,0
39959,-125,4,2,22,60,0,0
40184,-125,4,2,23,5,0,0
40259,-125,4,2,22,60,0,0
41384,-125,4,2,23,5,0,0
41459,-125,4,2,22,60,0,0
43784,-125,4,2,23,5,0,0
43859,-125,4,2,22,60,0,0
46184,-125,4,2,23,5,0,0
46259,-125,4,2,22,60,0,0
48584,-125,4,2,23,5,0,0
48659,-125,4,2,22,60,0,0
49784,-125,4,2,23,5,0,0
49859,-125,4,2,22,60,0,0
50984,-125,4,2,23,5,0,0
51059,-125,4,2,22,60,0,0
53384,-125,4,2,23,5,0,0
53459,-125,4,2,22,60,0,0
54284,-125,4,2,23,5,0,0
54359,-125,4,2,22,60,0,0
54584,-125,4,2,23,5,0,0
54659,-125,4,2,22,60,0,0
55484,-125,4,2,23,5,0,0
55559,-111.111111111111,4,2,22,65,0,0
55784,-125,4,2,23,5,0,0
55859,-111.111111111111,4,2,22,65,0,0
56159,-100,4,2,22,65,0,0
56384,-125,4,2,23,5,0,0
56459,-100,4,2,22,65,0,0
56759,-90.9090909090909,4,2,22,65,0,0
56984,-125,4,2,23,5,0,0
57059,-90.9090909090909,4,2,22,65,0,0
57434,-125,4,2,23,5,0,0
57509,-90.9090909090909,4,2,22,65,0,0
57959,-90.9090909090909,4,2,22,70,0,0
58409,-66.6666666666667,4,2,22,70,0,0
58709,-66.6666666666667,4,2,22,73,0,0
59159,-66.6666666666667,4,2,23,20,0,0
59459,-200,4,2,22,20,0,0
59684,-200,4,2,23,5,0,0
59759,-153.846153846153,4,2,22,25,0,0
59984,-200,4,2,23,5,0,0
60059,-125,4,2,22,30,0,0
60284,-200,4,2,23,5,0,0
60359,-90.9090909090909,4,2,22,75,0,1
60584,-90.9090909090909,4,2,23,5,0,1
60659,-90.9090909090909,4,2,22,75,0,1
64409,-76.9230769230769,4,2,22,75,0,1
64709,-66.6666666666667,4,2,22,75,0,1
64859,-66.6666666666667,4,2,22,75,0,0
65009,-71.4285714285714,4,2,22,60,0,1
65159,-90.9090909090909,4,2,22,75,0,1
66209,-66.6666666666667,4,2,22,75,0,1
66509,-90.9090909090909,4,2,22,75,0,1
67409,-76.9230769230769,4,2,22,75,0,1
67859,-90.9090909090909,4,2,22,75,0,1
69059,-76.9230769230769,4,2,22,75,0,1
69284,-76.9230769230769,4,2,23,5,0,1
69359,-71.4285714285714,4,2,22,75,0,1
69584,-71.4285714285714,4,2,22,50,0,1
69659,-90.9090909090909,4,2,22,70,0,0
69734,-90.9090909090909,4,2,22,72,0,0
69809,-90.9090909090909,4,2,22,74,0,0
69884,-90.9090909090909,4,2,22,76,0,0
69959,-90.9090909090909,4,2,22,75,0,1
70184,-90.9090909090909,4,2,23,5,0,1
70259,-90.9090909090909,4,2,22,75,0,1
74009,-76.9230769230769,4,2,22,75,0,1
74309,-66.6666666666667,4,2,22,75,0,1
74459,-66.6666666666667,4,2,22,77,0,0
74759,-90.9090909090909,4,2,22,75,0,1
75809,-71.4285714285714,4,2,22,75,0,1
75959,-71.4285714285714,4,2,22,60,0,1
76109,-90.9090909090909,4,2,22,75,0,1
77009,-76.9230769230769,4,2,22,75,0,1
77459,-90.9090909090909,4,2,22,75,0,1
79559,-133.333333333333,4,2,22,62,0,0
79784,-133.333333333333,4,2,23,5,0,0
79859,-133.333333333333,4,2,22,62,0,0
80234,-133.333333333333,4,2,23,5,0,0
80309,-133.333333333333,4,2,22,62,0,0
82184,-133.333333333333,4,2,23,5,0,0
82259,-133.333333333333,4,2,22,62,0,0
82634,-133.333333333333,4,2,23,5,0,0
82709,-133.333333333333,4,2,22,62,0,0
84359,-100,4,2,22,70,0,0
85634,-100,4,2,23,5,0,0
85709,-100,4,2,22,70,0,0
87434,-100,4,2,23,5,0,0
87509,-100,4,2,22,70,0,0
89159,-100,4,2,22,50,0,0

[Colours]
Combo1 : 250,135,80
Combo2 : 14,220,122
Combo3 : 128,255,255
Combo4 : 255,128,128

[HitObjects]
125,178,359,6,0,B|92:134|132:72|132:72|148:109,1,144.000005493164,6|4,1:2|0:3,0:0:0:0:
179,246,809,1,4,0:3:0:0:
179,246,959,2,0,P|149:263|113:266,2,72.0000027465821,2|0|4,1:2|0:2|0:3,0:0:0:0:
420,40,1559,6,0,P|408:113|402:190,1,144.000005493164,2|4,1:2|0:3,0:0:0:0:
416,326,2009,2,0,P|402:284|383:253,1,72.0000027465821,0|4,1:2|0:3,0:0:0:0:
501,186,2309,1,8,0:3:0:0:
501,186,2459,2,0,P|491:220|473:251,1,72.0000027465821,0|0,1:2|0:2,0:0:0:0:
319,328,2759,6,0,B|279:329|256:298|256:298|226:324|188:314,1,144.000005493164,2|4,1:2|0:3,0:0:0:0:
197,157,3209,1,4,0:3:0:0:
197,157,3359,2,0,P|204:192|205:228,2,72.0000027465821,2|0|4,1:2|0:2|0:3,0:0:0:0:
5,74,3959,6,0,P|71:81|99:19,1,144.000005493164,2|4,1:2|0:3,0:0:0:0:
5,74,4409,2,0,P|1:111|-1:146,1,72.0000027465821,0|4,1:2|0:3,0:0:0:0:
123,208,4709,1,8,0:3:0:0:
123,208,4859,2,0,P|126:172|128:136,1,72.0000027465821,0|0,1:2|0:2,0:0:0:0:
0,289,5159,6,0,P|-2:217|0:146,1,144.000005493164,6|4,1:2|0:3,0:0:0:0:
97,48,5609,1,4,0:3:0:0:
97,48,5759,2,0,P|132:54|168:57,2,72.0000027465821,2|0|4,1:2|0:2|0:3,0:0:0:0:
256,255,6359,6,0,P|193:220|122:207,1,144.000005493164,2|4,1:2|0:3,0:0:0:0:
256,255,6809,2,0,P|293:255|343:249,1,72.0000027465821,0|4,1:2|0:3,0:0:0:0:
412,125,7109,1,8,0:3:0:0:
412,125,7259,2,0,P|393:157|373:203,1,72.0000027465821,0|0,1:2|0:2,0:0:0:0:
437,351,7559,6,0,P|465:292|407:263,1,144.000005493164,2|4,1:2|0:3,0:0:0:0:
437,351,8009,2,0,P|472:351|508:347,1,72.0000027465821,4|2,0:3|1:2,0:0:0:0:
327,251,8309,1,0,0:2:0:0:
327,251,8459,2,0,P|291:250|255:254,1,72.0000027465821,4|0,0:3|0:0,0:0:0:0:
139,337,8759,5,2,1:2:0:0:
155,237,8909,1,2,0:2:0:0:
118,142,9059,1,10,2:3:0:0:
38,78,9209,1,6,0:3:0:0:
23,180,9359,5,2,0:2:0:0:
118,142,9509,1,2,0:2:0:0:
121,124,9584,1,2,0:2:0:0:
124,106,9659,6,0,L|132:56,1,36.0000013732911,2|0,0:2|0:2,0:0:0:0:
23,180,9959,5,6,1:2:0:0:
133,53,10109,2,0,B|176:32|176:32|246:41,1,96,2|8,1:1|0:2,0:1:0:0:
138,301,10409,2,0,B|98:274|98:274|71:209,1,96,2|0,1:1|0:2,0:1:0:0:
351,173,10709,2,0,B|347:220|347:220|304:276,1,96,2|8,1:1|0:2,0:1:0:0:
93,364,11009,6,0,B|79:328|79:328|97:269|97:269|79:228,1,144,2|0,1:1|0:2,0:1:0:0:
73,133,11309,2,0,L|79:234,1,96,2|8,1:1|0:2,0:1:0:0:
224,352,11609,1,2,1:1:0:0:
224,352,11909,5,2,1:2:0:0:
256,192,12059,1,10,0:2:0:0:
391,326,12209,2,0,B|441:339|441:339|481:319,1,96,2|0,1:1|1:2,0:0:0:0:
272,112,12509,5,2,0:1:0:0:
240,272,12659,1,8,0:2:0:0:
133,153,12809,2,0,B|109:138|85:144|85:144|56:163|27:162|27:162|51:166|75:175,1,144,2|0,1:1|0:2,0:0:0:0:
133,153,13109,5,2,1:1:0:0:
0,253,13259,1,10,0:2:0:0:
26,71,13409,1,2,1:2:0:0:
107,229,13559,5,2,0:1:0:0:
26,71,13709,1,2,1:2:0:0:
0,253,13859,1,10,0:2:0:0:
122,63,14009,6,0,B|148:56|168:67|168:67|190:55|190:55|212:70|241:71|265:55,1,144,2|0,1:1|0:2,0:0:0:0:
257,59,14309,1,2,1:2:0:0:
221,241,14459,2,0,B|206:194|206:194|218:148,1,96,10|0,0:1|1:2,0:0:0:0:
339,325,14759,5,6,1:2:0:0:
457,241,14909,2,0,B|472:194|472:194|459:148,1,96,2|8,1:1|0:2,0:0:0:0:
258,369,15209,2,0,B|306:358|306:358|339:324,1,96,2|0,1:1|0:2,0:0:0:0:
47,260,15509,2,0,B|80:296|80:296|126:308,1,96,2|8,1:1|0:2,0:0:0:0:
468,289,15809,6,0,B|472:246|472:246|453:196|453:196|458:148,1,144,2|0,1:1|0:2,0:0:0:0:
456,57,16109,2,0,B|443:102|443:102|458:149,1,96,2|8,1:1|0:2,0:0:0:0:
391,258,16409,1,2,1:1:0:0:
391,258,16709,5,2,1:2:0:0:
297,118,16859,1,10,0:2:0:0:
182,292,17009,2,0,B|141:304|113:286|113:286|125:307,1,96,2|0,1:1|1:2,0:0:0:0:
297,118,17309,5,2,0:1:0:0:
182,292,17459,1,8,0:2:0:0:
161,128,17609,2,0,B|153:20|153:20|180:51,1,144,2|0,1:1|0:2,0:0:0:0:
161,128,17909,5,2,1:1:0:0:
63,60,18059,1,10,0:2:0:0:
134,211,18209,1,2,1:2:0:0:
0,131,18359,5,2,0:1:0:0:
134,211,18509,1,2,1:2:0:0:
63,60,18659,1,10,0:2:0:0:
27,236,18809,2,0,L|17:289,2,48,2|2|2,0:1|0:2|0:2,0:0:0:0:
161,128,19109,5,8,0:2:0:0:
219,192,19259,1,8,0:2:0:0:
246,110,19409,1,8,0:2:0:0:
134,211,19559,5,4,1:2:0:0:
272,354,19859,1,10,0:2:0:0:
301,259,20009,1,2,0:2:0:0:
448,125,20309,6,0,P|478:125|513:144,1,62.3999971435548,2|8,0:2|0:2,0:0:0:0:
371,178,20609,1,2,0:2:0:0:
364,85,20759,2,0,P|380:59|414:38,1,62.3999971435548,2|0,0:2|0:2,0:0:0:0:
294,143,21059,1,10,0:2:0:0:
276,58,21209,1,2,0:2:0:0:
300,259,21509,6,0,P|270:255|239:245,1,62.3999971435548,2|8,0:2|0:2,0:0:0:0:
170,191,21809,1,2,1:2:0:0:
159,279,21959,5,2,1:2:0:0:
170,191,22109,1,2,0:2:0:0:
99,137,22259,2,0,P|69:127|38:123,1,62.3999971435548,10|8,0:2|0:2,0:0:0:0:
181,102,22559,2,0,P|174:71|162:42,1,62.3999971435548,2|0,0:2|0:2,0:0:0:0:
252,155,22859,2,0,P|275:134|293:109,1,62.3999971435548,10|0,0:2|0:2,0:0:0:0:
162,42,23159,5,2,0:2:0:0:
65,216,23459,1,10,0:2:0:0:
38,123,23609,1,10,0:2:0:0:
20,321,23909,6,0,P|48:330|81:329,1,62.3999971435548,0|8,0:2|0:2,0:0:0:0:
154,281,24209,1,2,1:2:0:0:
235,249,24359,2,0,P|264:247|295:257,1,62.3999971435548,2|0,1:2|0:2,0:0:0:0:
354,320,24659,5,10,0:2:0:0:
295,257,24809,2,0,P|285:227|287:196,1,62.3999971435548,2|0,0:2|0:2,0:0:0:0:
313,112,25109,2,0,P|334:89|361:74,1,62.3999971435548,2|8,0:2|0:2,0:0:0:0:
267,39,25409,5,2,0:2:0:0:
361,74,25559,1,2,0:2:0:0:
295,256,25859,1,10,0:2:0:0:
201,222,26009,1,2,0:2:0:0:
267,39,26309,5,2,0:2:0:0:
361,74,26459,1,10,0:2:0:0:
378,171,26609,1,2,0:2:0:0:
471,205,26759,2,0,P|487:231|495:261,1,62.3999971435548,2|0,1:2|0:2,0:0:0:0:
378,171,27059,1,10,0:2:0:0:
396,269,27209,2,0,P|396:300|389:330,1,62.3999971435548,10|0,0:2|0:2,0:0:0:0:
378,171,27509,5,2,0:2:0:0:
471,205,27659,1,10,0:2:0:0:
454,108,27809,1,2,0:2:0:0:
454,108,27959,2,0,P|446:77|446:46,1,62.3999971435548,2|0,0:2|0:2,0:0:0:0:
382,175,28259,1,10,0:2:0:0:
382,175,28409,1,10,0:2:0:0:
189,122,28709,5,2,1:2:0:0:
278,92,28859,1,10,0:2:0:0:
261,189,29009,1,2,1:2:0:0:
206,25,29159,5,6,0:2:0:0:
166,217,29459,1,10,0:2:0:0:
96,150,29609,1,2,0:2:0:0:
3,345,29909,6,0,P|33:337|64:335,1,62.3999971435548,2|8,0:2|0:2,0:0:0:0:
163,350,30209,1,2,0:2:0:0:
87,278,30359,2,0,P|73:305|64:335,1,62.3999971435548,2|0,0:2|0:2,0:0:0:0:
163,350,30659,1,10,0:2:0:0:
256,316,30809,1,2,0:2:0:0:
448,350,31109,5,2,0:2:0:0:
355,316,31259,1,10,0:2:0:0:
290,240,31409,1,2,1:2:0:0:
271,141,31559,2,0,P|247:120|218:109,1,62.3999971435548,2|0,1:2|0:2,0:0:0:0:
290,240,31859,5,10,0:2:0:0:
271,141,32009,1,10,0:2:0:0:
196,207,32159,2,0,P|165:211|134:206,1,62.3999971435548,2|0,0:2|0:2,0:0:0:0:
271,141,32459,5,10,0:2:0:0:
196,207,32609,1,2,0:2:0:0:
290,240,32759,1,2,0:2:0:0:
440,108,33059,1,10,0:2:0:0:
346,75,33209,1,10,0:2:0:0:
196,207,33509,5,2,1:2:0:0:
290,240,33659,1,10,0:2:0:0:
308,337,33809,1,2,1:2:0:0:
401,369,33959,2,0,P|430:371|461:361,1,62.3999971435548,2|0,1:2|0:2,0:0:0:0:
474,261,34259,6,0,P|445:259|414:269,1,62.3999971435548,2|0,0:2|0:2,0:0:0:0:
403,281,34484,2,0,P|381:282|355:277,1,31.1999985717774,2|0,0:2|0:2,0:0:0:0:
247,326,34709,2,0,P|276:337|307:336,1,62.3999971435548,2|8,0:2|0:2,0:0:0:0:
290,240,35009,5,2,0:2:0:0:
190,246,35159,1,2,0:2:0:0:
100,68,35459,1,10,0:2:0:0:
0,74,35609,1,2,0:2:0:0:
95,278,35909,5,2,0:2:0:0:
190,246,36059,1,10,0:2:0:0:
290,240,36209,1,2,1:2:0:0:
388,260,36359,2,0,P|415:263|460:254,1,62.3999971435548,2|0,1:2|0:2,0:0:0:0:
290,240,36659,1,10,0:2:0:0:
356,165,36809,2,0,P|372:143|386:99,1,62.3999971435548,10|0,0:2|0:2,0:0:0:0:
290,240,37109,5,2,0:2:0:0:
258,145,37259,1,10,0:2:0:0:
190,246,37409,1,2,0:2:0:0:
158,151,37559,2,0,P|145:125|125:98,1,62.3999971435548,12|0,0:2|0:2,0:0:0:0:
95,278,37859,5,8,0:2:0:0:
158,151,38009,2,0,P|111:136|65:140,1,96,10|4,0:2|0:3,0:0:0:0:
32,219,38459,5,10,0:3:0:0:
95,278,38609,1,8,0:3:0:0:
221,232,38759,6,0,B|259:227|287:253|287:253|310:256|336:246,1,115.2,6|0,1:2|0:2,0:0:0:0:
358,181,39059,1,10,0:2:0:0:
358,181,39209,2,0,P|330:220|330:252,1,76.8,0|0,1:2|0:2,0:0:0:0:
329,247,39659,6,0,P|342:301|313:349,1,115.2,10|0,0:2|0:2,0:0:0:0:
412,296,39959,2,0,B|377:282|344:289|344:289|343:270|328:246,1,115.2,2|0,1:2|0:2,0:0:0:0:
430,223,40259,1,10,0:2:0:0:
430,223,40409,2,0,B|436:264|413:297|413:297|405:341|433:369,1,153.6,0|0,1:2|1:2,0:0:0:0:
512,269,40859,5,10,0:2:0:0:
430,223,41009,1,2,0:2:0:0:
404,132,41159,2,0,P|354:100|296:117,1,115.2,0|0,1:2|0:2,0:0:0:0:
302,111,41459,1,8,0:2:0:0:
404,132,41609,6,0,P|425:100|433:62,1,76.8,10|0,0:2|0:2,0:0:0:0:
429,222,41909,2,0,P|447:257|475:282,1,76.8,2|8,1:2|0:2,0:0:0:0:
338,200,42209,1,2,0:2:0:0:
338,200,42359,2,0,P|303:188|264:189,1,76.8,2|0,1:2|0:2,0:0:0:0:
188,243,42659,5,8,0:2:0:0:
150,141,42809,1,8,0:2:0:0:
263,189,42959,5,2,0:2:0:0:
233,101,43109,1,2,1:2:0:0:
150,141,43259,1,10,0:2:0:0:
120,53,43409,1,2,1:2:0:0:
40,201,43559,6,0,P|22:147|36:93,1,115.2,2|0,1:2|0:2,0:0:0:0:
36,92,43859,1,8,0:2:0:0:
40,201,44009,2,0,P|37:235|16:282,1,76.8,2|0,1:2|0:2,0:0:0:0:
48,378,44309,2,0,P|79:362|130:357,1,76.8,2|8,0:2|0:2,0:0:0:0:
297,322,44609,5,2,0:2:0:0:
197,282,44759,2,0,P|166:260|143:230,1,76.8,2|0,1:2|0:2,0:0:0:0:
21,274,45059,1,8,0:2:0:0:
142,230,45209,2,0,P|157:195|161:157,1,76.8,2|0,1:2|0:2,0:0:0:0:
148,33,45509,2,0,P|171:63|202:85,1,76.8,2|8,1:2|0:2,0:0:0:0:
493,39,45959,6,0,B|453:23|403:38|403:38|439:52,1,115.2,2|0,1:2|0:2,0:0:0:0:
424,46,46259,1,8,0:2:0:0:
404,181,46409,2,0,P|405:143|372:101,1,76.8,10|0,0:2|0:2,0:0:0:0:
485,243,46709,2,0,P|484:205|517:163,1,76.8,2|8,1:2|0:2,0:0:0:0:
512,342,47009,5,2,0:2:0:0:
512,342,47159,2,0,B|481:315|442:322|442:322|404:348|368:332,1,153.6,0|8,1:2|0:2,0:0:0:0:
403,180,47609,1,8,0:2:0:0:
403,180,47759,2,0,P|406:218|396:254,1,76.8,0|0,1:2|1:2,0:0:0:0:
287,336,48059,5,10,0:2:0:0:
232,262,48209,1,2,1:2:0:0:
130,331,48359,6,0,B|98:335|75:318|75:318|48:346|16:342,1,115.2,6|0,1:2|0:2,0:0:0:0:
17,267,48659,1,10,0:2:0:0:
17,267,48809,2,0,P|26:303|24:342,1,76.8,0|0,1:2|0:2,0:0:0:0:
23,158,49259,5,10,0:2:0:0:
109,189,49409,1,2,0:2:0:0:
184,135,49559,2,0,P|237:120|291:143,1,115.2,2|0,1:2|0:2,0:0:0:0:
240,219,49859,1,10,0:2:0:0:
240,219,50009,2,0,B|217:182|245:120|245:120|265:123|290:142,1,153.6,0|0,1:2|1:2,0:0:0:0:
429,246,50459,5,10,0:2:0:0:
337,222,50609,1,2,0:2:0:0:
290,142,50759,2,0,P|238:120|184:135,1,115.2,2|0,1:2|0:2,0:0:0:0:
184,134,51059,1,10,0:2:0:0:
290,142,51209,6,0,P|311:110|319:72,1,76.8,10|0,0:2|0:2,0:0:0:0:
337,222,51509,2,0,P|355:257|383:282,1,76.8,2|8,1:2|0:2,0:0:0:0:
245,223,51809,1,2,0:2:0:0:
245,223,51959,2,0,P|205:221|170:232,1,76.8,0|0,1:2|0:2,0:0:0:0:
316,362,52259,5,8,0:2:0:0:
337,222,52409,1,8,0:2:0:0:
245,223,52559,5,2,0:2:0:0:
290,142,52709,1,2,1:2:0:0:
337,222,52859,1,10,0:2:0:0:
383,142,53009,1,2,1:2:0:0:
441,288,53159,6,0,P|429:229|471:194,1,115.2,6|0,1:2|0:2,0:0:0:0:
510,309,53459,1,10,0:2:0:0:
510,309,53609,2,0,P|441:287|401:346,1,153.6,0|0,1:2|0:2,0:0:0:0:
238,356,54059,6,0,P|288:342|280:271,1,115.2,10|0,0:2|0:2,0:0:0:0:
263,202,54359,2,0,P|248:250|313:282,1,115.2,2|0,1:2|0:2,0:0:0:0:
242,360,54659,1,8,0:2:0:0:
242,360,54809,2,0,B|196:334|203:275|203:275|219:252|259:263,1,153.6,0|0,1:2|1:2,0:0:0:0:
125,346,55259,6,0,B|91:339|67:309|67:309|31:298|0:312,1,115.2,10|0,0:2|0:2,0:0:0:0:
0,379,55559,6,0,P|52:354|22:305,1,129.599996044922,2|0,1:2|0:2,0:0:0:0:
0,223,55859,2,0,L|4:124,1,86.3999973632813,8|0,0:2|1:2,0:0:0:0:
125,346,56159,6,0,P|180:330|150:267,1,144,2|8,0:2|0:2,0:0:0:0:
101,200,56459,2,0,L|114:90,1,96,8|0,0:2|0:2,0:0:0:0:
251,261,56759,6,0,P|306:245|256:178,1,158.400004833985,2|0,0:2|0:2,0:0:0:0:
202,126,57059,1,8,0:2:0:0:
202,126,57209,2,0,B|181:87|185:45|209:17|209:17|224:40|215:68,1,158.400004833985,2|0,1:2|0:2,0:0:0:0:
318,64,57509,1,2,0:2:0:0:
318,64,57659,2,0,P|267:75|218:57,1,105.600003222656,10|0,0:2|1:2,0:0:0:0:
70,278,57959,5,2,1:1:0:0:
218,57,58109,1,0,0:1:0:0:
265,258,58259,1,8,0:2:0:0:
412,79,58409,2,0,P|355:115|318:60,1,144.000005493164,2|0,0:1|0:2,0:0:0:0:
396,366,58709,5,2,1:1:0:0:
265,258,58859,1,8,0:2:0:0:
412,79,59009,2,0,P|445:154|401:210,1,144.000005493164,2|0,1:1|0:2,0:0:0:0:
415,201,59459,6,0,L|329:185,1,72,2|0,0:2|0:2,0:0:0:0:
331,205,59759,6,0,L|423:223,1,93.5999957153322,2|0,0:2|0:2,0:0:0:0:
428,243,60059,6,0,L|314:221,1,115.2,2|0,0:2|0:2,1:2:0:0:
225,240,60359,6,0,P|297:238|303:310,1,158.400004833985,6|0,0:2|0:2,0:0:0:0:
292,328,60659,1,10,0:2:0:0:
103,302,60809,6,0,P|85:252|97:202,1,105.600003222656,2|0,1:2|0:2,0:0:0:0:
314,221,61109,2,0,P|338:174|334:123,1,105.600003222656,2|8,1:2|0:2,0:0:0:0:
5,324,61409,6,0,P|51:299|103:302,1,105.600003222656,2|0,0:2|1:2,0:0:0:0:
292,328,61709,1,2,0:2:0:0:
213,132,61859,1,10,0:0:0:0:
203,235,62009,1,2,1:2:0:0:
302,29,62159,5,2,0:2:0:0:
298,185,62309,2,0,P|332:223|382:238,1,105.600003222656,2|8,1:2|0:2,0:0:0:0:
129,79,62609,6,0,P|166:43|218:33,1,105.600003222656,2|0,0:1|1:2,0:0:0:0:
383,238,62909,5,2,0:2:0:0:
380,63,63059,1,10,0:2:0:0:
213,130,63209,2,0,P|196:179|208:230,1,105.600003222656,2|0,1:1|0:2,0:0:0:0:
383,238,63509,5,2,1:2:0:0:
302,29,63659,1,10,0:2:0:0:
208,230,63809,2,0,P|162:254|110:252,1,105.600003222656,2|0,0:1|1:2,0:0:0:0:
300,368,64109,5,2,0:2:0:0:
109,251,64259,1,8,0:2:0:0:
383,238,64409,2,0,P|433:206|432:146,1,124.79999428711,2|0,1:1|0:2,0:0:0:0:
220,46,64709,5,2,1:1:0:0:
108,139,64859,2,0,P|48:106|49:37,1,144.000005493164,10|0,0:1|1:2,0:0:0:0:
200,332,65159,6,0,P|218:282|208:231,1,105.600003222656,6|0,0:2|0:2,0:0:0:0:
29,215,65459,5,10,0:2:0:0:
208,143,65609,2,0,P|257:160|292:200,1,105.600003222656,2|0,1:2|0:2,0:0:0:0:
124,288,65909,2,0,P|163:247|209:232,1,105.600003222656,2|8,1:2|0:2,0:0:0:0:
383,69,66209,6,2,B|345:70|323:54|323:54|292:56|264:77|264:77|218:83|188:55|188:55|155:45|138:58|138:58|153:60|163:65,1,288.000010986329,2|2,0:1|0:2,1:1:0:0:
124,288,66659,5,10,0:1:0:0:
163,65,66809,1,2,1:2:0:0:
205,317,66959,5,2,1:1:0:0:
98,121,67109,1,2,1:2:0:0:
59,344,67259,5,10,0:1:0:0:
243,93,67409,2,0,P|287:71|404:100,2,124.79999428711,2|2|2,0:1|1:2|0:2,0:0:0:0:
124,288,67859,5,10,0:1:0:0:
98,121,68009,1,2,1:2:0:0:
59,344,68159,1,2,0:1:0:0:
98,121,68309,1,2,1:2:0:0:
205,317,68459,1,10,0:1:0:0:
98,121,68609,1,2,0:2:0:0:
139,372,68759,5,2,1:2:0:0:
139,372,68909,1,2,1:2:0:0:
37,171,69059,6,0,P|28:83|106:42,1,187.199991430664,14|0,0:1|0:2,0:1:0:0:
98,121,69359,6,0,B|76:159|37:171|37:171|75:222|44:296,1,201.599993847656,10|0,0:1|0:2,0:1:0:0:
5,352,69659,5,8,0:2:0:0:
31,322,69734,1,8,0:2:0:0:
84,306,69809,1,8,0:2:0:0:
154,313,69884,1,8,0:2:0:0:
206,370,69959,6,0,P|280:378|309:310,1,158.400004833985,6|0,0:2|0:2,0:0:0:0:
304,290,70259,1,10,0:2:0:0:
210,106,70409,6,0,P|193:154|207:204,1,105.600003222656,2|0,1:2|0:2,0:0:0:0:
422,238,70709,2,0,P|439:190|425:140,1,105.600003222656,2|8,1:2|0:2,0:0:0:0:
207,205,71009,6,0,P|158:222|108:208,1,105.600003222656,2|0,0:2|1:2,0:0:0:0:
19,41,71309,1,2,0:2:0:0:
14,265,71459,1,10,0:2:0:0:
154,135,71609,1,2,1:2:0:0:
190,353,71759,5,2,0:2:0:0:
14,265,71909,2,0,P|-3:215|10:165,1,105.600003222656,2|8,1:2|0:2,0:0:0:0:
189,353,72209,6,0,P|203:302|185:253,1,105.600003222656,2|0,0:1|1:2,0:0:0:0:
10,166,72509,5,2,0:2:0:0:
5,359,72659,1,10,0:2:0:0:
186,254,72809,2,0,P|234:236|284:250,1,105.600003222656,2|0,1:1|0:2,0:0:0:0:
10,166,73109,5,2,1:2:0:0:
96,364,73259,1,10,0:2:0:0:
284,250,73409,2,0,P|310:205|305:153,1,105.600003222656,2|0,0:1|1:2,0:0:0:0:
71,70,73709,5,2,0:2:0:0:
53,288,73859,1,8,0:2:0:0:
305,153,74009,2,0,P|365:153|395:205,1,124.79999428711,2|0,1:1|0:2,0:0:0:0:
222,341,74309,5,2,1:1:0:0:
144,228,74459,2,0,P|77:225|53:288,1,144.000005493164,10|0,0:1|1:2,0:0:0:0:
395,205,74759,6,0,P|409:151|391:100,1,105.600003222656,6|0,0:2|0:2,0:0:0:0:
222,341,75059,5,10,0:2:0:0:
395,205,75209,2,0,P|445:217|481:255,1,105.600003222656,2|0,1:2|0:2,0:0:0:0:
512,39,75509,2,0,P|497:88|511:139,1,105.600003222656,2|8,1:2|0:2,0:0:0:0:
437,367,75809,6,0,P|397:308|320:320,1,134.399995898438,2|0,0:1|1:0,0:0:0:0:
131,363,76109,1,2,0:2:0:0:
339,307,76259,1,10,0:1:0:0:
75,155,76409,5,2,1:2:0:0:
131,363,76559,1,2,1:1:0:0:
283,99,76709,1,2,1:2:0:0:
339,307,76859,1,10,0:1:0:0:
75,155,77009,6,0,P|51:98|67:39,2,124.79999428711,2|2|2,0:1|1:2|0:2,0:0:0:0:
339,307,77459,5,10,0:1:0:0:
283,99,77609,1,2,1:2:0:0:
257,316,77759,1,2,0:1:0:0:
283,99,77909,1,2,1:2:0:0:
405,258,78059,1,10,0:1:0:0:
283,99,78209,1,2,0:2:0:0:
306,383,78359,5,2,1:1:0:0:
306,383,78509,1,2,1:2:0:0:
337,227,78659,1,10,1:0:0:0:
472,353,78809,1,10,0:0:0:0:
472,353,78884,1,10,0:0:0:0:
472,353,78959,1,10,0:1:0:0:
486,195,79109,1,8,0:0:0:0:
306,383,79259,5,10,0:1:0:0:
210,194,79409,1,10,0:1:0:0:
7,365,79559,6,0,P|40:312|1:271,1,108.000004119873,6|0,1:2|0:2,0:0:0:0:
0,208,79859,5,10,0:2:0:0:
107,268,80009,2,0,P|67:300|20:280,1,108.000004119873,2|0,1:2|0:2,0:0:0:0:
0,208,80309,5,2,1:2:0:0:
107,268,80459,1,10,0:2:0:0:
215,197,80609,5,2,0:2:0:0:
215,197,80759,2,0,P|250:190|285:195,1,72.0000027465821,0|0,1:2|0:2,0:0:0:0:
349,315,81059,5,10,0:2:0:0:
285,195,81209,2,0,B|265:144|289:95|289:95|238:123,1,144.000005493164,2|0,1:2|1:2,0:0:0:0:
218,278,81659,5,10,0:2:0:0:
285,195,81809,1,2,0:2:0:0:
349,315,81959,2,0,B|373:335|402:334|402:334|427:313|460:311,1,108.000004119873,6|0,0:2|0:2,0:0:0:0:
508,269,82259,5,8,0:2:0:0:
404,256,82409,2,0,B|398:293|413:326|413:326|425:319|447:312,1,108.000004119873,2|0,1:2|0:2,0:0:0:0:
508,269,82709,5,2,1:2:0:0:
453,384,82859,1,8,0:2:0:0:
508,269,83009,1,0,0:2:0:0:
285,195,83159,1,4,0:2:0:0:
233,337,83309,5,2,0:2:0:0:
128,208,83459,2,0,P|76:197|28:204,1,72.0000027465821,2|0,1:1|0:2,0:0:0:0:
222,16,83759,5,10,0:1:0:0:
285,195,83909,1,10,0:1:0:0:
285,195,84359,5,6,1:2:0:0:
173,89,84509,2,0,B|130:68|130:68|60:77,1,96,2|8,1:1|0:2,0:0:0:0:
285,195,84809,2,0,B|324:168|324:168|351:103,1,96,2|0,1:1|0:2,0:0:0:0:
137,238,85109,2,0,B|140:285|140:285|183:341,1,96,2|8,1:1|0:2,0:0:0:0:
420,208,85409,6,0,B|384:194|384:194|325:212|325:212|284:194,1,144,2|0,1:1|0:2,0:0:0:0:
192,184,85709,2,0,B|239:178|239:178|284:194,1,96,2|8,1:1|0:2,0:0:0:0:
379,325,86009,1,2,1:1:0:0:
379,325,86309,5,2,1:2:0:0:
230,255,86459,1,10,0:2:0:0:
379,325,86609,2,0,B|424:341|424:341|471:335,1,96,2|0,1:1|1:2,0:0:0:0:
325,120,86909,5,2,0:1:0:0:
230,255,87059,1,8,0:2:0:0:
101,120,87209,2,0,B|50:116|50:116|3:125|3:125|46:92,1,144,2|0,1:1|0:2,0:0:0:0:
101,120,87509,5,2,1:1:0:0:
26,283,87659,1,10,0:2:0:0:
0,122,87809,1,2,1:2:0:0:
155,264,87959,5,2,0:1:0:0:
0,122,88109,1,2,1:2:0:0:
26,283,88259,1,10,0:2:0:0:
180,108,88409,5,2,0:1:0:0:
180,108,88484,1,2,0:0:0:0:
180,108,88559,1,2,1:2:0:0:
240,318,88709,1,10,0:1:0:0:
450,259,88859,1,10,0:1:0:0:
391,49,89009,1,10,0:1:0:0:
316,184,89159,5,12,1:3:0:0:
