osu file format v14

[General]
AudioFilename: audio.mp3
AudioLeadIn: 0
PreviewTime: 59384
Countdown: 0
SampleSet: Soft
StackLeniency: 0.7
Mode: 0
LetterboxInBreaks: 0
WidescreenStoryboard: 0

[Editor]
DistanceSpacing: 1.5
BeatDivisor: 4
GridSize: 4
TimelineZoom: 1

[Metadata]
Title:Peace Sign (TV edit.)
TitleUnicode:ピースサイン(TV edit.)
Artist:Kenshi Yonezu
ArtistUnicode:米津玄師
Creator:Yasaija 714
Version:Hard
Source:僕のヒーローアカデミア
Tags:ハチ boku no hero academia opening tv size Lefia Pata-Mon toybot _kotachi_ Lasse
BeatmapID:1255541
BeatmapSetID:593466

[Difficulty]
HPDrainRate:5
CircleSize:3.8
OverallDifficulty:6.5
ApproachRate:8
SliderMultiplier:1.4
SliderTickRate:1

[Events]
//Background and Video events
0,0,"BG.jpg",0,0
Video,0,"video.avi"
//Break Periods
//Storyboard Layer 0 (Background)
//Storyboard Layer 1 (Fail)
//Storyboard Layer 2 (Pass)
//Storyboard Layer 3 (Foreground)
//Storyboard Sound Samples

[TimingPoints]
359,300,4,2,11,40,1,0
359,-133.333333333333,4,2,11,40,0,0
9884,-133.333333333333,4,2,11,5,0,0
9959,-100,4,1,1,60,0,0
19559,-133.333333333333,4,2,11,40,0,0
29159,-117.647058823529,4,2,11,50,0,0
37559,-100,4,2,11,50,0,0
38759,-117.647058823529,4,1,1,60,0,0
57959,-100,4,1,1,70,0,0
60359,-90.9090909090909,4,1,1,80,0,1
68759,-100,4,1,1,80,0,0
69959,-90.9090909090909,4,1,1,80,0,1
78284,-90.9090909090909,4,1,1,5,0,1
78359,-90.9090909090909,4,1,1,80,0,1
84359,-100,4,1,1,80,0,0
89159,-100,4,1,1,20,0,0

[Colours]
Combo1 : 181,136,0
Combo2 : 0,132,0
Combo3 : 128,255,255
Combo4 : 255,128,128

[HitObjects]
64,144,359,6,0,P|144:144|208:192,1,157.500006008148,4|8,0:0|0:0,0:0:0:0:
276,232,959,2,0,P|280:184|296:128,1,105.000004005432,2|8,0:0|0:0,0:0:0:0:
416,72,1559,2,0,B|444:152|381:150|413:224,1,157.500006008148,0|8,0:0|0:0,0:0:0:0:
364,288,2159,2,0,P|336:284|296:272,2,52.5000020027161,2|2|8,0:0|0:0|0:0,0:0:0:0:
444,300,2609,1,2,0:0:0:0:
404,368,2759,6,0,P|328:364|244:340,1,157.500006008148,0|8,0:0|0:0,0:0:0:0:
216,272,3359,2,0,P|160:264|108:272,1,105.000004005432,2|8,0:0|0:0,0:0:0:0:
20,172,3959,2,0,B|12:68|12:68|24:12,1,157.500006008148,0|8,0:0|0:0,0:0:0:0:
96,48,4559,2,0,L|100:100,2,52.5000020027161,2|2|8,0:0|0:0|0:0,0:0:0:0:
172,24,5009,1,2,0:0:0:0:
220,88,5159,6,0,P|284:88|364:28,1,157.500006008148,4|8,0:0|0:0,0:0:0:0:
432,64,5759,2,0,P|422:115|434:166,1,105.000004005432,2|8,0:0|0:0,0:0:0:0:
424,304,6359,2,0,P|360:336|276:300,1,157.500006008148,0|8,0:0|0:0,0:0:0:0:
216,260,6959,2,0,L|200:316,2,52.5000020027161,2|2|8,0:0|0:0|0:0,0:0:0:0:
220,180,7409,1,2,0:0:0:0:
214,99,7559,6,0,P|150:67|66:103,1,157.500006008148,0|8,0:0|0:0,0:0:0:0:
92,176,8159,2,0,P|120:164|160:160,1,52.5000020027161,8|0,0:0|0:0,0:0:0:0:
242,181,8459,2,0,P|270:193|310:197,1,52.5000020027161,8|0,0:0|0:0,0:0:0:0:
336,80,8759,6,0,L|340:132,1,52.5000020027161,8|2,0:0|0:0,0:0:0:0:
372,204,9059,1,2,0:0:0:0:
292,197,9209,2,0,B|244:221|244:221|212:149|124:137|76:189,1,236.250009012223,2|0,0:0|0:0,0:0:0:0:
48,208,9959,6,0,P|40:248|48:304,1,70,4|2,0:0|0:0,0:0:0:0:
100,364,10259,1,8,0:0:0:0:
168,296,10409,2,0,P|224:272|312:316,1,140,2|0,0:0|0:0,0:0:0:0:
384,332,10859,1,8,0:0:0:0:
428,248,11009,6,0,L|456:104,2,140,0|2|0,0:0|0:0|0:0,0:0:0:0:
308,112,11909,2,0,P|256:112|224:104,2,70,2|8|0,0:0|0:0|0:0,0:0:0:0:
241,193,12359,6,0,B|237:229|237:229|245:273,1,70,2|0,0:0|0:0,0:0:0:0:
329,305,12659,1,8,0:0:0:0:
325,197,12809,2,0,P|297:129|225:109,1,140,2|0,0:0|0:0,0:0:0:0:
241,193,13259,1,8,0:0:0:0:
357,120,13409,6,0,B|455:98|455:98|421:141,1,140,0|2,0:0|0:0,0:0:0:0:
325,197,13859,2,0,P|321:241|333:293,1,70,8|2,0:0|0:0,0:0:0:0:
412,276,14159,2,0,P|415:310|411:345,1,70,0|2,0:0|0:0,0:0:0:0:
324,360,14459,1,12,0:0:0:0:
248,316,14609,1,2,0:0:0:0:
144,336,14759,6,0,L|140:244,1,70,4|2,0:0|0:0,0:0:0:0:
128,176,15059,1,8,0:0:0:0:
40,192,15209,2,0,P|32:116|80:56,1,140,2|0,0:0|0:0,0:0:0:0:
152,40,15659,1,8,0:0:0:0:
228,96,15809,6,0,P|312:112|364:96,2,140,0|2|0,0:0|0:0|0:0,0:0:0:0:
376,260,16709,2,0,L|384:188,2,70,2|8|0,0:0|0:0|0:0,0:0:0:0:
240,316,17159,6,0,P|184:308|148:312,1,70,4|0,0:0|0:0,0:0:0:0:
72,352,17459,1,8,0:0:0:0:
72,352,17609,2,0,B|80:280|80:280|64:208,1,140,2|0,0:0|0:0,0:0:0:0:
32,128,18059,1,8,0:0:0:0:
132,168,18209,6,0,B|204:196|201:134|288:168,1,140,0|2,0:0|0:0,0:0:0:0:
344,212,18659,2,0,P|392:220|424:216,1,70,8|2,0:0|0:0,0:0:0:0:
500,168,18959,2,8,P|492:202|493:237,1,70
500,332,19259,1,8,0:0:0:0:
408,304,19409,1,8,0:0:0:0:
328,352,19559,6,0,P|272:356|208:384,1,105.000004005432,12|8,0:0|0:0,0:0:0:0:
164,328,20009,2,0,L|164:216,1,105.000004005432
188,152,20459,1,8,0:0:0:0:
36,192,20759,6,0,P|36:136|64:80,1,105.000004005432,0|8,0:0|0:0,0:0:0:0:
124,52,21209,2,0,P|176:60|232:48,1,105.000004005432
300,24,21659,2,0,L|352:32,1,52.5000020027161,8|2,0:0|0:0,0:0:0:0:
440,96,21959,6,0,P|450:148|440:220,1,105.000004005432,2|8,0:0|0:0,0:0:0:0:
412,272,22409,1,2,0:0:0:0:
348,224,22559,2,0,P|304:224|248:248,1,105.000004005432,0|8,0:0|0:0,0:0:0:0:
100,348,23159,6,0,B|93:305|104:272|104:272|96:236,1,105.000004005432,0|8,0:0|0:0,0:0:0:0:
52,176,23609,2,0,P|40:129|52:64,1,105.000004005432,0|2,0:0|0:0,0:0:0:0:
132,20,24059,2,0,L|132:80,1,52.5000020027161,8|2,0:0|0:0,0:0:0:0:
176,180,24359,6,0,P|228:160|280:164,1,105.000004005432,2|8,0:0|0:0,0:0:0:0:
336,216,24809,2,0,P|388:236|440:232,1,105.000004005432
484,168,25259,1,8,0:0:0:0:
368,312,25559,6,0,P|291:307|256:312,1,105.000004005432,2|8,0:0|0:0,0:0:0:0:
200,360,26009,2,0,P|123:364|88:360,1,105.000004005432,0|2,0:0|0:0,0:0:0:0:
28,320,26459,2,0,P|24:292|24:264,1,52.5000020027161,8|2,0:0|0:0,0:0:0:0:
88,184,26759,6,0,B|80:128|108:76,1,105.000004005432,2|8,0:0|0:0,0:0:0:0:
184,84,27209,2,0,B|208:129|200:185,1,105.000004005432
144,240,27659,1,8,0:0:0:0:
199,295,27809,1,0,0:0:0:0:
254,240,27959,6,0,P|303:221|355:225,1,105.000004005432,2|8,0:0|0:0,0:0:0:0:
400,300,28409,2,0,P|436:260|440:204,1,105.000004005432,0|2,0:0|0:0,0:0:0:0:
360,128,28859,2,0,L|302:128,1,52.5000020027161,8|2,0:0|0:0,0:0:0:0:
168,112,29159,6,0,P|176:180|160:236,1,119.000002269745,6|8,0:0|0:0,0:0:0:0:
108,300,29609,2,0,P|172:316|232:292,1,119.000002269745
296,352,30059,1,8,0:0:0:0:
344,276,30209,1,0,0:0:0:0:
440,328,30359,6,0,P|444:248|432:208,1,119.000002269745,2|8,0:0|0:0,0:0:0:0:
368,152,30809,2,0,P|288:148|248:160,1,119.000002269745,0|2,0:0|0:0,0:0:0:0:
176,208,31259,2,0,P|164:180|164:140,1,59.5000011348725,8|2,0:0|0:0,0:0:0:0:
247,42,31559,6,0,P|259:98|247:170,1,119.000002269745,2|8,0:0|0:0,0:0:0:0:
162,151,32009,2,0,P|90:159|42:191,1,119.000002269745
40,268,32459,2,0,P|36:312|40:344,1,59.5000011348725,8|0,0:0|0:0,0:0:0:0:
156,356,32759,6,0,B|216:352|216:352|280:312,1,119.000002269745,2|8,0:0|0:0,0:0:0:0:
336,264,33209,1,0,0:0:0:0:
488,360,33509,2,0,L|480:292,1,59.5000011348725,2|8,0:0|0:0,0:0:0:0:
492,212,33809,1,2,0:0:0:0:
392,144,33959,6,0,P|320:160|256:148,1,119.000002269745,2|8,0:0|0:0,0:0:0:0:
212,88,34409,2,0,B|192:144|192:144|200:212,1,119.000002269745
248,276,34859,2,0,L|244:344,1,59.5000011348725,8|0,0:0|0:0,0:0:0:0:
128,360,35159,6,0,P|136:288|128:236,1,119.000002269745,2|8,0:0|0:0,0:0:0:0:
68,176,35609,1,0,0:0:0:0:
128,360,35909,1,2,0:0:0:0:
216,332,36059,2,0,L|220:256,1,59.5000011348725,8|2,0:0|0:0,0:0:0:0:
304,212,36359,6,0,P|372:208|408:168,1,119.000002269745,2|8,0:0|0:0,0:0:0:0:
464,100,36809,2,0,L|492:236,1,119.000002269745
448,352,37259,2,0,L|433:284,1,59.5000011348725,8|0,0:0|0:0,0:0:0:0:
405,173,37559,6,0,P|329:161|281:177,1,105,6|2,0:0|0:0,0:0:0:0:
256,192,37859,2,0,P|240:156|236:108,1,70,8|8,0:0|0:0,0:0:0:0:
352,260,38309,1,4,0:3:0:0:
352,260,38459,1,8,0:3:0:0:
405,173,38609,1,2,0:0:0:0:
484,256,38759,6,0,P|480:308|428:360,1,119.000002269745,6|8,0:0|0:0,0:0:0:0:
344,336,39209,2,0,P|280:328|208:352,1,119.000002269745
140,368,39659,2,0,P|132:340|128:300,1,59.5000011348725,8|0,0:0|0:0,0:0:0:0:
176,192,39959,6,0,P|252:192|304:164,1,119.000002269745,2|8,0:0|0:0,0:0:0:0:
376,144,40409,2,0,B|406:206|356:204|384:272,1,119.000002269745
432,332,40859,1,8,0:0:0:0:
492,264,41009,1,0,0:0:0:0:
379,259,41159,6,0,P|303:259|251:231,1,119.000002269745,2|8,0:0|0:0,0:0:0:0:
176,192,41609,2,0,B|180:264|180:264|164:316,1,119.000002269745
76,324,42059,2,0,L|44:272,1,59.5000011348725,8|0,0:0|0:0,0:0:0:0:
20,152,42359,6,0,B|36:68|36:68|60:96,1,119.000002269745,2|8,0:0|0:0,0:0:0:0:
96,176,42809,1,2,0:0:0:0:
152,104,42959,2,0,P|176:96|216:92,1,59.5000011348725
280,152,43259,2,0,P|283:122|292:94,1,59.5000011348725,8|0,0:0|0:0,0:0:0:0:
400,32,43559,6,0,P|412:104|400:156,1,119.000002269745,2|8,0:0|0:0,0:0:0:0:
348,220,44009,2,0,P|336:292|348:344,1,119.000002269745,8|0,0:0|0:0,0:0:0:0:
424,380,44459,1,8,0:0:0:0:
264,364,44759,6,0,P|196:360|132:324,1,119.000002269745,2|8,0:0|0:0,0:0:0:0:
104,260,45209,2,0,P|112:192|96:136,1,119.000002269745,8|0,0:0|0:0,0:0:0:0:
32,84,45659,1,8,0:0:0:0:
168,20,45959,6,0,B|244:28|244:28|304:56,1,119.000002269745,2|8,0:0|0:0,0:0:0:0:
352,104,46409,2,0,B|344:164|344:164|356:224,1,119.000002269745,8|0,0:0|0:0,0:0:0:0:
440,264,46859,2,0,L|424:328,1,59.5000011348725,8|0,0:0|0:0,0:0:0:0:
296,344,47159,6,0,P|236:332|164:344,1,119.000002269745,2|8,0:0|0:0,0:0:0:0:
92,372,47609,2,0,P|104:300|108:232,1,119.000002269745,8|0,0:0|0:0,0:0:0:0:
24,224,48059,1,10,0:0:0:0:
4,312,48209,1,2,0:0:0:0:
107,254,48359,6,0,P|151:250|232:268,1,119.000002269745,6|8,0:0|0:0,0:0:0:0:
296,316,48809,2,0,P|280:244|288:196,1,119.000002269745
369,161,49259,1,0,0:0:0:0:
410,82,49409,1,0,0:0:0:0:
457,197,49559,6,0,P|404:249|343:254,1,119.000002269745,2|8,0:0|0:0,0:0:0:0:
286,200,50009,2,0,P|270:136|282:76,1,119.000002269745
340,16,50459,1,8,0:0:0:0:
384,96,50609,1,0,0:0:0:0:
489,51,50759,6,0,P|433:59|381:99,1,119.000002269745,2|8,0:0|0:0,0:0:0:0:
348,180,51209,2,0,B|288:204|288:145|212:180,1,119.000002269745,8|0,0:0|0:0,0:0:0:0:
156,124,51659,2,0,P|160:160|156:192,1,59.5000011348725,8|0,0:0|0:0,0:0:0:0:
16,244,51959,6,0,P|84:240|144:264,1,119.000002269745,2|8,0:0|0:0,0:0:0:0:
196,320,52409,2,0,P|264:324|324:300,1,119.000002269745,8|0,0:0|0:0,0:0:0:0:
360,232,52859,1,8,0:0:0:0:
436,280,53009,1,0,0:0:0:0:
396,148,53159,6,0,P|396:56|408:28,1,119.000002269745,6|8,0:0|0:0,0:0:0:0:
312,36,53609,2,0,P|248:48|184:40,1,119.000002269745,8|0,0:0|0:0,0:0:0:0:
216,128,54059,2,0,P|216:164|208:204,1,59.5000011348725,8|0,0:0|0:0,0:0:0:0:
120,268,54359,6,0,P|52:280|4:248,1,119.000002269745,6|8,0:0|0:0,0:0:0:0:
72,199,54809,2,0,P|87:142|80:84,1,119.000002269745,8|0,0:0|0:0,0:0:0:0:
156,28,55259,1,8,0:0:0:0:
232,80,55409,1,0,0:0:0:0:
184,216,55559,6,0,B|216:280|216:280|264:312,1,119.000002269745,6|8,0:0|0:0,0:0:0:0:
348,304,56009,2,0,B|387:277|387:277|419:213,1,119.000002269745,8|0,0:0|0:0,0:0:0:0:
328,160,56459,2,0,B|260:160,1,59.5000011348725,8|0,0:0|0:0,0:0:0:0:
172,64,56759,6,0,P|216:44|292:56,1,119.000002269745,6|8,0:0|0:0,0:0:0:0:
364,96,57209,1,8,0:0:0:0:
268,160,57359,2,0,L|276:228,1,59.5000011348725,8|0,0:0|0:0,0:0:0:0:
356,308,57659,2,0,L|364:240,1,59.5000011348725,8|8,0:0|0:0,0:0:0:0:
434,138,57959,6,0,P|437:92|361:100,1,140,14|8,0:0|0:0,0:0:0:0:
432,216,58409,2,0,P|472:208|496:184,1,70,10|0,0:0|0:0,0:0:0:0:
352,216,58709,2,0,P|360:256|384:280,1,70,10|8,0:0|0:0,0:0:0:0:
434,138,59009,1,10,0:0:0:0:
76,188,60359,6,0,B|156:220|154:154|256:188,1,154.000004699707,4|8,0:0|0:0,0:0:0:0:
317,218,60809,2,0,B|337:266|337:266|321:374,1,154.000004699707,2|0,0:0|0:0,0:0:0:0:
223,380,61259,1,8,0:0:0:0:
239,273,61409,6,0,P|323:261|399:293,1,154.000004699707,2|0,0:0|0:0,0:0:0:0:
481,316,61859,2,0,P|479:246|485:222,1,77.0000023498536,8|2,0:0|0:0,0:0:0:0:
512,147,62159,2,0,P|514:77|508:53,1,77.0000023498536
417,35,62459,1,0,0:0:0:0:
336,140,62609,6,0,B|288:132|288:132|236:164|236:164|180:156,1,154.000004699707,2|0,0:0|0:0,0:0:0:0:
96,144,63059,1,8,0:0:0:0:
24,76,63209,2,0,P|0:144|40:228,1,154.000004699707,2|0,0:0|0:0,0:0:0:0:
40,324,63659,1,8,0:0:0:0:
144,300,63809,6,0,P|228:308|284:268,1,154.000004699707,2|0,0:0|0:0,0:0:0:0:
328,180,64259,1,8,0:0:0:0:
328,180,64409,2,0,B|372:244|372:244|368:332,1,154.000004699707,2|0,0:0|0:0,0:0:0:0:
296,376,64859,1,8,0:0:0:0:
136,259,65159,6,0,P|212:243|284:271,1,154.000004699707,4|8,0:0|0:0,0:0:0:0:
368,320,65609,2,0,P|444:336|508:296,1,154.000004699707,2|0,0:0|0:0,0:0:0:0:
512,196,66059,1,8,0:0:0:0:
464,104,66209,6,0,P|388:88|324:128,1,154.000004699707,2|0,0:0|0:0,0:0:0:0:
240,184,66659,2,0,P|228:140|228:96,1,77.0000023498536,8|0,0:0|0:0,0:0:0:0:
312,50,66959,2,0,P|314:88|325:125,1,77.0000023498536,8|0,0:0|0:0,0:0:0:0:
404,176,67259,1,0,0:0:0:0:
392,272,67409,6,0,B|313:298|313:236|224:272,1,154.000004699707,4|0,0:0|0:0,0:0:0:0:
164,332,67859,2,0,P|108:336|64:328,1,77.0000023498536,8|0,0:0|0:0,0:0:0:0:
32,248,68159,2,0,P|28:192|36:148,1,77.0000023498536,2|2,0:0|0:0,0:0:0:0:
128,136,68459,1,10,0:0:0:0:
64,56,68609,1,2,0:0:0:0:
180,44,68759,6,0,L|264:60,1,70,12|0,0:0|0:0,0:0:0:0:
356,84,69059,2,0,L|336:156,1,70,8|0,0:0|0:0,0:0:0:0:
304,252,69359,1,8,0:0:0:0:
412,224,69509,2,0,L|428:276,2,35,8|8|8,0:0|0:0|0:0,0:0:0:0:
408,124,69809,1,8,0:0:0:0:
408,124,69884,1,8,0:0:0:0:
408,124,69959,6,0,P|360:88|256:88,1,154.000004699707,4|8,0:0|0:0,0:0:0:0:
164,128,70409,2,0,B|128:204|196:204|164:288,1,154.000004699707,2|0,0:0|0:0,0:0:0:0:
104,356,70859,1,8,0:0:0:0:
88,232,71009,6,0,P|136:192|232:212,1,154.000004699707,2|0,0:0|0:0,0:0:0:0:
288,304,71459,2,0,P|300:252|304:224,1,77.0000023498536,8|0,0:0|0:0,0:0:0:0:
384,144,71759,2,0,P|393:181|399:219,1,77.0000023498536,2|2,0:0|0:0,0:0:0:0:
380,336,72059,1,10,0:0:0:0:
484,256,72209,6,0,P|500:168|484:88,1,154.000004699707,2|0,0:0|0:0,0:0:0:0:
440,20,72659,1,8,0:0:0:0:
372,96,72809,2,0,P|288:112|228:68,1,154.000004699707,2|0,0:0|0:0,0:0:0:0:
164,4,73259,1,8,0:0:0:0:
136,100,73409,6,0,P|124:172|140:280,1,154.000004699707,2|0,0:0|0:0,0:0:0:0:
204,316,73859,1,8,0:0:0:0:
264,236,74009,2,0,P|336:232|420:268,1,154.000004699707,2|0,0:0|0:0,0:0:0:0:
456,352,74459,1,8,0:0:0:0:
348,152,74759,6,0,P|272:156|196:120,1,154.000004699707,4|8,0:0|0:0,0:0:0:0:
140,44,75209,2,0,P|104:104|120:188,1,154.000004699707,2|0,0:0|0:0,0:0:0:0:
168,268,75659,1,8,0:0:0:0:
280,236,75809,6,0,B|288:340|288:340|264:388,1,154.000004699707,2|2,0:0|0:0,0:0:0:0:
147,341,76259,2,0,P|154:295|172:261,1,77.0000023498536,8|0,0:0|0:0,0:0:0:0:
280,236,76559,1,2,0:0:0:0:
188,168,76709,1,2,0:0:0:0:
80,204,76859,1,10,0:0:0:0:
28,100,77009,6,0,P|104:108|180:68,1,154.000004699707,2|0,0:0|0:0,0:0:0:0:
272,56,77459,2,0,P|268:108|284:160,1,77.0000023498536,8|0,0:0|0:0,0:0:0:0:
348,200,77759,2,0,P|308:200|260:216,1,77.0000023498536,2|0,0:0|0:0,0:0:0:0:
188,199,78059,2,0,P|197:236|195:275,1,77.0000023498536,8|0,0:0|0:0,0:0:0:0:
120,152,78359,6,0,P|96:84|116:0,1,154.000004699707,2|2,0:0|0:0,0:0:0:0:
232,115,78809,1,0,0:0:0:0:
232,115,78884,1,0,0:0:0:0:
232,115,78959,1,0,0:0:0:0:
320,200,79109,1,8,0:0:0:0:
224,192,79260,2,0,L|232:116,1,77.0000023498536,8|8,0:0|0:0,0:0:0:0:
320,200,79559,6,0,L|328:276,1,77.0000023498536,4|0,0:0|0:0,0:0:0:0:
428,304,79859,1,8,0:0:0:0:
464,210,80009,2,0,P|380:226|312:194,1,154.000004699707,2|0,0:0|0:0,0:0:0:0:
232,115,80459,1,0,0:0:0:0:
152,236,80609,6,0,B|188:160|117:158|152:76,1,154.000004699707
236,28,81059,1,8,0:0:0:0:
236,28,81209,2,0,P|316:48|396:36,1,154.000004699707,2|0,0:0|0:0,0:0:0:0:
488,0,81659,2,0,L|492:84,1,77.0000023498536,8|0,0:0|0:0,0:0:0:0:
444,208,81959,6,0,P|368:216|264:224,1,154.000004699707,4|8,0:0|0:0,0:0:0:0:
212,164,82409,2,0,P|192:240|236:304,1,154.000004699707
144,348,82859,2,0,P|104:352|60:340,1,77.0000023498536
40,184,83159,6,0,P|48:96|64:20,2,154.000004699707,4|4|12,0:0|0:0|0:0,0:0:0:0:
112,272,83909,1,8,0:0:0:0:
188,116,84359,6,0,P|224:112|264:96,1,70,4|0,0:0|0:0,0:0:0:0:
316,32,84659,1,8,0:0:0:0:
316,32,84809,2,0,P|344:80|312:172,1,140,2|0,0:0|0:0,0:0:0:0:
268,232,85259,1,8,0:0:0:0:
336,296,85409,6,0,P|408:304|480:272,2,140,0|2|0,0:0|0:0|0:0,0:0:0:0:
156,260,86309,2,0,L|160:336,2,70,2|8|0,0:0|0:0|0:0,0:0:0:0:
188,176,86759,6,0,P|192:128|188:96,1,70,2|0,0:0|0:0,0:0:0:0:
120,48,87059,1,8,0:0:0:0:
224,24,87209,2,0,P|296:32|376:20,1,140,2|0,0:0|0:0,0:0:0:0:
440,72,87659,1,8,0:0:0:0:
364,128,87809,6,0,B|360:204|360:204|384:280,1,140,2|0,0:0|0:0,0:0:0:0:
444,336,88259,2,0,L|360:352,1,70,4|0,0:0|0:0,0:0:0:0:
300,296,88559,2,0,L|216:280,1,70,8|0,0:0|0:0,0:0:0:0:
176,360,88859,2,0,L|92:376,1,70,8|8,0:0|0:0,0:0:0:0:
40,324,89159,5,2,0:0:0:0:
