osu file format v14

[General]
AudioFilename: audio.mp3
AudioLeadIn: 0
PreviewTime: 59384
Countdown: 0
SampleSet: Normal
StackLeniency: 0.7
Mode: 0
LetterboxInBreaks: 0
WidescreenStoryboard: 0

[Editor]
DistanceSpacing: 1
BeatDivisor: 4
GridSize: 4
TimelineZoom: 1

[Metadata]
Title:Peace Sign (TV edit.)
TitleUnicode:ピースサイン(TV edit.)
Artist:Kenshi Yonezu
ArtistUnicode:米津玄師
Creator:Yasaija 714
Version:Expert
Source:僕のヒーローアカデミア
Tags:ハチ boku no hero academia opening tv size Lefia Pata-Mon toybot _kotachi_ Lasse
BeatmapID:1257487
BeatmapSetID:593466

[Difficulty]
HPDrainRate:6
CircleSize:4
OverallDifficulty:8.5
ApproachRate:9
SliderMultiplier:1.75
SliderTickRate:1

[Events]
//Background and Video events
0,0,"BG.jpg",0,0
Video,0,"video.avi"
//Break Periods
//Storyboard Layer 0 (Background)
//Storyboard Layer 1 (Fail)
//Storyboard Layer 2 (Pass)
//Storyboard Layer 3 (Foreground)
//Storyboard Sound Samples

[TimingPoints]
359,300,4,2,11,40,1,0
359,-133.333333333333,4,2,11,40,0,0
9359,-200,4,2,11,40,0,0
9884,-200,4,2,11,5,0,0
9959,-100,4,1,1,60,0,0
19559,-133.333333333333,4,2,11,40,0,0
26984,-133.333333333333,4,2,11,5,0,0
27059,-133.333333333333,4,2,11,40,0,0
29159,-117.647058823529,4,2,11,50,0,0
32384,-117.647058823529,4,2,11,10,0,0
32459,-117.647058823529,4,2,11,50,0,0
36584,-117.647058823529,4,2,11,5,0,0
36659,-117.647058823529,4,2,11,50,0,0
37559,-100,4,2,11,50,0,0
37784,-100,4,2,11,5,0,0
37859,-100,4,2,11,50,0,0
38759,-117.647058823529,4,1,1,60,0,0
39884,-117.647058823529,4,1,1,5,0,0
39959,-117.647058823529,4,1,1,60,0,0
42584,-117.647058823529,4,1,1,5,0,0
42659,-117.647058823529,4,1,1,60,0,0
46184,-117.647058823529,4,1,1,5,0,0
46259,-117.647058823529,4,1,1,60,0,0
47384,-117.647058823529,4,1,1,5,0,0
47459,-117.647058823529,4,1,1,60,0,0
50984,-117.647058823529,4,1,1,5,0,0
51059,-117.647058823529,4,1,1,60,0,0
53384,-117.647058823529,4,1,1,5,0,0
53459,-117.647058823529,4,1,1,60,0,0
54284,-117.647058823529,4,1,1,5,0,0
54359,-117.647058823529,4,1,1,60,0,0
55484,-117.647058823529,4,1,1,5,0,0
55559,-117.647058823529,4,1,1,60,0,0
56384,-117.647058823529,4,1,1,5,0,0
56459,-117.647058823529,4,1,1,60,0,0
57959,-100,4,1,1,60,0,0
59159,-100,4,1,1,5,0,0
59459,-100,4,2,1,40,0,0
59684,-100,4,2,1,5,0,0
59759,-100,4,2,1,40,0,0
59984,-100,4,2,1,5,0,0
60059,-100,4,2,1,40,0,0
60284,-100,4,2,1,5,0,0
60359,-83.3333333333333,4,1,1,80,0,1
60584,-83.3333333333333,4,1,1,20,0,1
60659,-83.3333333333333,4,1,1,80,0,1
68759,-100,4,1,1,80,0,0
69959,-83.3333333333333,4,1,1,80,0,1
70184,-83.3333333333333,4,1,1,20,0,1
70259,-83.3333333333333,4,1,1,80,0,1
84359,-100,4,1,1,80,0,0
89159,-100,4,1,1,20,0,0

[Colours]
Combo1 : 181,136,0
Combo2 : 0,132,0
Combo3 : 128,255,255
Combo4 : 255,128,128

[HitObjects]
72,192,359,6,0,P|152:200|216:176,1,131.25000500679,4|0,0:0|0:0,0:0:0:0:
256,100,809,1,8,0:0:0:0:
328,172,959,2,0,B|336:244|336:244|328:312,1,131.25000500679,2|8,0:0|0:0,0:0:0:0:
216,312,1409,1,0,0:0:0:0:
199,185,1559,6,0,P|208:104|272:64,1,131.25000500679,0|0,0:0|0:0,0:0:0:0:
340,96,2009,1,8,0:0:0:0:
340,96,2159,2,0,L|412:80,1,65.6250025033952,2|2,0:0|0:0,0:0:0:0:
500,148,2459,2,0,L|435:162,1,65.6250025033952,8|2,0:0|0:0,0:0:0:0:
328,216,2759,6,0,L|476:248,1,131.25000500679,0|0,0:0|0:0,0:0:0:0:
448,348,3209,1,8,0:0:0:0:
314,343,3359,2,0,P|308:273|336:200,1,131.25000500679,2|8,0:0|0:0,0:0:0:0:
435,161,3809,1,0,0:0:0:0:
304,128,3959,6,0,B|224:136|224:136|172:120,1,131.25000500679,0|0,0:0|0:0,0:0:0:0:
76,60,4409,1,8,0:0:0:0:
76,60,4559,2,0,P|57:93|44:124,1,65.6250025033952,2|2,0:0|0:0,0:0:0:0:
144,220,4859,2,0,P|164:256|176:284,1,65.6250025033952,8|2,0:0|0:0,0:0:0:0:
1,320,5159,6,0,P|36:244|61:200,1,131.25000500679,4|0,0:0|0:0,0:0:0:0:
148,136,5609,1,8,0:0:0:0:
228,212,5759,2,0,P|296:220|368:200,1,131.25000500679,2|8,0:0|0:0,0:0:0:0:
412,128,6209,1,0,0:0:0:0:
452,256,6359,6,0,B|456:324|456:324|412:380,1,131.25000500679,0|0,0:0|0:0,0:0:0:0:
304,336,6809,1,8,0:0:0:0:
304,336,6959,2,0,L|232:352,1,65.6250025033952,2|2,0:0|0:0,0:0:0:0:
152,280,7259,2,0,L|216:265,1,65.6250025033952,8|2,0:0|0:0,0:0:0:0:
336,204,7559,6,0,P|320:128|292:56,1,131.25000500679,0|0,0:0|0:0,0:0:0:0:
180,80,8009,2,0,P|158:141|145:206,1,131.25000500679,8|0,0:0|0:0,0:0:0:0:
172,304,8459,1,8,0:0:0:0:
248,244,8609,1,0,0:0:0:0:
76,272,8759,6,0,L|64:200,1,65.6250025033952,8|2,0:0|0:0,0:0:0:0:
92,80,9059,1,2,0:0:0:0:
145,206,9209,1,2,0:0:0:0:
4,116,9359,6,0,B|40:88|92:80|92:80|104:40|136:24,1,153.125
172,96,9959,6,0,P|220:104|272:100,1,87.5,4|2,0:0|0:0,0:0:0:0:
344,40,10259,1,8,0:0:0:0:
292,182,10409,2,0,P|288:266|308:354,1,175,2|0,0:0|0:0,0:0:0:0:
396,272,10859,1,8,0:0:0:0:
216,308,11009,6,0,P|124:324|52:240,1,175,0|2,0:0|0:0,0:0:0:0:
156,224,11459,1,8,0:0:0:0:
296,352,11609,2,0,B|332:264|261:264|296:172,1,175,0|2,0:0|0:0,0:0:0:0:
412,128,12059,1,8,0:0:0:0:
412,236,12209,1,0,0:0:0:0:
296,108,12359,6,0,P|244:112|192:128,1,87.5,2|0,0:0|0:0,0:0:0:0:
96,192,12659,1,8,0:0:0:0:
96,192,12809,2,0,P|76:104|104:16,1,175,2|0,0:0|0:0,0:0:0:0:
208,40,13259,2,0,P|260:36|312:20,1,87.5,8|0,0:0|0:0,0:0:0:0:
444,32,13559,6,0,P|440:77|432:124,1,87.5,0|2,0:0|0:0,0:0:0:0:
336,205,13859,1,8,0:0:0:0:
498,169,14009,1,0,0:0:0:0:
436,279,14159,1,0,0:0:0:0:
352,124,14309,2,0,P|308:119|264:122,2,87.5,2|8|2,0:0|0:0|0:0,0:0:0:0:
200,180,14759,6,0,P|180:128|188:80,1,87.5,4|2,0:0|0:0,0:0:0:0:
272,28,15059,1,8,0:0:0:0:
372,148,15209,2,0,P|372:244|348:340,1,175,2|0,0:0|0:0,0:0:0:0:
244,348,15659,1,8,0:0:0:0:
200,180,15809,6,0,L|400:144,1,175,0|2,0:0|0:0,0:0:0:0:
476,212,16259,1,8,0:0:0:0:
416,48,16409,2,0,P|352:56|304:52,1,87.5
216,44,16709,2,0,P|152:36|104:40,2,87.5,2|8|0,0:0|0:0|0:0,0:0:0:0:
68,107,17159,6,0,P|51:196|120:268,1,175,4|8,0:0|0:0,0:0:0:0:
228,288,17609,2,0,P|341:285|432:320,1,175,2|0,0:0|0:0,0:0:0:0:
288,356,18059,1,8,0:0:0:0:
333,201,18209,1,0,0:0:0:0:
192,316,18359,6,0,B|104:312,1,87.5
44,212,18659,1,12,0:0:0:0:
200,176,18809,1,2,0:0:0:0:
116,356,18959,1,8,0:0:0:0:
204,160,19109,5,8,0:0:0:0:
32,188,19259,1,8,0:0:0:0:
120,340,19409,1,8,0:0:0:0:
25,171,19559,6,0,P|90:171|161:155,1,131.25000500679,4|8,0:0|0:0,0:0:0:0:
248,96,20009,2,0,P|264:164|264:232,1,131.25000500679,0|0,0:0|0:0,0:0:0:0:
204,312,20459,2,0,L|276:336,1,65.6250025033952
400,316,20759,6,0,P|448:292|472:272,1,65.6250025033952,0|0,0:0|0:0,0:0:0:0:
432,188,21059,1,8,0:0:0:0:
432,188,21209,2,0,P|461:143|472:113,1,65.6250025033952,0|0,0:0|0:0,0:0:0:0:
400,48,21509,1,0,0:0:0:0:
296,64,21659,1,8,0:0:0:0:
192,80,21809,1,2,0:0:0:0:
360,128,21959,6,0,L|364:200,1,65.6250025033952,2|0,0:0|0:0,0:0:0:0:
272,276,22259,2,0,L|276:204,1,65.6250025033952,8|2,0:0|0:0,0:0:0:0:
188,128,22559,2,0,L|184:200,1,65.6250025033952,0|0,0:0|0:0,0:0:0:0:
112,260,22859,1,8,0:0:0:0:
96,164,23009,1,0,0:0:0:0:
32,308,23159,6,0,P|96:352|168:336,1,131.25000500679,0|8,0:0|0:0,0:0:0:0:
256,296,23609,2,0,P|320:252|392:268,1,131.25000500679,0|2,0:0|0:0,0:0:0:0:
464,336,24059,2,0,L|472:264,1,65.6250025033952,8|2,0:0|0:0,0:0:0:0:
476,128,24359,6,0,P|400:120|344:128,1,131.25000500679,2|8,0:0|0:0,0:0:0:0:
252,152,24809,2,0,P|196:108|204:40,1,131.25000500679,0|0,0:0|0:0,0:0:0:0:
337,62,25259,2,0,P|345:102|345:134,1,65.6250025033952,8|0,0:0|0:0,0:0:0:0:
256,232,25559,6,0,L|248:308,1,65.6250025033952,2|0,0:0|0:0,0:0:0:0:
164,296,25859,1,8,0:0:0:0:
288,360,26009,2,0,P|324:360|360:352,1,65.6250025033952,0|0,0:0|0:0,0:0:0:0:
408,280,26309,1,2,0:0:0:0:
364,192,26459,1,8,0:0:0:0:
320,104,26609,1,2,0:0:0:0:
288,248,26759,6,0,P|216:240|168:256,1,98.4375037550928,2|0,0:0|0:0,0:0:0:0:
160,276,27059,1,8,0:0:0:0:
68,196,27209,2,0,L|80:56,1,131.25000500679,0|0,0:0|0:0,0:0:0:0:
184,24,27659,2,0,L|180:96,1,65.6250025033952,8|0,0:0|0:0,0:0:0:0:
232,216,27959,6,0,B|328:220|328:220|300:240,1,131.25000500679,2|8,0:0|0:0,0:0:0:0:
196,292,28409,2,0,P|160:264|152:224,1,65.6250025033952,0|0,0:0|0:0,0:0:0:0:
240,140,28709,2,0,L|305:143,2,65.6250025033952,2|8|2,0:0|0:0|0:0,0:0:0:0:
372,48,29159,6,0,P|424:128|400:200,1,148.750002837181,6|8,0:0|0:0,0:0:0:0:
328,284,29609,2,0,B|312:270|300:240|300:240|260:264|204:268,1,148.750002837181,0|0,0:0|0:0,0:0:0:0:
104,232,30059,1,8,0:0:0:0:
140,128,30209,1,0,0:0:0:0:
208,267,30359,6,0,P|240:336|320:360,1,148.750002837181,2|8,0:0|0:0,0:0:0:0:
436,348,30809,2,0,B|466:271|401:272|436:172,1,148.750002837181,0|2,0:0|0:0,0:0:0:0:
476,100,31259,1,8,0:0:0:0:
364,116,31409,1,2,0:0:0:0:
484,268,31559,6,0,P|416:288|348:232,1,148.750002837181,2|8,0:0|0:0,0:0:0:0:
296,164,32009,1,0,0:0:0:0:
244,256,32159,2,0,B|228:332|228:332|240:368,1,111.562502127886
288,368,32459,2,0,B|324:364|324:364|384:372,1,74.3750014185906,8|0,0:0|0:0,0:0:0:0:
468,312,32759,6,0,B|460:232|460:232|468:160,1,148.750002837181,2|8,0:0|0:0,0:0:0:0:
496,64,33209,2,0,B|392:56|392:56|328:76,1,148.750002837181,0|2,0:0|0:0,0:0:0:0:
256,100,33659,2,0,L|180:88,1,74.3750014185906,8|2,0:0|0:0,0:0:0:0:
48,56,33959,6,0,P|48:136|88:200,1,148.750002837181,2|8,0:0|0:0,0:0:0:0:
184,236,34409,2,0,P|228:188|280:248,1,148.750002837181,0|0,0:0|0:0,0:0:0:0:
380,184,34859,2,0,P|392:148|392:108,1,74.3750014185906,8|0,0:0|0:0,0:0:0:0:
296,24,35159,6,0,P|216:32|136:24,1,148.750002837181,2|8,0:0|0:0,0:0:0:0:
112,116,35609,2,0,B|124:192|124:192|112:276,1,148.750002837181,0|2,0:0|0:0,0:0:0:0:
44,332,36059,2,0,B|72:356|72:356|124:364,1,74.3750014185906,8|2,0:0|0:0,0:0:0:0:
216,284,36359,6,0,B|272:260|272:312|348:284,1,111.562502127886,2|0,0:0|0:0,0:0:0:0:
364,264,36659,1,8,0:0:0:0:
336,148,36809,2,0,P|328:76|368:4,1,148.750002837181,0|0,0:0|0:0,0:0:0:0:
496,100,37259,2,0,L|412:92,1,74.3750014185906,8|0,0:0|0:0,0:0:0:0:
240,40,37559,6,0,B|232:72|244:96|244:96|240:116|240:116|252:144|240:184,1,131.25,6|2,0:0|0:0,0:0:0:0:
192,220,37859,1,8,0:0:0:0:
40,196,38009,2,0,L|48:104,1,87.5,8|0,0:0|0:0,0:0:0:0:
156,68,38309,1,4,0:3:0:0:
192,220,38459,1,8,0:3:0:0:
40,196,38609,1,2,0:0:0:0:
243,168,38759,6,0,P|295:168|327:176,1,74.3750014185906,6|0,0:0|0:0,0:0:0:0:
400,248,39059,1,8,0:0:0:0:
245,312,39209,2,0,P|229:240|245:160,1,148.750002837181,0|0,0:0|0:0,0:0:0:0:
305,64,39659,2,0,P|321:136|304:205,1,111.562502127886,8|0,0:0|0:0,0:0:0:0:
242,167,39959,6,0,P|190:167|158:175,1,74.3750014185906,2|0,0:0|0:0,0:0:0:0:
64,216,40259,1,8,0:0:0:0:
20,88,40409,2,0,P|108:60|172:76,1,148.750002837181,0|0,0:0|0:0,0:0:0:0:
242,167,40859,1,8,0:0:0:0:
305,64,41009,1,0,0:0:0:0:
136,36,41159,6,0,B|120:108|120:108|136:184,1,148.750002837181,2|8,0:0|0:0,0:0:0:0:
224,264,41609,2,0,P|348:256|392:256,1,148.750002837181,0|0,0:0|0:0,0:0:0:0:
452,344,42059,1,8,0:0:0:0:
452,344,42209,1,0,0:0:0:0:
460,184,42359,6,0,B|456:112|456:112|432:68,1,111.562502127886,2|0,0:0|0:0,0:0:0:0:
391,44,42659,1,8,0:0:0:0:
362,185,42809,1,0,0:0:0:0:
236,128,42959,1,0,0:0:0:0:
236,128,43109,2,0,P|196:132|160:124,1,74.3750014185906,0|8,0:0|0:0,0:0:0:0:
80,44,43409,1,0,0:0:0:0:
48,184,43559,6,0,P|36:260|52:336,1,148.750002837181,2|8,0:0|0:0,0:0:0:0:
176,308,44009,2,0,B|212:300|244:280|244:280|280:294|332:296,1,148.750002837181,0|0,0:0|0:0,0:0:0:0:
416,208,44459,2,0,B|380:200|380:200|344:216,1,74.3750014185906,8|0,0:0|0:0,0:0:0:0:
472,284,44759,6,0,P|504:216|468:124,1,148.750002837181,2|8,0:0|0:0,0:0:0:0:
372,80,45209,2,0,B|297:46|296:112|224:80,1,148.750002837181,0|0,0:0|0:0,0:0:0:0:
124,36,45659,2,0,P|116:72|120:124,1,74.3750014185906,8|0,0:0|0:0,0:0:0:0:
176,208,45959,6,0,P|184:284|176:328,1,111.562502127886,2|0,0:0|0:0,0:0:0:0:
144,364,46259,1,8,0:0:0:0:
23,259,46409,2,0,L|98:252,1,74.3750014185906
250,215,46710,2,0,L|175:207,1,74.3750014185906,0|8,0:0|0:0,0:0:0:0:
254,350,47009,1,0,0:0:0:0:
456,352,47159,6,0,P|472:272|453:222,1,111.562502127886,2|0,0:0|0:0,0:0:0:0:
436,196,47459,1,0,0:0:0:0:
347,290,47609,1,0,0:0:0:0:
96,192,47909,1,0,0:0:0:0:
53,332,48059,1,10,0:0:0:0:
53,332,48209,1,2,0:0:0:0:
232,296,48359,6,0,P|236:236|228:204,1,74.3750014185906,6|0,0:0|0:0,0:0:0:0:
96,192,48659,1,8,0:0:0:0:
96,192,48809,2,0,L|248:136,1,148.750002837181,0|0,0:0|0:0,0:0:0:0:
132,44,49259,1,8,0:0:0:0:
132,44,49409,1,0,0:0:0:0:
96,192,49559,6,0,P|92:252|100:284,1,74.3750014185906,2|0,0:0|0:0,0:0:0:0:
176,352,49859,1,8,0:0:0:0:
176,352,50009,2,0,P|252:328|328:344,1,148.750002837181,0|0,0:0|0:0,0:0:0:0:
416,280,50459,2,0,P|416:232|440:184,1,74.3750014185906,8|0,0:0|0:0,0:0:0:0:
456,84,50759,6,0,L|332:96,1,111.562502127886,2|0,0:0|0:0,0:0:0:0:
292,76,51059,1,8,0:0:0:0:
212,184,51209,2,0,L|224:272,1,74.3750014185906,8|0,0:0|0:0,0:0:0:0:
112,160,51509,2,0,L|124:72,1,74.3750014185906,0|8,0:0|0:0,0:0:0:0:
292,76,51809,1,0,0:0:0:0:
312,248,51959,6,0,P|276:328|200:348,1,148.750002837181,2|8,0:0|0:0,0:0:0:0:
148,246,52409,1,8,0:0:0:0:
148,246,52559,2,0,L|224:258,1,74.3750014185906,0|0,0:0|0:0,0:0:0:0:
312,344,52859,2,0,L|388:332,1,74.3750014185906,8|0,0:0|0:0,0:0:0:0:
488,216,53159,6,0,P|472:136|480:88,1,111.562502127886,6|0,0:0|0:0,0:0:0:0:
504,60,53459,1,8,0:0:0:0:
372,56,53609,2,0,L|220:84,1,148.750002837181,8|0,0:0|0:0,0:0:0:0:
120,144,54059,2,0,P|196:152|248:176,1,111.562502127886,8|0,0:0|0:0,0:0:0:0:
272,200,54359,6,0,P|268:236|272:292,1,74.3750014185906,6|0,0:0|0:0,0:0:0:0:
352,336,54659,1,8,0:0:0:0:
200,328,54809,2,0,L|120:320,2,74.3750014185906,8|0|0,0:0|0:0|0:0,0:0:0:0:
356,240,55259,2,0,P|368:176|352:120,1,111.562502127886,8|0,0:0|0:0,0:0:0:0:
320,88,55559,6,0,P|260:76|228:52,1,74.3750014185906,6|0,0:0|0:0,0:0:0:0:
156,16,55859,1,8,0:0:0:0:
156,120,56009,1,8,0:0:0:0:
320,88,56159,2,0,P|384:60|456:80,1,111.562502127886,0|0,0:0|0:0,0:0:0:0:
468,100,56459,2,0,P|472:140|464:184,1,74.3750014185906,8|0,0:0|0:0,0:0:0:0:
416,288,56759,6,0,B|340:320|342:254|252:288,1,148.750002837181,6|8,0:0|0:0,0:0:0:0:
180,344,57209,1,8,0:0:0:0:
84,256,57359,2,0,P|84:224|108:168,1,74.3750014185906,8|0,0:0|0:0,0:0:0:0:
196,92,57659,2,0,P|212:119|260:156,1,74.3750014185906,8|8,0:0|0:0,0:0:0:0:
412,208,57959,6,0,P|472:176|392:164,1,175,14|8,0:0|0:0,0:0:0:0:
320,212,58409,6,0,L|302:301,1,87.5,10|0,0:0|0:0,0:0:0:0:
97,241,58709,1,8,0:0:0:0:
139,358,58859,1,8,0:0:0:0:
226,233,59009,2,0,L|243:147,1,87.5,10|0,0:0|0:0,0:0:0:0:
320,48,59459,6,0,L|464:64,1,131.25,0|0,0:0|0:0,0:0:0:0:
448,144,59759,6,0,B|400:140|380:96|380:96|364:120|332:128,1,131.25,0|0,0:0|0:0,0:0:0:0:
272,155,60059,6,0,P|273:91|320:47,1,131.25
450,62,60359,6,0,P|432:121|326:82,1,157.499995193482,4|0,0:0|0:0,0:0:0:0:
319,47,60659,1,8,0:0:0:0:
372,280,60809,2,0,P|264:264|176:328,1,209.999993591309,2|0,0:0|0:0,0:0:0:0:
64,344,61259,1,8,0:0:0:0:
256,360,61409,6,0,P|264:292|148:240,1,209.999993591309,2|0,0:0|0:0,0:0:0:0:
32,200,61859,2,0,L|40:88,1,104.999996795654,8|0,0:0|0:0,0:0:0:0:
184,32,62159,2,0,L|192:144,1,104.999996795654,2|2,0:0|0:0,0:0:0:0:
151,238,62459,1,8,0:0:0:0:
280,183,62609,6,0,P|332:180|383:192,1,104.999996795654
472,280,62909,1,2,0:0:0:0:
256,360,63059,1,8,0:0:0:0:
176,175,63209,6,0,P|226:187|279:183,1,104.999996795654
377,106,63508,1,2,0:0:0:0:
184,32,63659,1,8,0:0:0:0:
96,259,63809,5,2,0:0:0:0:
223,125,63959,2,0,B|215:73|215:73|179:25,1,104.999996795654
52,136,64259,1,8,0:0:0:0:
52,136,64409,2,0,B|24:180|48:244|96:260|96:260|96:300|132:352,1,209.999993591309,2|0,0:0|0:0,0:0:0:0:
240,368,64859,1,0,0:0:0:0:
216,256,65009,1,0,0:0:0:0:
418,317,65159,6,0,P|427:270|430:201,1,104.999996795654,4|0,0:0|0:0,0:0:0:0:
392,32,65459,1,8,0:0:0:0:
392,32,65609,2,0,B|336:56|258:35|258:35|240:64|192:84,1,209.999993591309,2|0,0:0|0:0,0:0:0:0:
60,56,66059,1,8,0:0:0:0:
38,251,66209,6,0,P|144:256|250:315,1,209.999993591309,2|0,0:0|0:0,0:0:0:0:
360,368,66659,1,8,0:0:0:0:
340,212,66809,1,0,0:0:0:0:
172,348,66959,1,8,0:0:0:0:
376,336,67109,1,0,0:0:0:0:
156,316,67259,1,8,0:0:0:0:
356,180,67409,1,2,0:0:0:0:
84,168,67559,6,0,P|68:116|68:64,1,104.999996795654
360,48,67859,2,0,P|376:100|376:152,1,104.999996795654,8|0,0:0|0:0,0:0:0:0:
168,264,68159,1,2,0:0:0:0:
260,48,68309,1,2,0:0:0:0:
288,264,68459,1,10,0:0:0:0:
84,168,68609,1,2,0:0:0:0:
32,372,68759,2,0,P|18:326|16:268,1,87.5,12|0,0:0|0:0,0:0:0:0:
160,124,69059,5,12,0:0:0:0:
136,332,69209,1,0,0:0:0:0:
260,48,69359,5,8,0:0:0:0:
288,264,69509,1,8,0:0:0:0:
480,12,69659,5,8,0:0:0:0:
490,63,69734,1,8,0:0:0:0:
492,115,69809,1,8,0:0:0:0:
483,167,69884,1,8,0:0:0:0:
465,216,69959,6,0,P|412:168|312:224,1,157.499995193482,4|0,0:0|0:0,0:0:0:0:
288,264,70259,1,8,0:0:0:0:
463,319,70409,2,0,P|471:267|463:211,1,104.999996795654,2|0,0:0|0:0,0:0:0:0:
335,83,70709,2,0,P|327:135|335:191,1,104.999996795654,0|8,0:0|0:0,0:0:0:0:
424,48,71009,6,0,B|264:28|264:28|208:60,1,209.999993591309,2|0,0:0|0:0,0:0:0:0:
176,224,71459,2,0,P|168:164|152:112,1,104.999996795654,8|0,0:0|0:0,0:0:0:0:
24,312,71759,2,0,P|84:304|136:288,1,104.999996795654,2|2,0:0|0:0,0:0:0:0:
312,272,72059,1,10,0:0:0:0:
196,144,72209,6,0,P|252:136|304:144,1,104.999996795654
424,224,72509,1,2,0:0:0:0:
248,214,72659,1,8,0:0:0:0:
402,60,72809,6,0,P|350:67|298:61,1,104.999996795654
159,15,73108,1,2,0:0:0:0:
248,214,73259,1,8,0:0:0:0:
64,52,73409,6,0,P|56:120|68:176,1,104.999996795654,2|0,0:0|0:0,0:0:0:0:
248,214,73709,1,0,0:0:0:0:
64,352,73859,1,8,0:0:0:0:
64,352,74009,2,0,B|112:364|112:364|186:347|186:347|224:368|276:360,1,209.999993591309,2|0,0:0|0:0,0:0:0:0:
376,240,74459,1,0,0:0:0:0:
504,376,74609,1,0,0:0:0:0:
376,240,74759,6,0,P|364:168|376:116,1,104.999996795654,4|0,0:0|0:0,0:0:0:0:
436,20,75059,1,8,0:0:0:0:
436,20,75209,2,0,B|380:24|380:24|343:50|343:50|292:28|224:36,1,209.999993591309,2|0,0:0|0:0,0:0:0:0:
116,152,75659,1,0,0:0:0:0:
335,257,75809,6,0,B|355:101|355:101|343:45,1,209.999993591309,2|2,0:0|0:0,0:0:0:0:
236,34,76259,1,8,0:0:0:0:
244,204,76409,1,0,0:0:0:0:
440,140,76559,2,0,L|456:252,1,104.999996795654,2|2,0:0|0:0,0:0:0:0:
480,360,76859,1,10,0:0:0:0:
335,257,77009,1,2,0:0:0:0:
480,60,77159,6,0,P|416:44|336:40,1,104.999996795654,0|0,0:0|0:0,0:0:0:0:
260,108,77459,2,0,P|196:124|116:128,1,104.999996795654,8|0,0:0|0:0,0:0:0:0:
48,64,77759,1,2,0:0:0:0:
12,240,77909,1,0,0:0:0:0:
157,128,78059,1,8,0:0:0:0:
193,304,78209,1,0,0:0:0:0:
260,108,78359,6,0,P|324:92|404:88,1,104.999996795654,2|0,0:0|0:0,0:0:0:0:
476,148,78659,1,6,0:0:0:0:
328,244,78809,1,2,0:0:0:0:
336,272,78884,1,2,0:0:0:0:
344,300,78959,1,2,0:0:0:0:
468,356,79109,1,8,0:0:0:0:
400,192,79259,1,8,0:0:0:0:
292,360,79409,1,8,0:0:0:0:
192,176,79559,6,0,L|80:160,1,104.999996795654,4|0,0:0|0:0,0:0:0:0:
247,105,79859,1,8,0:0:0:0:
212,264,80009,2,0,P|284:200|228:96,1,209.999993591309,2|0,0:0|0:0,0:0:0:0:
88,161,80459,2,0,L|72:273,1,104.999996795654,8|0,0:0|0:0,0:0:0:0:
232,360,80759,6,0,P|288:368|352:348,1,104.999996795654,4|0,0:0|0:0,0:0:0:0:
416,256,81059,1,8,0:0:0:0:
280,260,81209,2,0,P|264:184|296:48,1,209.999993591309,2|0,0:0|0:0,0:0:0:0:
408,8,81659,1,8,0:0:0:0:
468,160,81809,1,0,0:0:0:0:
248,136,81959,6,0,L|140:148,1,104.999996795654,4|0,0:0|0:0,0:0:0:0:
36,232,82259,1,8,0:0:0:0:
244,255,82409,2,0,L|32:231,1,209.999993591309,2|0,0:0|0:0,0:0:0:0:
144,148,82859,1,8,0:0:0:0:
132,316,83009,1,0,0:0:0:0:
61,123,83159,6,0,L|165:111,1,104.999996795654,4|0,0:0|0:0,0:0:0:0:
392,63,83459,2,0,L|288:51,1,104.999996795654,4|0,0:0|0:0,0:0:0:0:
244,255,83759,5,12,0:0:0:0:
496,172,83909,1,8,0:0:0:0:
316,360,84359,6,0,P|248:352|204:360,1,87.5,4|0,0:0|0:0,0:0:0:0:
112,376,84659,1,8,0:0:0:0:
72,252,84809,2,0,P|56:160|100:80,1,175,2|0,0:0|0:0,0:0:0:0:
184,40,85259,1,8,0:0:0:0:
168,180,85409,6,0,B|284:192|284:192|344:168,1,175,0|2,0:0|0:0,0:0:0:0:
432,104,85859,1,8,0:0:0:0:
273,93,86009,2,0,P|245:173|304:272,1,175,0|2,0:0|0:0,0:0:0:0:
388,256,86459,1,8,0:0:0:0:
432,104,86609,1,0,0:0:0:0:
278,252,86759,6,0,P|230:256|178:272,1,87.5,2|0,0:0|0:0,0:0:0:0:
88,352,87059,1,8,0:0:0:0:
32,200,87209,2,0,B|32:76|32:76|72:128,1,175,2|0,0:0|0:0,0:0:0:0:
120,220,87659,1,8,0:0:0:0:
136,48,87809,6,0,P|240:48|308:76,1,175,2|0,0:0|0:0,0:0:0:0:
260,252,88259,2,0,P|236:200|236:152,1,87.5,4|0,0:0|0:0,0:0:0:0:
452,76,88559,5,8,0:0:0:0:
260,252,88709,1,0,0:0:0:0:
136,48,88859,1,8,0:0:0:0:
16,280,89009,1,8,0:0:0:0:
156,176,89159,5,2,2:0:0:0:
