osu file format v14

[General]
AudioFilename: audio.mp3
AudioLeadIn: 0
PreviewTime: 59384
Countdown: 0
SampleSet: Soft
StackLeniency: 0.5
Mode: 0
LetterboxInBreaks: 0
WidescreenStoryboard: 1

[Editor]
Bookmarks: 5159,9959,14759,19559,38759
DistanceSpacing: 1.4
BeatDivisor: 4
GridSize: 4
TimelineZoom: 3.000005

[Metadata]
Title:Peace Sign (TV edit.)
TitleUnicode:ピースサイン (TV edit.)
Artist:Kenshi Yonezu
ArtistUnicode:米津玄師
Creator:Finshie
Version:Plus Ultra
Source:僕のヒーローアカデミア 第2期
Tags:boku no hero academia opening tv Size hachi ハチ Hydrocannon13
BeatmapID:1257298
BeatmapSetID:594429

[Difficulty]
HPDrainRate:6
CircleSize:4
OverallDifficulty:8.5
ApproachRate:9.3
SliderMultiplier:1.75
SliderTickRate:1

[Events]
//Background and Video events
0,0,"bggggg2.jpg",0,0
Video,-38,"video.avi"
//Break Periods
//Storyboard Layer 0 (Background)
//Storyboard Layer 1 (Fail)
//Storyboard Layer 2 (Pass)
//Storyboard Layer 3 (Foreground)
//Storyboard Sound Samples

[TimingPoints]
359,300,4,2,1,70,1,0
359,-111.111111111111,4,2,1,70,0,0
9959,-95.2380952380952,4,2,1,70,0,0
19559,-117.647058823529,4,2,0,50,0,0
37559,-117.647058823529,4,2,1,50,0,0
38759,-105.263157894737,4,2,1,60,0,0
59459,-105.263157894737,4,2,1,30,0,0
59909,-105.263157894737,4,2,1,60,0,0
60284,-105.263157894737,4,2,1,5,0,0
60359,-86.9565217391304,4,2,1,70,0,1
83684,-86.9565217391304,4,2,1,5,0,1
83759,-86.9565217391304,4,2,1,70,0,1
84059,-95.2380952380952,4,2,1,70,0,0
84359,-95.2380952380952,4,2,1,70,0,0
89159,-95.2380952380952,4,2,1,70,0,0

[Colours]
Combo1 : 0,128,0
Combo2 : 238,34,51
Combo3 : 221,136,170
Combo4 : 136,85,170
Combo5 : 17,187,153
Combo6 : 238,153,102

[HitObjects]
305,120,359,6,0,P|381:130|424:194,1,157.499995193482,4|0,1:0|0:0,0:0:0:0:
333,210,809,1,0,0:0:0:0:
213,146,960,2,0,P|207:108|222:72,1,78.7499975967408,2|0,0:0|0:0,0:0:0:0:
240,238,1259,1,2,0:0:0:0:
305,120,1409,1,0,0:0:0:0:
308,303,1559,6,0,P|237:332|168:299,1,157.499995193482,2|0,0:0|0:0,0:0:0:0:
332,209,2009,2,0,P|369:224|393:255,1,78.7499975967408,2|0,0:0|0:0,0:0:0:0:
240,238,2308,1,0,0:0:0:0:
305,120,2459,1,2,0:0:0:0:
333,210,2609,1,0,0:0:0:0:
236,53,2759,6,0,B|272:27|272:27|409:31,1,157.499995193482,2|0,0:0|0:0,0:0:0:0:
305,120,3209,1,2,0:0:0:0:
212,145,3359,2,0,P|175:130|151:100,1,78.7499975967408,2|0,0:0|0:0,0:0:0:0:
282,208,3659,1,2,0:0:0:0:
236,53,3809,1,0,0:0:0:0:
395,140,3959,6,0,B|421:176|421:176|417:313,1,157.499995193482,2|0,0:0|0:0,0:0:0:0:
305,120,4409,2,0,P|320:82|351:59,1,78.7499975967408,2|0,0:0|0:0,0:0:0:0:
332,211,4709,1,0,0:0:0:0:
212,145,4859,1,2,0:0:0:0:
305,120,5009,1,0,0:0:0:0:
243,283,5159,6,0,L|85:271,1,157.499995193482,4|0,1:0|0:0,0:0:0:0:
333,289,5609,1,2,0:0:0:0:
333,289,5759,2,0,B|331:210,1,78.7499975967408,2|0,0:0|0:0,0:0:0:0:
210,66,6059,2,0,B|212:145,1,78.7499975967408,2|0,0:0|0:0,0:0:0:0:
417,289,6359,6,0,L|412:131,1,157.499995193482,2|0,0:0|0:0,0:0:0:0:
258,189,6809,2,0,P|321:211|354:205,1,78.7499975967408,2|0,0:0|0:0,0:0:0:0:
439,39,7109,1,0,0:0:0:0:
319,112,7259,1,2,0:0:0:0:
412,131,7409,1,0,0:0:0:0:
245,48,7559,6,0,P|222:121|257:188,1,157.499995193482,2|0,0:0|0:0,0:0:0:0:
395,115,8009,2,0,P|357:106|305:117,1,78.7499975967408,2|0,0:0|0:0,0:0:0:0:
258,188,8309,1,0,0:0:0:0:
395,115,8459,1,2,0:0:0:0:
245,48,8609,1,0,0:0:0:0:
398,255,8759,6,0,L|493:252,2,78.7499975967408,2|0|2,0:0|0:0|0:0,0:0:0:0:
258,189,9209,1,2,0:0:0:0:
258,189,9959,5,4,0:0:0:0:
319,97,10109,1,2,0:0:0:0:
308,288,10259,1,8,0:0:0:0:
208,91,10409,2,0,P|231:29|263:4,1,91.8749971961976,2|0,0:0|0:0,0:0:0:0:
369,195,10709,1,2,0:0:0:0:
208,91,10859,1,8,0:0:0:0:
430,102,11009,6,0,P|472:152|477:193,1,91.8749971961976,2|0,0:0|0:0,0:0:0:0:
258,189,11309,1,2,0:0:0:0:
430,102,11459,1,8,0:0:0:0:
308,288,11609,2,0,P|242:299|205:283,1,91.8749971961976,2|0,0:0|0:0,0:0:0:0:
208,91,11909,1,2,0:0:0:0:
369,195,12059,1,8,0:0:0:0:
116,152,12209,6,0,P|98:76|116:40,1,91.8749971961976,2|0,0:0|0:0,0:0:0:0:
258,189,12509,1,2,0:0:0:0:
116,320,12659,1,8,0:0:0:0:
208,91,12809,2,0,P|283:81|319:100,1,91.8749971961976,2|0,0:0|0:0,0:0:0:0:
477,176,13109,1,2,0:0:0:0:
258,189,13259,1,8,0:0:0:0:
418,82,13409,1,2,0:0:0:0:
373,269,13559,5,2,0:0:0:0:
296,85,13709,1,2,0:0:0:0:
296,85,13784,1,2,0:0:0:0:
296,85,13859,1,8,0:0:0:0:
446,350,14009,2,0,P|381:380|280:326,1,183.749994392395,2|2,0:0|0:0,0:0:0:0:
167,174,14459,1,8,0:0:0:0:
373,269,14609,1,2,0:0:0:0:
171,284,14759,5,4,0:0:0:0:
264,225,14909,1,2,0:0:0:0:
197,384,15059,1,8,0:0:0:0:
166,174,15209,2,0,P|193:137|234:118,1,91.8749971961976,2|0,0:0|0:0,0:0:0:0:
171,284,15509,1,2,0:0:0:0:
73,115,15659,1,8,0:0:0:0:
264,225,15809,6,0,P|282:266|278:311,1,91.8749971961976,2|0,0:0|0:0,0:0:0:0:
166,174,16109,1,2,0:0:0:0:
356,173,16259,1,8,0:0:0:0:
171,284,16409,2,0,P|125:279|88:253,1,91.8749971961976,2|0,0:0|0:0,0:0:0:0:
260,115,16709,1,2,0:0:0:0:
277,311,16859,1,8,0:0:0:0:
163,62,17009,6,0,P|189:25|231:8,1,91.8749971961976,2|0,0:0|0:0,0:0:0:0:
264,225,17309,1,2,0:0:0:0:
69,121,17459,1,8,0:0:0:0:
357,167,17609,2,0,P|376:207|370:252,1,91.8749971961976,2|0,0:0|0:0,0:0:0:0:
166,174,17909,1,2,0:0:0:0:
341,51,18059,1,8,0:0:0:0:
264,225,18209,1,2,0:0:0:0:
163,62,18359,5,2,0:0:0:0:
357,167,18509,1,2,0:0:0:0:
357,167,18584,1,2,0:0:0:0:
357,167,18659,1,12,0:0:0:0:
170,285,18809,2,0,L|72:275,1,91.8749971961976,2|2,0:0|0:0,0:0:0:0:
357,167,19109,1,8,0:0:0:0:
258,384,19259,1,8,0:0:0:0:
166,174,19409,1,8,0:0:0:0:
358,306,19559,6,0,P|379:236|356:166,1,148.750002837181,4|0,0:0|0:0,0:0:0:0:
283,93,20009,2,0,L|195:91,1,74.3750014185906,2|0,0:0|0:0,0:0:0:0:
179,180,20309,2,0,L|253:181,1,74.3750014185906,2|0,0:0|0:0,0:0:0:0:
208,91,20609,1,0,0:0:0:0:
149,268,20759,6,0,L|223:269,1,74.3750014185906,2|0,0:0|0:0,0:0:0:0:
118,356,21059,1,0,0:0:0:0:
118,356,21209,2,0,L|192:357,1,74.3750014185906,2|0,0:0|0:0,0:0:0:0:
280,340,21509,1,2,0:0:0:0:
311,256,21659,1,0,0:0:0:0:
223,269,21809,1,0,0:0:0:0:
371,327,21959,6,0,P|397:294|399:246,1,74.3750014185906,2|0,0:0|0:0,0:0:0:0:
362,182,22259,1,0,0:0:0:0:
311,256,22409,1,0,0:0:0:0:
490,245,22559,2,0,P|474:205|433:180,1,74.3750014185906,2|0,0:0|0:0,0:0:0:0:
478,101,22859,2,0,P|436:94|393:117,1,74.3750014185906,2|0,0:0|0:0,0:0:0:0:
344,39,23159,6,0,B|316:73|316:73|326:194,1,148.750002837181,2|0,0:0|0:0,0:0:0:0:
306,265,23609,2,0,L|407:258,1,74.3750014185906,2|0,0:0|0:0,0:0:0:0:
324,177,23909,1,0,0:0:0:0:
239,205,24059,1,2,0:0:0:0:
306,265,24209,1,0,0:0:0:0:
194,123,24359,6,0,P|158:160|152:213,1,74.3750014185906,2|0,0:0|0:0,0:0:0:0:
62,179,24659,1,0,0:0:0:0:
62,179,24809,2,0,P|76:228|118:260,1,74.3750014185906,2|0,0:0|0:0,0:0:0:0:
44,321,25109,2,0,P|93:333|142:313,1,74.3750014185906,2|0,0:0|0:0,0:0:0:0:
91,244,25409,1,0,0:0:0:0:
200,384,25559,6,0,L|293:375,1,74.3750014185906,2|0,0:0|0:0,0:0:0:0:
211,291,25859,1,0,0:0:0:0:
211,291,26009,2,0,L|304:282,1,74.3750014185906,2|0,0:0|0:0,0:0:0:0:
345,218,26309,1,0,0:0:0:0:
317,133,26459,1,2,0:0:0:0:
228,120,26609,1,0,0:0:0:0:
285,283,26759,6,0,P|323:305|380:297,1,74.3750014185906,2|0,0:0|0:0,0:0:0:0:
345,218,27059,1,0,0:0:0:0:
345,218,27209,2,0,P|383:196|404:142,1,74.3750014185906,2|0,0:0|0:0,0:0:0:0:
389,82,27509,1,0,0:0:0:0:
317,133,27659,1,2,0:0:0:0:
398,170,27809,1,0,0:0:0:0:
286,52,27959,6,0,P|233:32|147:81,1,148.750002837181,2|0,0:0|0:0,0:0:0:0:
235,189,28409,2,0,P|240:152|229:118,1,74.3750014185906,2|0,0:0|0:0,0:0:0:0:
71,163,28709,1,2,0:0:0:0:
228,117,28859,1,0,0:0:0:0:
78,22,29009,1,0,0:0:0:0:
71,163,29159,6,0,L|146:160,1,74.3750014185906,4|0,0:0|0:0,0:0:0:0:
112,243,29459,1,0,0:0:0:0:
112,243,29609,2,0,L|186:239,1,74.3750014185906,2|0,0:0|0:0,0:0:0:0:
153,323,29909,2,0,L|227:319,1,74.3750014185906,2|0,0:0|0:0,0:0:0:0:
186,238,30209,1,0,0:0:0:0:
317,299,30359,6,0,P|306:271|274:239,1,74.3750014185906,2|0,0:0|0:0,0:0:0:0:
303,154,30659,1,0,0:0:0:0:
303,154,30809,2,0,P|274:149|229:161,1,74.3750014185906,2|0,0:0|0:0,0:0:0:0:
186,238,31109,1,0,0:0:0:0:
227,318,31259,1,2,0:0:0:0:
275,239,31409,1,0,0:0:0:0:
145,160,31559,6,0,L|60:164,1,74.3750014185906,2|0,0:0|0:0,0:0:0:0:
105,80,31859,1,0,0:0:0:0:
105,80,32009,1,2,0:0:0:0:
193,78,32159,2,0,L|268:75,1,74.3750014185906
145,160,32459,1,2,0:0:0:0:
105,80,32609,1,0,0:0:0:0:
110,243,32759,6,0,P|149:251|199:232,1,74.3750014185906,2|0,0:0|0:0,0:0:0:0:
238,311,33059,1,0,0:0:0:0:
238,311,33209,2,0,P|264:281|272:228,1,74.3750014185906,2|0,0:0|0:0,0:0:0:0:
233,168,33509,1,0,0:0:0:0:
145,160,33659,1,2,0:0:0:0:
181,242,33809,1,0,0:0:0:0:
325,178,33959,6,0,L|318:98,1,74.3750014185906,2|0,0:0|0:0,0:0:0:0:
403,132,34259,1,0,0:0:0:0:
403,132,34409,2,0,L|396:52,1,74.3750014185906,2|0,0:0|0:0,0:0:0:0:
481,86,34709,2,0,L|474:6,1,74.3750014185906,2|0,0:0|0:0,0:0:0:0:
396,57,35009,1,0,0:0:0:0:
402,220,35159,6,0,P|439:214|468:192,1,74.3750014185906,2|0,0:0|0:0,0:0:0:0:
327,267,35459,1,0,0:0:0:0:
327,267,35609,2,0,P|350:295|385:309,1,74.3750014185906,2|0,0:0|0:0,0:0:0:0:
325,177,35909,1,0,0:0:0:0:
403,132,36059,1,2,0:0:0:0:
402,220,36209,1,0,0:0:0:0:
268,317,36359,6,0,L|183:312,1,74.3750014185906,2|0,0:0|0:0,0:0:0:0:
42,261,36659,1,2,0:0:0:0:
42,261,36809,2,0,L|117:265,1,74.3750014185906,2|0,0:0|0:0,0:0:0:0:
196,223,37109,1,2,0:0:0:0:
193,312,37259,1,2,0:0:0:0:
114,354,37409,1,0,0:0:0:0:
120,176,37559,6,0,L|123:102,1,74.3750014185906,4|0,0:0|0:0,0:0:0:0:
196,223,37859,1,8,0:0:0:0:
114,354,38009,2,0,L|40:351,1,74.3750014185906,8|0,0:0|0:0,0:0:0:0:
196,223,38309,1,8,3:0:0:0:
193,312,38459,1,4,3:0:0:0:
120,176,38609,1,4,3:0:0:0:
270,360,38759,6,0,L|354:356,1,83.1249977803231,4|0,0:0|0:0,0:0:0:0:
361,215,39059,1,8,0:0:0:0:
362,215,39209,2,0,L|195:222,1,166.249995560646,2|2,0:0|0:0,0:0:0:0:
211,121,39659,2,0,L|207:37,1,83.1249977803231,8|0,0:0|0:0,0:0:0:0:
100,189,39959,6,0,L|104:305,1,83.1249977803231,2|0,0:0|0:0,0:0:0:0:
115,88,40259,1,8,0:0:0:0:
115,88,40409,2,0,P|61:95|0:201,1,166.249995560646,2|2,0:0|0:0,0:0:0:0:
195,222,40859,1,8,0:0:0:0:
100,189,41009,1,0,0:0:0:0:
213,320,41159,6,0,P|264:297|286:253,1,83.1249977803231,2|0,0:0|0:0,0:0:0:0:
211,121,41459,1,8,0:0:0:0:
372,309,41609,2,0,P|377:253|350:212,1,83.1249977803231,8|0,0:0|0:0,0:0:0:0:
195,222,41909,1,2,0:0:0:0:
441,165,42059,2,0,P|395:132|346:135,1,83.1249977803231,8|0,0:0|0:0,0:0:0:0:
211,121,42359,6,0,P|256:153|305:150,1,83.1249977803231,2|0,0:0|0:0,0:0:0:0:
383,30,42659,1,8,0:0:0:0:
366,229,42809,1,8,0:0:0:0:
287,56,42959,1,0,0:0:0:0:
369,129,43109,1,2,0:0:0:0:
272,255,43259,1,8,0:0:0:0:
282,156,43409,1,0,0:0:0:0:
347,353,43559,6,0,L|252:354,1,83.1249977803231,2|0,0:0|0:0,0:0:0:0:
90,256,43859,1,8,0:0:0:0:
272,255,44009,2,0,L|188:255,1,83.1249977803231,2|0,0:0|0:0,0:0:0:0:
90,256,44309,1,2,0:0:0:0:
197,157,44459,2,0,L|102:158,1,83.1249977803231,8|0,0:0|0:0,0:0:0:0:
263,354,44759,6,0,P|321:344|349:317,1,83.1249977803231,2|0,0:0|0:0,0:0:0:0:
280,172,45059,1,8,0:0:0:0:
433,364,45209,2,0,P|438:305|419:271,1,83.1249977803231,2|0,0:0|0:0,0:0:0:0:
272,255,45509,1,2,0:0:0:0:
486,202,45659,2,0,P|430:181|393:191,1,83.1249977803231,8|0,0:0|0:0,0:0:0:0:
272,255,45959,6,0,L|283:146,1,83.1249977803231,2|0,0:0|0:0,0:0:0:0:
338,329,46259,1,8,0:0:0:0:
194,173,46409,2,0,L|205:64,1,83.1249977803231,8|0,0:0|0:0,0:0:0:0:
272,255,46709,1,2,0:0:0:0:
102,119,46859,2,0,L|113:10,1,83.1249977803231,8|0,0:0|0:0,0:0:0:0:
194,173,47159,5,2,0:0:0:0:
105,219,47309,1,0,0:0:0:0:
202,74,47459,1,8,0:0:0:0:
278,227,47609,1,8,0:0:0:0:
189,275,47759,5,0,0:0:0:0:
194,173,47909,1,2,0:0:0:0:
363,283,48059,1,8,0:0:0:0:
276,332,48209,1,2,0:0:0:0:
307,129,48359,6,0,P|343:147|366:182,1,83.1249977803231,4|0,0:0|0:0,0:0:0:0:
194,173,48659,1,8,0:0:0:0:
194,173,48809,1,0,0:0:0:0:
464,163,48959,2,0,P|466:205|447:241,1,83.1249977803231,2|0,0:0|0:0,0:0:0:0:
283,126,49259,1,8,0:0:0:0:
366,182,49409,1,2,0:0:0:0:
194,173,49559,6,0,P|182:134|188:93,1,83.1249977803231,2|0,0:0|0:0,0:0:0:0:
278,227,49859,1,8,0:0:0:0:
278,227,50009,1,0,0:0:0:0:
107,46,50159,2,0,P|134:16|173:0,1,83.1249977803231,2|0,0:0|0:0,0:0:0:0:
277,226,50459,1,8,0:0:0:0:
188,92,50609,1,0,0:0:0:0:
337,146,50759,6,0,P|376:202|374:247,1,83.1249977803231,2|0,0:0|0:0,0:0:0:0:
232,159,51059,1,8,0:0:0:0:
477,225,51209,2,0,P|466:265|438:296,1,83.1249977803231,8|0,0:0|0:0,0:0:0:0:
277,226,51509,1,2,0:0:0:0:
438,296,51659,2,0,P|373:316|330:301,1,83.1249977803231,8|0,0:0|0:0,0:0:0:0:
316,134,51959,5,2,0:0:0:0:
415,121,52109,1,2,0:0:0:0:
277,226,52259,1,8,0:0:0:0:
354,36,52409,1,8,0:0:0:0:
377,214,52559,5,0,0:0:0:0:
316,134,52709,1,2,0:0:0:0:
445,22,52859,1,8,0:0:0:0:
512,98,53009,1,2,0:0:0:0:
316,134,53159,6,0,L|197:129,1,83.1249977803231,4|0,0:0|0:0,0:0:0:0:
354,36,53459,1,8,0:0:0:0:
183,217,53609,2,0,P|135:151|151:72,1,166.249995560646,2|2,0:0|0:0,0:0:0:0:
277,226,54059,2,0,P|267:269|230:302,1,83.1249977803231,8|0,0:0|0:0,0:0:0:0:
232,130,54359,6,0,P|274:117|321:132,1,83.1249977803231,2|0,0:0|0:0,0:0:0:0:
183,217,54659,1,8,0:0:0:0:
362,50,54809,2,0,P|403:120|373:195,1,166.249995560646,2|2,0:0|0:0,0:0:0:0:
211,120,55259,1,8,0:0:0:0:
311,125,55409,1,0,0:0:0:0:
153,201,55559,6,0,L|52:198,1,83.1249977803231,2|0,0:0|0:0,0:0:0:0:
211,120,55859,1,8,0:0:0:0:
254,209,56009,1,2,0:0:0:0:
196,296,56159,2,0,L|95:293,1,83.1249977803231,2|0,0:0|0:0,0:0:0:0:
352,201,56459,1,8,0:0:0:0:
301,298,56609,1,0,0:0:0:0:
451,205,56759,6,0,P|490:246|495:282,1,83.1249977803231,2|0,0:0|0:0,0:0:0:0:
352,201,57059,1,8,0:0:0:0:
405,116,57209,1,2,0:0:0:0:
399,287,57359,1,0,0:0:0:0:
301,298,57509,1,2,0:0:0:0:
451,205,57659,1,8,0:0:0:0:
496,293,57809,1,2,0:0:0:0:
254,209,57959,5,4,0:0:0:0:
405,116,58109,1,2,0:0:0:0:
399,287,58259,1,8,0:0:0:0:
167,158,58409,1,2,0:0:0:0:
167,158,58709,5,2,0:0:0:0:
408,13,58859,1,8,0:0:0:0:
399,287,59009,1,2,0:0:0:0:
399,288,59459,6,0,B|426:225|376:155|293:148|225:207|234:271|234:271|201:253|201:253|149:288|89:253,1,457.187487791777
32,160,60359,6,0,P|114:148|148:163,1,100.62500191927,4|0,0:0|0:0,0:0:0:0:
97,350,60659,1,8,0:0:0:0:
97,350,60809,2,0,P|85:268|100:234,1,100.62500191927,2|0,0:0|0:0,0:0:0:0:
128,152,61109,1,2,0:0:0:0:
307,285,61259,2,0,P|225:295|191:282,1,100.62500191927,8|0,0:0|0:0,0:0:0:0:
250,176,61559,6,0,P|308:162|371:179,1,100.62500191927,2|0,0:0|0:0,0:0:0:0:
507,289,61859,1,8,0:0:0:0:
307,285,62009,1,2,0:0:0:0:
406,360,62159,1,0,0:0:0:0:
470,171,62309,1,2,0:0:0:0:
307,285,62459,2,0,P|351:294|415:270,1,100.62500191927,8|0,0:0|0:0,0:0:0:0:
399,52,62759,6,0,P|355:39|290:57,1,100.62500191927,2|0,0:0|0:0,0:0:0:0:
347,168,63059,1,8,0:0:0:0:
198,24,63210,2,0,P|193:73|212:119,1,100.62500191927,2|0,0:0|0:0,0:0:0:0:
434,76,63509,1,2,0:0:0:0:
212,119,63659,1,8,0:0:0:0:
314,54,63809,1,0,0:0:0:0:
246,240,63959,6,0,L|139:235,1,100.62500191927,2|0,0:0|0:0,0:0:0:0:
347,168,64259,1,8,0:0:0:0:
185,337,64409,2,0,L|77:332,1,100.62500191927,2|0,0:0|0:0,0:0:0:0:
246,240,64709,1,2,0:0:0:0:
427,351,64859,2,0,L|429:250,1,100.62500191927,8|0,0:0|0:0,0:0:0:0:
233,114,65159,6,0,L|236:262,1,100.62500191927,4|0,0:0|0:0,0:0:0:0:
118,60,65459,1,8,0:0:0:0:
118,60,65609,2,0,P|48:51|-6:66,1,100.62500191927,2|0,0:0|0:0,0:0:0:0:
235,214,65909,2,0,P|305:223|359:208,1,100.62500191927,2|8,0:0|0:0,0:0:0:0:
118,59,66209,6,0,L|123:271,1,201.250003838539,2|2,0:0|0:0,0:0:0:0:
334,218,66659,1,8,0:0:0:0:
231,93,66809,1,2,0:0:0:0:
122,260,66959,1,0,0:0:0:0:
236,215,67109,1,2,0:0:0:0:
118,59,67259,1,8,0:0:0:0:
47,161,67409,1,0,0:0:0:0:
321,130,67559,6,0,P|281:100|232:93,1,100.62500191927,2|0,0:0|0:0,0:0:0:0:
348,248,67859,2,0,P|393:228|424:189,1,100.62500191927,8|0,0:0|0:0,0:0:0:0:
236,215,68159,2,0,P|230:264|248:310,1,100.62500191927,2|2,0:0|0:0,0:0:0:0:
321,130,68459,5,8,0:0:0:0:
204,99,68609,1,2,0:0:0:0:
348,248,68759,1,2,0:0:0:0:
433,162,68909,1,0,0:0:0:0:
235,215,69059,2,0,L|252:343,1,100.62500191927,8|0,0:0|0:0,0:0:0:0:
433,162,69359,5,10,0:0:0:0:
229,94,69509,1,8,0:0:0:0:
180,107,69584,1,8,0:0:0:0:
142,140,69659,1,8,0:0:0:0:
119,184,69734,1,8,0:0:0:0:
117,234,69809,1,8,0:0:0:0:
135,280,69884,1,8,0:0:0:0:
169,317,69959,6,0,P|234:338|279:331,1,100.62500191927,4|0,0:0|0:0,0:0:0:0:
417,147,70259,1,8,0:0:0:0:
417,147,70409,2,0,P|370:128|320:129,1,100.62500191927,2|0,0:0|0:0,0:0:0:0:
265,334,70709,1,2,0:0:0:0:
465,247,70859,2,0,P|505:217|532:145,1,100.62500191927,8|0,0:0|0:0,0:0:0:0:
268,26,71159,6,0,P|228:56|204:100,1,100.62500191927,2|0,0:0|0:0,0:0:0:0:
353,244,71459,1,8,0:0:0:0:
320,128,71609,1,2,0:0:0:0:
265,334,71759,1,0,0:0:0:0:
382,363,71909,1,2,0:0:0:0:
236,216,72059,2,0,L|110:201,1,100.62500191927,8|0,0:0|0:0,0:0:0:0:
265,334,72359,6,0,P|331:291|350:251,1,100.62500191927,2|0,0:0|0:0,0:0:0:0:
204,100,72659,1,8,0:0:0:0:
462,272,72809,2,0,P|453:222|424:181,1,100.62500191927,2|0,0:0|0:0,0:0:0:0:
236,216,73109,1,2,0:0:0:0:
428,37,73259,1,8,0:0:0:0:
311,4,73409,1,0,0:0:0:0:
341,273,73559,6,0,L|441:274,1,100.62500191927,2|0,0:0|0:0,0:0:0:0:
325,132,73858,1,8,0:0:0:0:
287,381,74009,2,0,L|407:382,1,100.62500191927,2|0,0:0|0:0,0:0:0:0:
441,274,74309,1,2,0:0:0:0:
218,280,74459,2,0,P|180:311|160:356,1,100.62500191927,8|0,0:0|0:0,0:0:0:0:
341,273,74759,6,0,P|333:223|303:183,1,100.62500191927,4|0,0:0|0:0,0:0:0:0:
122,267,75059,1,8,0:0:0:0:
122,267,75209,2,0,P|168:284|218:279,1,100.62500191927,2|0,0:0|0:0,0:0:0:0:
236,80,75509,2,0,P|197:111|177:156,1,100.62500191927,2|8,0:0|0:0,0:0:0:0:
497,179,75809,6,0,P|400:157|304:183,1,201.250003838539,2|2,0:0|0:0,0:0:0:0:
122,267,76259,1,8,0:0:0:0:
240,289,76409,1,2,0:0:0:0:
148,54,76559,1,0,0:0:0:0:
79,153,76709,1,2,0:0:0:0:
303,183,76859,1,8,0:0:0:0:
269,67,77009,1,0,0:0:0:0:
21,263,77159,6,0,L|122:267,1,100.62500191927,2|0,0:0|0:0,0:0:0:0:
403,185,77459,2,0,L|303:183,1,100.62500191927,8|0,0:0|0:0,0:0:0:0:
47,50,77759,2,0,L|148:54,1,100.62500191927,2|2,0:0|0:0,0:0:0:0:
303,183,78059,1,8,0:0:0:0:
122,267,78209,1,2,0:0:0:0:
189,165,78359,5,2,0:0:0:0:
240,289,78509,1,2,0:0:0:0:
64,153,78659,1,8,0:0:0:0:
268,63,78809,1,8,0:0:0:0:
268,63,78884,1,8,0:0:0:0:
268,63,78959,1,8,0:0:0:0:
122,267,79109,1,8,0:0:0:0:
131,45,79259,1,8,0:0:0:0:
303,183,79409,1,8,0:0:0:0:
33,339,79559,6,0,P|8:295|9:245,1,100.62500191927,4|0,0:0|0:0,0:0:0:0:
296,216,79859,1,8,0:0:0:0:
296,216,80009,2,0,P|219:277|122:267,1,201.250003838539,2|2,0:0|0:0,0:0:0:0:
131,45,80459,1,8,0:0:0:0:
296,216,80609,1,0,0:0:0:0:
131,45,80759,6,0,B|30:41,1,100.62500191927,2|0,0:0|0:0,0:0:0:0:
296,216,81059,1,8,0:0:0:0:
296,216,81209,2,0,B|441:219|441:219|390:167,1,201.250003838539,2|2,0:0|0:0,0:0:0:0:
268,63,81659,1,8,0:0:0:0:
268,63,81809,1,0,0:0:0:0:
309,323,81959,6,0,P|240:312|205:276,1,100.62500191927,4|0,0:0|0:0,0:0:0:0:
182,154,82259,1,8,0:0:0:0:
126,373,82409,2,0,P|103:328|105:279,1,100.62500191927,2|0,0:0|0:0,0:0:0:0:
344,98,82709,2,0,P|366:142|364:191,1,100.62500191927,2|8,0:0|0:0,0:0:0:0:
217,293,83009,1,0,0:0:0:0:
454,211,83159,5,4,0:0:0:0:
60,127,83309,1,0,0:0:0:0:
269,295,83459,2,0,P|244:239|216:292,1,150.937502878904,2|0,0:0|0:0,0:0:0:0:
239,384,83759,5,8,0:0:0:0:
369,0,83909,1,8,0:0:0:0:
429,175,84359,5,4,0:0:0:0:
324,208,84509,1,0,0:0:0:0:
511,255,84659,1,8,0:0:0:0:
348,95,84809,2,0,P|303:92|254:113,1,91.8749971961976,2|0,0:0|0:0,0:0:0:0:
402,284,85109,1,2,0:0:0:0:
348,95,85259,1,8,0:0:0:0:
297,317,85409,6,0,P|332:368|383:390,1,91.8749971961976,2|0,0:0|0:0,0:0:0:0:
324,208,85709,1,2,0:0:0:0:
187,348,85859,1,8,0:0:0:0:
402,284,86009,2,0,P|432:234|427:189,1,91.8749971961976,2|0,0:0|0:0,0:0:0:0:
240,133,86309,1,2,0:0:0:0:
431,201,86459,1,8,0:0:0:0:
182,38,86609,6,0,P|137:87|135:138,1,91.8749971961976,2|0,0:0|0:0,0:0:0:0:
218,239,86909,1,2,0:0:0:0:
182,38,87059,1,8,0:0:0:0:
148,324,87209,2,0,B|200:351|200:351|324:334,1,183.749994392395,2|2,0:0|0:0,0:0:0:0:
109,220,87659,2,0,P|72:241|41:302,1,91.8749971961976,8|0,0:0|0:0,0:0:0:0:
218,239,87959,5,2,0:0:0:0:
118,108,88109,1,2,0:0:0:0:
148,324,88259,1,12,0:0:0:0:
312,185,88409,1,2,0:0:0:0:
312,185,88484,1,2,0:0:0:0:
312,185,88559,1,2,0:0:0:0:
3,209,88709,5,8,0:0:0:0:
323,334,88859,1,8,0:0:0:0:
236,28,89009,1,8,0:0:0:0:
218,239,89159,5,2,0:0:0:0:
