osu file format v14

[General]
AudioFilename: audio.mp3
AudioLeadIn: 0
PreviewTime: 59384
Countdown: 0
SampleSet: Soft
StackLeniency: 0.7
Mode: 0
LetterboxInBreaks: 0
WidescreenStoryboard: 0

[Editor]
Bookmarks: 5159,9959,14759,19559,35159,38759
DistanceSpacing: 1
BeatDivisor: 4
GridSize: 8
TimelineZoom: 3.000005

[Metadata]
Title:Peace Sign (TV edit.)
TitleUnicode:ピースサイン (TV edit.)
Artist:Kenshi Yonezu
ArtistUnicode:米津玄師
Creator:Finshie
Version:HC's Advanced
Source:僕のヒーローアカデミア 第2期
Tags:boku no hero academia opening tv Size hachi ハチ Hydrocannon13
BeatmapID:1272916
BeatmapSetID:594429

[Difficulty]
HPDrainRate:4
CircleSize:3.4
OverallDifficulty:4
ApproachRate:5
SliderMultiplier:1.05
SliderTickRate:1

[Events]
//Background and Video events
0,0,"bggggg2.jpg",0,0
Video,-38,"video.avi"
//Break Periods
//Storyboard Layer 0 (Background)
//Storyboard Layer 1 (Fail)
//Storyboard Layer 2 (Pass)
//Storyboard Layer 3 (Foreground)
//Storyboard Sound Samples

[TimingPoints]
359,300,4,2,1,70,1,0
9959,-100,4,2,1,70,0,0
19559,-100,4,2,0,50,0,0
37559,-100,4,2,1,50,0,0
38759,-100,4,2,1,60,0,0
59459,-100,4,2,1,5,0,0
59759,-100,4,2,1,30,0,0
59909,-100,4,2,1,60,0,0
60284,-100,4,2,1,5,0,0
60359,-86.9565217391304,4,2,1,70,0,1
84059,-100,4,2,1,70,0,0
84359,-100,4,2,1,70,0,0
89159,-100,4,2,1,70,0,0

[Colours]
Combo1 : 0,128,0
Combo2 : 238,34,51
Combo3 : 221,136,170
Combo4 : 136,85,170
Combo5 : 17,187,153
Combo6 : 238,153,102

[HitObjects]
205,112,359,6,0,L|321:101,1,105,4|0,1:0|0:0,0:0:0:0:
424,90,959,1,0,0:0:0:0:
296,282,1559,1,2,0:0:0:0:
296,282,1859,2,0,L|85:262,1,210,0|2,0:0|0:0,0:0:0:0:
17,169,2759,6,0,L|124:158,1,105,2|0,0:0|0:0,0:0:0:0:
212,86,3359,1,0,0:0:0:0:
426,171,3959,1,2,0:0:0:0:
426,171,4259,2,0,L|406:386,1,210,0|2,0:0|0:0,0:0:0:0:
305,323,5159,6,0,L|295:219,1,105,4|0,1:0|0:0,0:0:0:0:
278,103,5759,1,2,0:0:0:0:
63,16,6359,1,2,0:0:0:0:
63,16,6659,2,0,L|40:242,1,210,0|2,0:0|0:0,0:0:0:0:
75,335,7559,6,0,P|136:358|222:326,2,157.5,2|2|2,0:0|0:0|0:0,0:0:0:0:
143,242,8759,2,0,P|214:212|287:235,1,157.5,2|2,0:0|0:0,0:0:0:0:
287,235,9959,6,0,L|295:172,1,52.5,4|2,0:0|0:0,0:0:0:0:
305,68,10409,1,2,0:0:0:0:
198,27,10709,1,2,0:0:0:0:
86,58,11009,2,0,L|96:178,1,105,2|2,0:0|0:0,0:0:0:0:
150,264,11609,1,2,0:0:0:0:
222,173,11909,2,0,P|235:150|263:130,1,52.5,2|8,0:0|0:0,0:0:0:0:
307,110,12209,1,2,0:0:0:0:
338,221,12509,6,0,L|335:278,1,52.5,2|8,0:0|0:0,0:0:0:0:
290,310,12809,2,0,B|227:306|227:306|171:320,1,105,2|2,0:0|0:0,0:0:0:0:
131,334,13259,2,0,L|124:265,1,52.5,8|2,0:0|0:0,0:0:0:0:
118,224,13559,2,0,L|57:229,2,52.5,2|2|8,0:0|0:0|0:0,0:0:0:0:
174,218,14009,2,0,P|215:152|290:135,1,157.5,2|8,0:0|0:0,0:0:0:0:
373,220,14759,6,0,L|368:283,1,52.5,4|2,0:0|0:0,0:0:0:0:
319,377,15209,1,2,0:0:0:0:
219,319,15509,2,0,P|168:307|117:317,2,105,2|2|2,0:0|0:0|0:0,0:0:0:0:
311,250,16409,1,2,0:0:0:0:
234,163,16709,2,0,P|229:119|235:89,1,52.5,2|8,0:0|0:0,0:0:0:0:
243,55,17009,1,2,0:0:0:0:
135,12,17309,6,0,L|72:17,1,52.5,2|8,0:0|0:0,0:0:0:0:
43,58,17609,2,0,L|33:179,1,105,2|2,0:0|0:0,0:0:0:0:
35,220,18059,2,0,P|63:229|93:226,1,52.5,8|2,0:0|0:0,0:0:0:0:
143,218,18359,2,0,L|148:278,2,52.5,2|2|12,0:0|0:0|0:0,0:0:0:0:
143,160,18809,2,0,P|178:128|252:113,1,105,2|8,0:0|0:0,0:0:0:0:
289,124,19259,2,0,L|349:129,1,52.5,8|8,0:0|0:0,0:0:0:0:
381,170,19559,6,0,B|390:277|390:277|374:326,2,157.5,4|2|0,0:0|0:0|0:0,0:0:0:0:
303,83,20759,2,0,P|365:49|444:74,2,157.5,2|2|0,0:0|0:0|0:0,0:0:0:0:
261,123,21809,1,0,0:0:0:0:
261,123,21959,6,0,L|141:111,1,105,2|0,0:0|0:0,0:0:0:0:
86,20,22559,2,0,L|190:9,1,105,0|0,0:0|0:0,0:0:0:0:
306,14,23159,2,0,B|358:17|358:17|409:4|409:4|466:8,1,157.5,2|2,0:0|0:0,0:0:0:0:
418,115,23909,2,0,P|391:159|384:211,1,105,0|0,0:0|0:0,0:0:0:0:
395,267,24359,6,0,P|320:247|250:279,2,157.5,2|2|0,0:0|0:0|0:0,0:0:0:0:
475,349,25559,2,0,P|508:298|483:196,2,157.5,2|2|2,0:0|0:0|0:0,0:0:0:0:
421,355,26609,1,0,0:0:0:0:
421,355,26759,6,0,L|255:340,2,157.5,2|2|2,0:0|0:0|0:0,0:0:0:0:
352,261,27959,2,0,L|186:246,1,157.5,2|2,0:0|0:0,0:0:0:0:
104,174,28709,2,0,P|149:140|199:131,1,105,2|0,0:0|0:0,0:0:0:0:
240,169,29159,6,0,P|218:109|261:22,1,157.5,4|2,0:0|0:0,0:0:0:0:
339,106,29909,2,0,P|390:120|454:112,1,105,2|0,0:0|0:0,0:0:0:0:
495,94,30359,2,0,B|485:148|485:148|498:198|498:198|489:254,1,157.5,2|2,0:0|0:0,0:0:0:0:
444,357,31109,2,0,P|479:367|511:369,2,52.5,0|2|0,0:0|0:0|0:0,0:0:0:0:
393,329,31559,6,0,L|284:338,1,105,2|0,0:0|0:0,0:0:0:0:
178,374,32159,2,0,L|73:364,1,105,0|2,0:0|0:0,0:0:0:0:
139,269,32759,2,0,P|182:216|165:118,1,157.5,2|2,0:0|0:0,0:0:0:0:
109,34,33509,2,0,L|215:31,1,105,0|0,0:0|0:0,0:0:0:0:
272,30,33959,6,0,P|346:22|430:43,1,157.5,2|2,0:0|0:0,0:0:0:0:
436,155,34709,2,0,L|426:259,1,105,2|0,0:0|0:0,0:0:0:0:
414,316,35159,2,0,B|337:300|337:332|257:316,1,157.5,2|2,0:0|0:0,0:0:0:0:
149,275,35909,2,0,L|142:344,2,52.5,0|2|0,0:0|0:0|0:0,0:0:0:0:
157,217,36359,6,0,P|86:247|12:224,2,157.5,2|2|2,0:0|0:0|0:0,0:0:0:0:
219,119,37559,1,4,0:0:0:0:
290,210,37859,2,0,L|296:279,1,52.5,8|8,0:0|0:0,0:0:0:0:
405,295,38309,2,0,L|400:347,2,52.5,8|4|4,3:0|3:0|3:0,0:0:0:0:
410,237,38759,5,4,0:0:0:0:
481,145,39059,2,0,B|435:110|379:125|379:125|332:113|332:113|279:126,1,210,8|8,0:0|0:0,0:0:0:0:
173,170,39959,1,2,0:0:0:0:
247,258,40259,2,0,P|298:279|405:248,1,157.5,8|2,0:0|0:0,0:0:0:0:
423,206,40859,1,8,0:0:0:0:
320,151,41159,6,0,P|308:100|320:49,1,105,2|8,0:0|0:0,0:0:0:0:
363,11,41609,2,0,L|240:5,1,105,8|2,0:0|0:0,0:0:0:0:
200,14,42059,1,8,0:0:0:0:
108,69,42359,2,0,L|117:182,1,105,2|8,0:0|0:0,0:0:0:0:
135,228,42809,2,0,P|181:221|245:237,1,105,8|2,0:0|0:0,0:0:0:0:
287,261,43259,2,0,L|343:256,1,52.5,8|0,0:0|0:0,0:0:0:0:
396,249,43559,6,0,P|440:186|436:142,1,105,2|8,0:0|0:0,0:0:0:0:
426,104,44009,1,2,0:0:0:0:
323,160,44309,2,0,P|263:149|225:107,1,105,2|0,0:0|0:0,0:0:0:0:
219,63,44759,2,0,B|110:55|110:55,1,105,2|8,0:0|0:0,0:0:0:0:
56,53,45209,1,2,0:0:0:0:
11,159,45509,2,0,B|120:167,1,105,2|0,0:0|0:0,0:0:0:0:
168,190,45959,6,0,P|176:241|159:290,1,105,2|8,0:0|0:0,0:0:0:0:
126,338,46409,2,0,L|251:334,1,105,8|2,0:0|0:0,0:0:0:0:
288,333,46859,1,8,0:0:0:0:
398,296,47159,2,0,B|419:244|405:182|405:182,1,105,2|8,0:0|0:0,0:0:0:0:
394,136,47609,1,8,0:0:0:0:
356,26,47909,1,2,0:0:0:0:
356,26,48059,2,0,P|311:38|290:35,1,52.5,8|2,0:0|0:0,0:0:0:0:
249,25,48359,5,4,0:0:0:0:
185,121,48659,2,0,B|174:226|174:226|279:215,1,210,8|8,0:0|0:0,0:0:0:0:
371,147,49559,1,2,0:0:0:0:
431,244,49859,2,0,B|423:349|423:349|371:342,1,157.5,8|0,0:0|0:0,0:0:0:0:
316,322,50459,2,0,L|263:326,1,52.5,8|0,0:0|0:0,0:0:0:0:
205,326,50759,6,0,P|150:305|102:313,1,105,2|8,0:0|0:0,0:0:0:0:
53,338,51209,2,0,P|74:277|62:225,1,105,8|2,0:0|0:0,0:0:0:0:
48,183,51659,1,8,0:0:0:0:
4,79,51959,2,0,L|107:69,1,105,2|8,0:0|0:0,0:0:0:0:
163,86,52409,1,8,0:0:0:0:
163,86,52559,2,0,L|267:96,1,105,0|8,0:0|0:0,0:0:0:0:
319,198,53159,6,0,P|346:250|408:274,1,105,4|8,0:0|0:0,0:0:0:0:
442,282,53609,2,0,P|371:313|337:382,1,157.5,2|8,0:0|0:0,0:0:0:0:
229,339,54359,2,0,L|219:230,1,105,2|8,0:0|0:0,0:0:0:0:
213,176,54809,2,0,P|262:151|293:104,1,105,2|2,0:0|0:0,0:0:0:0:
300,54,55259,1,8,0:0:0:0:
184,58,55559,6,0,L|77:52,1,105,2|8,0:0|0:0,0:0:0:0:
41,96,56009,1,2,0:0:0:0:
10,145,56159,2,0,L|114:150,1,105,0|8,0:0|0:0,0:0:0:0:
215,210,56759,2,0,P|225:261|213:311,1,105,2|8,0:0|0:0,0:0:0:0:
172,353,57209,2,0,B|223:335|223:335|285:350|285:350,1,105,2|2,0:0|0:0,0:0:0:0:
327,365,57659,1,8,0:0:0:0:
383,242,57959,6,0,B|332:227|332:227,1,52.5,4|2,0:0|0:0,0:0:0:0:
253,119,58409,2,0,B|151:90|151:90,2,105,2|2|2,0:0|0:0|0:0,0:0:0:0:
253,119,60359,6,0,P|236:167|259:240,1,120.750002303124,4|8,0:0|0:0,0:0:0:0:
282,285,60809,1,2,0:0:0:0:
359,377,61109,1,2,0:0:0:0:
439,287,61409,2,0,L|427:153,1,120.750002303124,0|0,0:0|0:0,0:0:0:0:
420,106,61859,2,0,P|390:102|360:105,1,60.3750011515618,8|2,0:0|0:0,0:0:0:0:
308,134,62159,2,0,P|267:137|232:128,1,60.3750011515618,2|2,0:0|0:0,0:0:0:0:
147,65,62609,6,0,P|126:112|137:182,1,120.750002303124,0|0,0:0|0:0,0:0:0:0:
164,232,63059,1,8,0:0:0:0:
206,274,63209,2,0,L|331:280,1,120.750002303124,2|2,0:0|0:0,0:0:0:0:
377,247,63659,1,8,0:0:0:0:
403,192,63809,2,0,P|392:125|346:84,1,120.750002303124,0|0,0:0|0:0,0:0:0:0:
298,70,64259,1,8,0:0:0:0:
239,86,64409,2,0,L|122:128,1,120.750002303124,2|2,0:0|0:0,0:0:0:0:
71,156,64859,1,8,0:0:0:0:
177,212,65159,6,0,P|210:257|219:326,1,120.750002303124,4|8,0:0|0:0,0:0:0:0:
224,380,65609,2,0,L|342:333,1,120.750002303124,2|2,0:0|0:0,0:0:0:0:
424,252,66209,2,0,B|312:215|312:215|277:156,1,181.125003454685,2|8,0:0|0:0,0:0:0:0:
224,52,66959,2,0,L|142:75,1,60.3750011515618,0|2,0:0|0:0,0:0:0:0:
137,121,67259,2,0,L|80:139,1,60.3750011515618,8|0,0:0|0:0,0:0:0:0:
44,187,67559,6,0,P|61:327|227:265,1,362.250006909371,2|8,0:0|0:0,0:0:0:0:
257,155,68759,1,2,0:0:0:0:
257,155,69059,1,8,0:0:0:0:
326,254,69359,2,0,P|349:230|362:205,1,60.3750011515618,10|8,0:0|0:0,0:0:0:0:
397,157,69659,2,0,P|402:124|398:96,1,60.3750011515618,8|8,0:0|0:0,0:0:0:0:
372,44,69959,6,0,P|325:21|249:20,1,120.750002303124,4|8,0:0|0:0,0:0:0:0:
197,22,70409,1,2,0:0:0:0:
95,88,70709,1,2,0:0:0:0:
167,184,71009,2,0,B|290:211,1,120.750002303124,0|0,0:0|0:0,0:0:0:0:
344,219,71459,2,0,P|378:213|404:200,1,60.3750011515618,8|2,0:0|0:0,0:0:0:0:
459,185,71759,2,0,B|445:250,1,60.3750011515618,0|2,0:0|0:0,0:0:0:0:
364,332,72209,6,0,P|308:354|249:349,1,120.750002303124,0|0,0:0|0:0,0:0:0:0:
193,324,72659,1,8,0:0:0:0:
163,271,72809,2,0,L|172:147,1,120.750002303124,2|2,0:0|0:0,0:0:0:0:
185,91,73259,1,8,0:0:0:0:
235,59,73409,2,0,B|285:49|285:49|354:63,1,120.750002303124,0|0,0:0|0:0,0:0:0:0:
393,108,73859,1,8,0:0:0:0:
425,158,74009,2,0,P|432:240|417:279,1,120.750002303124,2|2,0:0|0:0,0:0:0:0:
387,326,74459,1,8,0:0:0:0:
276,374,74759,6,0,L|152:369,1,120.750002303124,4|8,0:0|0:0,0:0:0:0:
111,327,75209,2,0,P|99:268|127:209,1,120.750002303124,2|2,0:0|0:0,0:0:0:0:
218,141,75809,2,0,P|153:99|88:107,1,120.750002303124,2|2,0:0|0:0,0:0:0:0:
51,108,76259,2,0,L|25:162,1,60.3750011515618,8|2,0:0|0:0,0:0:0:0:
34,223,76559,2,0,L|8:277,2,60.3750011515618,0|2|8,0:0|0:0|0:0,0:0:0:0:
256,192,77009,12,2,78359,0:0:0:0:
87,267,79259,6,0,L|95:207,1,60.3750011515618,8|8,0:0|0:0,0:0:0:0:
138,162,79559,2,0,P|185:178|263:171,1,120.750002303124,4|8,0:0|0:0,0:0:0:0:
313,157,80009,1,2,0:0:0:0:
420,102,80309,2,0,L|432:184,1,60.3750011515618,2|8,0:0|0:0,0:0:0:0:
452,217,80609,2,0,B|431:343,1,120.750002303124,0|2,0:0|0:0,0:0:0:0:
374,354,81059,1,8,0:0:0:0:
314,362,81209,2,0,B|225:380|225:334|124:370,1,181.125003454685,2|8,0:0|0:0,0:0:0:0:
61,270,81959,6,0,L|65:143,1,120.750002303124,4|8,0:0|0:0,0:0:0:0:
56,89,82409,2,0,P|116:108|186:95,1,120.750002303124,2|2,0:0|0:0,0:0:0:0:
231,84,82859,1,8,0:0:0:0:
316,3,83159,1,4,0:0:0:0:
384,102,83459,1,2,0:0:0:0:
452,201,83759,2,0,L|438:276,1,60.3750011515618,8|8,0:0|0:0,0:0:0:0:
312,351,84359,5,4,0:0:0:0:
312,351,84509,2,0,L|292:247,1,105,0|2,0:0|0:0,0:0:0:0:
270,145,85109,1,2,0:0:0:0:
177,195,85409,2,0,P|165:238|184:309,2,105,2|2|2,0:0|0:0|0:0,0:0:0:0:
226,101,86309,2,0,L|171:90,1,52.5,2|8,0:0|0:0,0:0:0:0:
127,56,86609,6,0,L|24:76,1,105,2|2,0:0|0:0,0:0:0:0:
6,131,87059,1,8,0:0:0:0:
33,182,87209,2,0,L|135:202,1,105,2|2,0:0|0:0,0:0:0:0:
191,218,87659,2,0,P|199:265|196:291,1,52.5,8|0,0:0|0:0,0:0:0:0:
180,324,87959,2,0,P|153:325|128:331,2,52.5,2|2|12,0:0|0:0|0:0,0:0:0:0:
229,341,88409,2,0,P|292:347|335:325,1,105,2|8,0:0|0:0,0:0:0:0:
357,285,88859,2,0,L|351:220,1,52.5,8|8,0:0|0:0,0:0:0:0:
347,180,89159,5,2,0:0:0:0:
