osu file format v14

[General]
AudioFilename: audio.mp3
AudioLeadIn: 0
PreviewTime: 59384
Countdown: 0
SampleSet: Soft
StackLeniency: 0.5
Mode: 0
LetterboxInBreaks: 0
WidescreenStoryboard: 0

[Editor]
DistanceSpacing: 2
BeatDivisor: 4
GridSize: 4
TimelineZoom: 3.000005

[Metadata]
Title:Peace Sign (TV edit.)
TitleUnicode:ピースサイン (TV edit.)
Artist:Kenshi Yonezu
ArtistUnicode:米津玄師
Creator:Finshie
Version:Hard
Source:僕のヒーローアカデミア 第2期
Tags:boku no hero academia opening tv Size hachi ハチ Hydrocannon13
BeatmapID:1257955
BeatmapSetID:594429

[Difficulty]
HPDrainRate:5
CircleSize:3.8
OverallDifficulty:6
ApproachRate:8
SliderMultiplier:1.2
SliderTickRate:1

[Events]
//Background and Video events
0,0,"bggggg2.jpg",0,0
Video,-38,"video.avi"
//Break Periods
//Storyboard Layer 0 (Background)
//Storyboard Layer 1 (Fail)
//Storyboard Layer 2 (Pass)
//Storyboard Layer 3 (Foreground)
//Storyboard Sound Samples

[TimingPoints]
359,300,4,2,1,70,1,0
359,-111.111111111111,4,2,1,70,0,0
9959,-95.2380952380952,4,2,1,70,0,0
19559,-117.647058823529,4,2,0,50,0,0
37559,-117.647058823529,4,2,1,50,0,0
38759,-105.263157894737,4,2,1,60,0,0
60359,-86.9565217391304,4,2,1,70,0,1
84059,-95.2380952380952,4,2,1,70,0,0
84359,-95.2380952380952,4,2,1,70,0,0
89159,-95.2380952380952,4,2,1,70,0,0

[Colours]
Combo1 : 0,128,0
Combo2 : 238,34,51
Combo3 : 221,136,170
Combo4 : 136,85,170
Combo5 : 17,187,153
Combo6 : 238,153,102

[HitObjects]
78,128,359,6,0,P|145:125|193:160,1,107.999996704102,4|0,1:0|0:0,0:0:0:0:
115,218,809,1,2,0:0:0:0:
115,218,959,2,0,P|48:221|0:186,1,107.999996704102
199,225,1559,6,0,P|215:294|195:349,1,107.999996704102,2|0,0:0|0:0,0:0:0:0:
131,362,2009,1,2,0:0:0:0:
131,362,2159,2,0,L|52:357,1,53.9999983520508,0|0,0:0|0:0,0:0:0:0:
206,328,2459,2,0,L|259:331,1,53.9999983520508,2|0,0:0|0:0,0:0:0:0:
306,231,2759,6,0,L|198:224,1,107.999996704102,2|0,0:0|0:0,0:0:0:0:
165,117,3209,1,2,0:0:0:0:
165,117,3359,2,0,L|273:124,1,107.999996704102,0|2,0:0|0:0,0:0:0:0:
72,173,3959,6,0,P|57:122|69:70,1,107.999996704102,2|0,0:0|0:0,0:0:0:0:
172,36,4409,1,2,0:0:0:0:
172,36,4559,2,0,L|247:40,1,53.9999983520508,0|0,0:0|0:0,0:0:0:0:
326,127,4859,2,0,L|272:123,1,53.9999983520508,2|0,0:0|0:0,0:0:0:0:
198,224,5159,6,0,L|319:232,1,107.999996704102,4|0,1:0|0:0,0:0:0:0:
399,285,5609,1,2,0:0:0:0:
399,285,5759,2,0,P|411:218|386:163,1,107.999996704102,2|0,0:0|0:0,0:0:0:0:
210,15,6359,6,0,L|332:16,1,107.999996704102,2|0,0:0|0:0,0:0:0:0:
419,52,6809,1,2,0:0:0:0:
419,52,6959,2,0,L|419:115,1,53.9999983520508,0|0,0:0|0:0,0:0:0:0:
485,222,7259,2,0,L|485:168,1,53.9999983520508,2|0,0:0|0:0,0:0:0:0:
369,183,7559,6,0,L|261:182,1,107.999996704102,2|0,0:0|0:0,0:0:0:0:
175,248,8009,1,2,0:0:0:0:
175,248,8159,2,0,L|97:247,2,53.9999983520508,0|0|2,0:0|0:0|0:0,0:0:0:0:
261,182,8609,1,0,0:0:0:0:
334,260,8759,6,0,L|387:260,2,53.9999983520508,2|0|2,0:0|0:0|0:0,0:0:0:0:
250,329,9209,1,2,0:0:0:0:
250,329,9959,5,4,0:0:0:0:
169,380,10110,2,0,L|107:379,1,62.9999980773926,2|8,0:0|0:0,0:0:0:0:
46,269,10409,2,0,P|60:197|109:162,1,125.999996154785,2|2,0:0|0:0,0:0:0:0:
197,146,10859,1,8,0:0:0:0:
257,250,11009,6,0,P|196:265|136:249,1,125.999996154785,2|2,0:0|0:0,0:0:0:0:
197,146,11459,1,8,0:0:0:0:
257,250,11609,2,0,L|262:375,1,125.999996154785,2|2,0:0|0:0,0:0:0:0:
345,331,12059,1,8,0:0:0:0:
424,279,12209,6,0,L|418:153,1,125.999996154785,2|2,0:0|0:0,0:0:0:0:
408,26,12659,1,8,0:0:0:0:
317,109,12809,2,0,P|249:116|190:85,1,125.999996154785,2|2,0:0|0:0,0:0:0:0:
113,34,13259,2,0,L|109:105,1,62.9999980773926,8|2,0:0|0:0,0:0:0:0:
192,218,13559,6,0,L|198:92,1,125.999996154785,2|8,0:0|0:0,0:0:0:0:
104,190,14009,2,0,L|97:315,1,125.999996154785,2|2,0:0|0:0,0:0:0:0:
250,238,14459,2,0,P|204:218|163:220,1,62.9999980773926,8|2,0:0|0:0,0:0:0:0:
188,328,14759,5,4,0:0:0:0:
268,377,14909,2,0,L|351:379,1,62.9999980773926,2|8,0:0|0:0,0:0:0:0:
376,242,15209,2,0,L|235:238,1,125.999996154785,2|2,0:0|0:0,0:0:0:0:
297,157,15659,1,8,0:0:0:0:
424,164,15809,6,0,B|461:196|461:196|466:299,1,125.999996154785,2|2,0:0|0:0,0:0:0:0:
376,242,16259,1,8,0:0:0:0:
297,157,16409,2,0,L|304:23,1,125.999996154785,2|2,0:0|0:0,0:0:0:0:
382,83,16859,1,8,0:0:0:0:
297,157,17009,6,0,P|221:168|153:149,1,125.999996154785,2|2,0:0|0:0,0:0:0:0:
62,96,17459,1,8,0:0:0:0:
173,157,17609,2,0,P|193:225|178:298,1,125.999996154785,2|2,0:0|0:0,0:0:0:0:
129,354,18059,2,0,L|60:350,1,62.9999980773926,8|2,0:0|0:0,0:0:0:0:
185,278,18359,6,0,L|247:281,2,62.9999980773926,2|2|12,0:0|0:0|0:0,0:0:0:0:
126,204,18809,2,0,L|-11:198,1,125.999996154785,2|8,0:0|0:0,0:0:0:0:
51,118,19259,2,0,L|139:123,1,62.9999980773926,8|8,0:0|0:0,0:0:0:0:
203,170,19559,6,0,P|212:106|188:55,1,102.000001945496,4|0,0:0|0:0,0:0:0:0:
150,12,20009,2,0,L|255:19,1,102.000001945496,2|0,0:0|0:0,0:0:0:0:
457,177,20609,1,0,0:0:0:0:
457,177,20759,6,0,L|355:170,1,102.000001945496,2|0,0:0|0:0,0:0:0:0:
295,218,21209,2,0,P|305:168|291:119,1,102.000001945496,2|2,0:0|0:0,0:0:0:0:
119,310,21809,1,0,0:0:0:0:
119,310,21959,6,0,B|167:324|167:324|238:304,1,102.000001945496,2|0,0:0|0:0,0:0:0:0:
262,247,22409,1,0,0:0:0:0:
262,247,22559,2,0,B|214:233|214:233|163:247,1,102.000001945496,2|0,0:0|0:0,0:0:0:0:
416,298,23159,6,0,B|430:250|430:250|410:179,1,102.000001945496,2|0,0:0|0:0,0:0:0:0:
351,253,23609,2,0,B|337:205|337:205|352:155,1,102.000001945496,2|2,0:0|0:0,0:0:0:0:
318,82,24059,2,0,L|377:81,1,51.0000009727478,2|0,0:0|0:0,0:0:0:0:
275,146,24359,6,0,P|221:163|166:140,1,102.000001945496,2|0,0:0|0:0,0:0:0:0:
223,87,24809,2,0,P|277:70|332:93,1,102.000001945496,2|2,0:0|0:0,0:0:0:0:
303,296,25409,1,0,0:0:0:0:
303,296,25559,6,0,P|253:307|207:289,1,102.000001945496,2|2,0:0|0:0,0:0:0:0:
163,221,26009,2,0,P|212:209|258:227,1,102.000001945496,2|2,0:0|0:0,0:0:0:0:
303,296,26459,2,0,L|303:347,1,51.0000009727478,2|0,0:0|0:0,0:0:0:0:
335,223,26759,6,0,L|335:105,1,102.000001945496,2|0,0:0|0:0,0:0:0:0:
281,65,27209,2,0,P|326:43|389:68,1,102.000001945496,2|0,0:0|0:0,0:0:0:0:
416,125,27659,1,2,0:0:0:0:
416,125,27809,1,0,0:0:0:0:
335,223,27959,6,0,L|217:223,1,102.000001945496,2|0,0:0|0:0,0:0:0:0:
182,164,28409,2,0,P|156:236|174:275,1,102.000001945496,2|0,0:0|0:0,0:0:0:0:
230,302,28859,1,2,0:0:0:0:
230,302,29009,1,0,0:0:0:0:
335,223,29159,6,0,L|335:121,1,102.000001945496,4|0,0:0|0:0,0:0:0:0:
410,106,29609,2,0,L|410:207,1,102.000001945496,2|0,0:0|0:0,0:0:0:0:
192,277,30209,1,0,0:0:0:0:
192,277,30359,6,0,P|134:293|89:267,1,102.000001945496,2|0,0:0|0:0,0:0:0:0:
52,214,30809,2,0,P|110:198|155:224,1,102.000001945496,2|0,0:0|0:0,0:0:0:0:
202,163,31259,2,0,P|184:116|189:97,1,51.0000009727478,2|0,0:0|0:0,0:0:0:0:
260,114,31559,6,0,L|384:116,1,102.000001945496,2|0,0:0|0:0,0:0:0:0:
419,66,32009,1,0,0:0:0:0:
419,66,32159,2,0,P|437:113|417:173,1,102.000001945496,2|0,0:0|0:0,0:0:0:0:
359,201,32609,1,0,0:0:0:0:
359,201,32759,6,0,P|341:247|352:296,1,102.000001945496,2|0,0:0|0:0,0:0:0:0:
397,359,33209,2,0,P|350:341|301:352,1,102.000001945496,2|0,0:0|0:0,0:0:0:0:
218,293,33659,2,0,P|252:287|278:263,1,51.0000009727478,2|0,0:0|0:0,0:0:0:0:
220,216,33959,6,0,L|118:214,1,102.000001945496,2|0,0:0|0:0,0:0:0:0:
106,137,34409,2,0,L|208:139,1,102.000001945496,2|0,0:0|0:0,0:0:0:0:
352,296,35009,1,0,0:0:0:0:
352,296,35159,6,0,P|366:232|348:194,1,102.000001945496,2|0,0:0|0:0,0:0:0:0:
293,151,35609,2,0,P|279:87|297:49,1,102.000001945496,2|0,0:0|0:0,0:0:0:0:
403,101,36059,2,0,L|353:102,1,51.0000009727478,2|0,0:0|0:0,0:0:0:0:
190,54,36359,6,0,L|302:54,1,102.000001945496,2|0,0:0|0:0,0:0:0:0:
293,151,36809,2,0,L|191:150,1,102.000001945496,2|0,0:0|0:0,0:0:0:0:
138,233,37259,2,0,L|76:232,1,51.0000009727478,2|0,0:0|0:0,0:0:0:0:
226,254,37559,6,0,L|348:253,1,102.000001945496,4|8,0:0|0:0,0:0:0:0:
284,335,38009,2,0,L|161:336,1,102.000001945496,8|8,0:0|0:3,0:0:0:0:
90,339,38459,1,4,3:0:0:0:
90,339,38759,6,0,P|71:281|100:219,2,113.999996955872,4|8|2,0:0|0:0|0:0,0:0:0:0:
160,289,39509,1,0,0:0:0:0:
222,203,39659,2,0,L|166:203,1,56.9999984779358,8|0,0:0|0:0,0:0:0:0:
160,289,39959,6,0,L|287:289,1,113.999996955872,2|8,0:0|0:0,0:0:0:0:
348,330,40409,2,0,P|354:270|313:215,1,113.999996955872,2|2,0:0|0:0,0:0:0:0:
243,204,40859,2,0,L|174:204,1,56.9999984779358,8|2,0:0|0:0,0:0:0:0:
77,154,41159,6,0,P|66:87|82:39,1,113.999996955872,2|8,0:0|0:0,0:0:0:0:
163,26,41609,2,0,L|285:26,1,113.999996955872,8|2,0:0|0:0,0:0:0:0:
251,107,42059,2,0,L|176:108,1,56.9999984779358,8|0,0:0|0:0,0:0:0:0:
277,26,42359,6,0,P|328:70|329:130,1,113.999996955872,2|8,0:0|0:0,0:0:0:0:
286,184,42809,2,0,B|323:196|323:196|417:190,1,113.999996955872,8|0,0:0|0:0,0:0:0:0:
477,104,43259,2,0,L|421:108,1,56.9999984779358,8|0,0:0|0:0,0:0:0:0:
286,184,43559,6,0,P|274:236|307:304,1,113.999996955872,2|8,0:0|0:0,0:0:0:0:
292,376,44009,2,0,L|364:373,1,56.9999984779358,2|0,0:0|0:0,0:0:0:0:
294,291,44309,2,0,L|237:293,1,56.9999984779358,2|8,0:0|0:0,0:0:0:0:
151,301,44609,1,0,0:0:0:0:
172,187,44759,6,0,L|285:183,1,113.999996955872,2|8,0:0|0:0,0:0:0:0:
363,142,45209,2,0,L|366:199,1,56.9999984779358,2|0,0:0|0:0,0:0:0:0:
371,284,45509,1,2,0:0:0:0:
451,190,45659,2,0,L|448:133,1,56.9999984779358,8|0,0:0|0:0,0:0:0:0:
285,183,45959,6,0,L|290:313,1,113.999996955872,2|8,0:0|0:0,0:0:0:0:
345,379,46409,2,0,L|284:377,1,56.9999984779358,2|0,0:0|0:0,0:0:0:0:
202,372,46709,1,2,0:0:0:0:
289,296,46859,2,0,L|345:297,1,56.9999984779358,8|0,0:0|0:0,0:0:0:0:
285,183,47159,6,0,P|225:173|173:203,1,113.999996955872,2|8,0:0|0:0,0:0:0:0:
150,277,47609,2,0,L|22:269,1,113.999996955872,8|2,0:0|0:0,0:0:0:0:
100,362,48059,2,0,L|168:366,1,56.9999984779358,8|2,0:0|0:0,0:0:0:0:
282,332,48359,6,0,P|287:304|283:275,1,56.9999984779358,6|0,0:0|0:0,0:0:0:0:
260,190,48659,2,0,P|257:161|263:134,1,56.9999984779358,8|0,0:0|0:0,0:0:0:0:
374,194,48959,2,0,L|261:191,1,113.999996955872,2|8,0:0|0:0,0:0:0:0:
283,275,49409,1,2,0:0:0:0:
373,250,49559,6,0,L|374:172,1,56.9999984779358,2|0,0:0|0:0,0:0:0:0:
457,115,49859,2,0,L|456:171,1,56.9999984779358,8|0,0:0|0:0,0:0:0:0:
367,102,50159,2,0,L|253:98,1,113.999996955872,2|8,0:0|0:0,0:0:0:0:
211,174,50609,1,2,0:0:0:0:
140,263,50759,6,0,P|192:282|249:278,1,113.999996955872,2|8,0:0|0:0,0:0:0:0:
211,174,51209,2,0,P|146:153|97:160,1,113.999996955872,8|2,0:0|0:0,0:0:0:0:
27,245,51659,1,8,0:0:0:0:
27,245,51809,1,0,0:0:0:0:
82,344,51959,6,0,P|136:359|209:346,1,113.999996955872,2|8,0:0|0:0,0:0:0:0:
300,315,52409,1,8,0:0:0:0:
300,315,52559,2,0,L|298:258,1,56.9999984779358,2|2,0:0|0:0,0:0:0:0:
391,192,52859,2,0,L|392:248,1,56.9999984779358,8|2,0:0|0:0,0:0:0:0:
479,174,53159,6,0,P|463:132|381:104,1,113.999996955872,4|8,0:0|0:0,0:0:0:0:
324,135,53609,2,0,B|288:148|288:148|197:143,1,113.999996955872,2|2,0:0|0:0,0:0:0:0:
189,54,54059,2,0,L|255:56,1,56.9999984779358,8|0,0:0|0:0,0:0:0:0:
107,96,54359,6,0,P|94:139|116:222,1,113.999996955872,2|8,0:0|0:0,0:0:0:0:
180,259,54809,2,0,L|319:267,1,113.999996955872,2|2,0:0|0:0,0:0:0:0:
406,287,55259,2,0,L|409:358,1,56.9999984779358,8|0,0:0|0:0,0:0:0:0:
299,379,55559,6,0,L|293:265,1,113.999996955872,2|8,0:0|0:0,0:0:0:0:
340,187,56009,1,0,0:0:0:0:
397,123,56159,2,0,P|344:101|275:130,1,113.999996955872,2|8,0:0|0:0,0:0:0:0:
340,187,56609,1,2,0:0:0:0:
459,188,56759,6,0,P|482:141|460:65,1,113.999996955872,2|8,0:0|0:0,0:0:0:0:
397,123,57209,1,2,0:0:0:0:
397,250,57359,2,0,P|431:269|505:266,1,113.999996955872,2|8,0:0|0:0,0:0:0:0:
459,188,57809,1,2,0:0:0:0:
340,187,57959,6,0,L|267:186,2,56.9999984779358,4|2|8,0:0|0:0|0:0,0:0:0:0:
397,123,58409,2,0,P|408:73|377:6,1,113.999996955872,2|2,0:0|0:0,0:0:0:0:
236,45,58859,1,8,0:0:0:0:
320,77,59009,1,2,0:0:0:0:
320,77,59459,6,0,L|449:78,2,113.999996955872,0|0|0,0:0|0:0|0:0,0:0:0:0:
97,166,60359,6,0,P|86:208|105:312,1,138.000002632141,4|8,0:0|0:0,0:0:0:0:
186,356,60809,2,0,L|259:354,1,69.0000013160706,2|0,0:0|0:0,0:0:0:0:
261,250,61109,2,0,L|192:251,1,69.0000013160706,2|8,0:0|0:0,0:0:0:0:
266,146,61409,6,0,P|325:163|365:233,1,138.000002632141,2|2,0:0|0:0,0:0:0:0:
424,311,61859,2,0,P|449:287|463:256,1,69.0000013160706,8|2,0:0|0:0,0:0:0:0:
402,169,62159,2,0,P|377:193|364:225,1,69.0000013160706,2|2,0:0|0:0,0:0:0:0:
506,166,62459,1,8,0:0:0:0:
455,75,62609,6,0,B|417:59|417:59|297:68,1,138.000002632141,2|2,0:0|0:0,0:0:0:0:
245,138,63059,1,8,0:0:0:0:
168,206,63209,2,0,P|138:135|170:66,1,138.000002632141,2|2,0:0|0:0,0:0:0:0:
245,138,63659,1,8,0:0:0:0:
300,225,63809,6,0,B|320:269|320:269|307:377,1,138.000002632141,2|2,0:0|0:0,0:0:0:0:
222,295,64259,1,8,0:0:0:0:
168,206,64409,2,0,B|148:162|148:162|161:54,1,138.000002632141,2|2,0:0|0:0,0:0:0:0:
271,64,64859,2,0,L|364:57,1,69.0000013160706,8|0,0:0|0:0,0:0:0:0:
305,196,65159,6,0,L|139:208,1,138.000002632141,4|8,0:0|0:0,0:0:0:0:
101,285,65609,2,0,P|68:230|95:140,1,138.000002632141,2|2,0:0|0:0,0:0:0:0:
164,98,66059,1,8,0:0:0:0:
260,61,66209,6,0,L|397:51,1,138.000002632141,2|2,0:0|0:0,0:0:0:0:
365,149,66659,2,0,L|282:154,1,69.0000013160706,8|0,0:0|0:0,0:0:0:0:
436,295,66959,2,0,L|438:218,1,69.0000013160706,2|0,0:0|0:0,0:0:0:0:
350,238,67259,1,8,0:0:0:0:
379,370,67409,6,0,P|441:387|514:347,1,138.000002632141,2|2,0:0|0:0,0:0:0:0:
437,226,67859,2,0,L|436:295,1,69.0000013160706,8|0,0:0|0:0,0:0:0:0:
351,169,68159,2,0,L|350:238,1,69.0000013160706,2|0,0:0|0:0,0:0:0:0:
265,112,68459,2,0,L|263:180,1,69.0000013160706,8|2,0:0|0:0,0:0:0:0:
346,71,68759,6,0,P|317:33|223:26,1,138.000002632141,2|8,0:0|0:0,0:0:0:0:
168,104,69209,1,0,0:0:0:0:
168,104,69359,2,0,L|84:101,1,69.0000013160706,10|0,0:0|0:0,0:0:0:0:
25,174,69659,2,0,L|-37:172,2,34.5000006580353,8|8|8,0:0|0:0|0:0,0:0:0:0:
83,260,69959,6,0,L|151:262,1,69.0000013160706,4|0,0:0|0:0,0:0:0:0:
230,330,70259,1,8,0:0:0:0:
230,330,70409,2,0,L|298:332,1,69.0000013160706,2|0,0:0|0:0,0:0:0:0:
310,229,70709,2,0,L|242:227,1,69.0000013160706,2|8,0:0|0:0,0:0:0:0:
207,93,71009,6,0,L|370:97,1,138.000002632141,2|2,0:0|0:0,0:0:0:0:
443,127,71459,2,0,P|444:63|435:43,1,69.0000013160706,8|0,0:0|0:0,0:0:0:0:
344,96,71759,2,0,P|343:160|352:180,1,69.0000013160706,2|2,0:0|0:0,0:0:0:0:
424,230,72059,1,8,0:0:0:0:
344,164,72209,6,0,L|192:158,1,138.000002632141,2|2,0:0|0:0,0:0:0:0:
174,59,72659,1,8,0:0:0:0:
174,59,72809,2,0,L|311:64,1,138.000002632141,2|2,0:0|0:0,0:0:0:0:
344,164,73259,1,8,0:0:0:0:
296,255,73409,6,0,L|147:248,1,138.000002632141,2|2,0:0|0:0,0:0:0:0:
173,341,73859,1,8,0:0:0:0:
173,341,74009,2,0,L|241:344,1,69.0000013160706,2|0,0:0|0:0,0:0:0:0:
341,373,74309,1,2,0:0:0:0:
434,329,74459,2,0,P|439:285|421:243,1,69.0000013160706,8|0,0:0|0:0,0:0:0:0:
303,213,74759,6,0,L|165:205,1,138.000002632141,4|8,0:0|0:0,0:0:0:0:
70,162,75209,2,0,P|61:87|91:20,1,138.000002632141,2|2,0:0|0:0,0:0:0:0:
185,10,75659,1,8,0:0:0:0:
185,10,75809,6,0,L|338:18,1,138.000002632141,2|2,0:0|0:0,0:0:0:0:
411,71,76259,2,0,L|410:139,1,69.0000013160706,8|0,0:0|0:0,0:0:0:0:
338,213,76559,1,2,0:0:0:0:
338,213,76709,2,0,L|269:209,1,69.0000013160706,2|8,0:0|0:0,0:0:0:0:
411,140,77009,6,0,P|441:219|410:291,1,138.000002632141,2|2,0:0|0:0,0:0:0:0:
334,313,77459,2,0,L|265:309,1,69.0000013160706,8|0,0:0|0:0,0:0:0:0:
269,209,77759,2,0,L|200:205,1,69.0000013160706,2|0,0:0|0:0,0:0:0:0:
202,103,78059,2,0,L|133:99,1,69.0000013160706,8|2,0:0|0:0,0:0:0:0:
37,198,78359,6,0,L|106:202,1,69.0000013160706,2|2,0:0|0:0,0:0:0:0:
103,303,78659,2,0,L|172:307,1,69.0000013160706,8|8,0:0|0:0,0:0:0:0:
171,306,78884,1,8,0:0:0:0:
171,306,78959,1,8,0:0:0:0:
266,250,79109,1,8,0:0:0:0:
263,139,79259,2,0,L|194:135,1,69.0000013160706,8|8,0:0|0:0,0:0:0:0:
105,201,79559,6,0,P|82:143|112:60,1,138.000002632141,4|8,0:0|0:0,0:0:0:0:
194,25,80009,2,0,L|335:26,1,138.000002632141,2|2,0:0|0:0,0:0:0:0:
422,75,80459,2,0,L|421:143,1,69.0000013160706,8|0,0:0|0:0,0:0:0:0:
390,277,80759,6,0,L|252:276,1,138.000002632141,2|8,0:0|0:0,0:0:0:0:
161,225,81209,2,0,P|231:175|305:186,1,138.000002632141,2|2,0:0|0:0,0:0:0:0:
390,277,81659,2,0,L|391:189,1,69.0000013160706,8|0,0:0|0:0,0:0:0:0:
281,38,81959,6,0,L|279:182,1,138.000002632141,4|8,0:0|0:0,0:0:0:0:
480,176,82409,2,0,P|427:117|360:116,1,138.000002632141,2|2,0:0|0:0,0:0:0:0:
390,277,82859,2,0,L|390:208,1,69.0000013160706,8|0,0:0|0:0,0:0:0:0:
374,44,83159,6,0,L|373:112,1,69.0000013160706,4|0,0:0|0:0,0:0:0:0:
279,106,83459,2,0,L|279:175,1,69.0000013160706,2|0,0:0|0:0,0:0:0:0:
187,285,83759,1,8,0:0:0:0:
186,154,83909,1,8,0:0:0:0:
186,154,84359,5,4,0:0:0:0:
115,217,84510,2,0,L|52:214,1,62.9999980773926,0|8,0:0|0:0,0:0:0:0:
279,175,84809,2,0,L|279:49,1,125.999996154785,2|2,0:0|0:0,0:0:0:0:
186,154,85259,1,8,0:0:0:0:
280,272,85409,6,0,L|413:272,1,125.999996154785,2|2,0:0|0:0,0:0:0:0:
481,171,85859,1,8,0:0:0:0:
406,272,86009,2,0,B|411:361|411:361|444:386,1,125.999996154785,2|2,0:0|0:0,0:0:0:0:
512,272,86459,1,8,0:0:0:0:
395,176,86609,6,0,L|269:176,1,125.999996154785,2|2,0:0|0:0,0:0:0:0:
167,250,87059,1,8,0:0:0:0:
58,185,87209,2,0,P|46:126|66:59,1,125.999996154785,2|2,0:0|0:0,0:0:0:0:
179,13,87659,2,0,L|262:14,1,62.9999980773926,8|0,0:0|0:0,0:0:0:0:
379,79,87959,6,0,L|316:78,2,62.9999980773926,2|2|12,0:0|0:0|0:0,0:0:0:0:
479,156,88409,2,0,P|498:209|487:287,1,125.999996154785,2|8,0:0|0:0,0:0:0:0:
301,298,88859,1,8,0:0:0:0:
389,227,89009,1,8,0:0:0:0:
402,339,89159,5,2,0:0:0:0:
