osu file format v14

[General]
AudioFilename: audio.mp3
AudioLeadIn: 0
PreviewTime: 60106
Countdown: 0
SampleSet: Soft
StackLeniency: 0.7
Mode: 3
LetterboxInBreaks: 0
SpecialStyle: 0
WidescreenStoryboard: 1

[Editor]
Bookmarks: 104129,210555,323992
DistanceSpacing: 0.6
BeatDivisor: 4
GridSize: 4
TimelineZoom: 1.6

[Metadata]
Title:Peace Sign (TV edit.)
TitleUnicode:ピースサイン (TV edit.)
Artist:Kenshi Yonezu
ArtistUnicode:米津玄師
Creator:Eldergleam
Version:Normal
Source:僕のヒーローアカデミア 第2期
Tags:izuku midoriya momo yaoyorozu tsuyu atsui bakugo katsuki all might tenya iida ochako uraraka season 2 spring 2017 Draftnell
BeatmapID:1256725
BeatmapSetID:574119

[Difficulty]
HPDrainRate:7
CircleSize:4
OverallDifficulty:7
ApproachRate:5
SliderMultiplier:1.4
SliderTickRate:1

[Events]
//Background and Video events
0,0,"817877.png",0,0
Video,384,"bnha2+op.avi"
//Break Periods
//Storyboard Layer 0 (Background)
//Storyboard Layer 1 (Fail)
//Storyboard Layer 2 (Pass)
//Storyboard Layer 3 (Foreground)
//Storyboard Sound Samples
Sample,10606,0,"LR_Drum Kick Low.wav",70
Sample,22456,0,"sel_l.wav",70
Sample,22606,0,"LR_Drum Kick Low.wav",70
Sample,24556,0,"sel_l.wav",70
Sample,24856,0,"sel_l.wav",70
Sample,25006,0,"hat light.wav",100
Sample,27256,0,"sel_l.wav",70
Sample,27406,0,"hat light.wav",100
Sample,29356,0,"sel_l.wav",70
Sample,29656,0,"sel_l.wav",70
Sample,32056,0,"sel_l.wav",70
Sample,32206,0,"hat light.wav",100
Sample,34156,0,"sel_l.wav",70
Sample,34456,0,"sel_l.wav",70
Sample,34606,0,"hat light.wav",100
Sample,36856,0,"sel_l.wav",70
Sample,37006,0,"hat light.wav",100
Sample,39106,0,"LR_Drum Kick Low.wav",70
Sample,59056,0,"cymbal light.wav",70
Sample,59356,0,"cymbal light.wav",70
Sample,59656,0,"cymbal light.wav",70
Sample,61306,0,"cymbal light.wav",70
Sample,62206,0,"LR_Drum Kick Low.wav",70
Sample,63406,0,"LR_Drum Kick Low.wav",70
Sample,64606,0,"LR_Drum Kick Low.wav",70
Sample,67006,0,"LR_Drum Kick Low.wav",70
Sample,68206,0,"LR_Drum Kick Low.wav",70
Sample,69406,0,"LR_Drum Finish.wav",100
Sample,70906,0,"cymbal light.wav",70
Sample,71806,0,"cymbal light.wav",70
Sample,72106,0,"cymbal light.wav",70
Sample,73006,0,"cymbal light.wav",70
Sample,74206,0,"cymbal light.wav",70
Sample,75706,0,"cymbal light.wav",70
Sample,76606,0,"cymbal light.wav",70
Sample,77806,0,"cymbal light.wav",70

[TimingPoints]
1006,300,4,2,1,45,1,0
61006,-100,4,2,1,45,0,1
79906,-100,4,2,1,45,0,0

[HitObjects]
64,192,1006,5,0,0:0:0:40:LR_Drum Hit Beat Long.wav
320,192,1006,1,0,0:0:0:70:LR_Drum Finish.wav
192,192,1456,1,0,0:0:0:40:LR_Drum Hit Beat Long.wav
320,192,1906,1,0,0:0:0:40:LR_Drum Hit Beat Long.wav
448,192,1906,1,0,0:0:0:0:
192,192,2206,1,0,0:0:0:40:LR_Drum Hit Beat Long.wav
64,192,2206,1,0,0:0:0:0:
64,192,2506,1,0,0:0:0:70:LR_Drum Kick Low.wav
320,192,2656,1,0,0:0:0:40:LR_Drum Hit Beat Long.wav
448,192,2656,1,0,0:0:0:0:
192,192,2956,1,0,0:0:0:0:
64,192,3106,1,0,0:0:0:40:LR_Drum Hit Beat Long.wav
320,192,3106,1,0,0:0:0:0:
448,192,3406,1,0,0:0:0:40:LR_Drum Hit Beat Long.wav
192,192,3406,1,0,0:0:0:0:
320,192,3706,1,0,0:0:0:70:LR_Drum Kick Low.wav
192,192,3856,1,0,0:0:0:40:LR_Drum Hit Beat Long.wav
64,192,3856,1,0,0:0:0:0:
192,192,4156,1,0,0:0:0:0:
320,192,4306,1,0,0:0:0:40:LR_Drum Hit Beat Long.wav
448,192,4306,1,0,0:0:0:0:
192,192,4606,1,0,0:0:0:40:LR_Drum Hit Beat Long.wav
64,192,4606,1,0,0:0:0:0:
320,192,4906,1,0,0:0:0:70:LR_Drum Kick Low.wav
192,192,5056,1,0,0:0:0:40:LR_Drum Hit Beat Long.wav
448,192,5056,1,0,0:0:0:0:
64,192,5206,1,0,0:0:0:70:LR_Drum Kick Low.wav
192,192,5506,1,0,0:0:0:40:LR_Drum Hit Beat Long.wav
320,192,5806,1,0,0:0:0:40:LR_Drum Hit Beat Long.wav
448,192,5806,1,0,0:0:0:70:LR_Drum Finish.wav
64,192,6106,1,0,0:0:0:0:
192,192,6256,1,0,0:0:0:40:LR_Drum Hit Beat Long.wav
448,192,6256,1,0,0:0:0:0:
320,192,6556,1,0,0:0:0:0:
448,192,6706,1,0,0:0:0:40:LR_Drum Hit Beat Long.wav
192,192,6706,1,0,0:0:0:0:
320,192,7006,1,0,0:0:0:40:LR_Drum Hit Beat Long.wav
64,192,7006,1,0,0:0:0:0:
448,192,7306,1,0,0:0:0:70:LR_Drum Kick Low.wav
192,192,7456,1,0,0:0:0:40:LR_Drum Hit Beat Long.wav
64,192,7456,1,0,0:0:0:0:
320,192,7756,1,0,0:0:0:0:
192,192,7906,1,0,0:0:0:40:LR_Drum Hit Beat Long.wav
448,192,7906,1,0,0:0:0:0:
320,192,8206,1,0,0:0:0:40:LR_Drum Hit Beat Long.wav
64,192,8206,1,0,0:0:0:0:
64,192,8506,1,0,0:0:0:70:LR_Drum Kick Low.wav
192,192,8656,1,0,0:0:0:40:LR_Drum Hit Beat Long.wav
448,192,8656,1,0,0:0:0:0:
64,192,8956,1,0,0:0:0:0:
320,192,9106,1,0,0:0:0:40:LR_Drum Hit Beat Long.wav
448,192,9106,1,0,0:0:0:0:
192,192,9406,1,0,0:0:0:40:LR_Drum Hit Beat Long.wav
64,192,9406,1,0,0:0:0:0:
320,192,9556,1,0,0:0:0:0:
448,192,9706,1,0,0:0:0:70:LR_Drum Kick Low.wav
64,192,9856,128,0,10606:0:0:0:40:LR_Drum Hit Beat Long.wav
192,192,9856,1,0,0:0:0:0:
320,192,10606,1,0,0:0:0:70:LR_Drum Finish.wav
192,192,10906,1,0,0:0:0:70:cymbal light.wav
448,192,10906,1,0,0:0:0:70:LR_Drum Rpd Fast .wav
320,192,11056,1,0,0:0:0:70:LR_Drum Kick Low.wav
192,192,11356,1,0,0:0:0:70:LR_Drum Kick Low.wav
64,192,11506,1,0,0:0:0:70:cymbal light.wav
320,192,11506,1,0,0:0:0:70:LR_Drum Rpd Fast .wav
448,192,11656,1,0,0:0:0:70:LR_Drum Kick Low.wav
320,192,11956,1,0,0:0:0:70:LR_Drum Kick Low.wav
64,192,12106,1,0,0:0:0:70:cymbal light.wav
192,192,12106,1,0,0:0:0:70:LR_Drum Rpd Fast .wav
448,192,12256,1,0,0:0:0:70:LR_Drum Kick Low.wav
64,192,12556,1,0,0:0:0:70:LR_Drum Kick Low.wav
192,192,12706,1,0,0:0:0:70:cymbal light.wav
448,192,12706,1,0,0:0:0:70:LR_Drum Rpd Fast .wav
320,192,12856,1,0,0:0:0:0:
64,192,13006,1,0,0:0:0:0:
192,192,13006,1,0,0:0:0:0:
64,192,13306,1,0,0:0:0:70:cymbal light.wav
448,192,13306,1,0,0:0:0:70:LR_Drum Rpd Fast .wav
320,192,13456,1,0,0:0:0:70:LR_Drum Kick Low.wav
448,192,13756,1,0,0:0:0:70:LR_Drum Kick Low.wav
192,192,13906,1,0,0:0:0:70:cymbal light.wav
64,192,13906,1,0,0:0:0:70:LR_Drum Rpd Fast .wav
320,192,14056,1,0,0:0:0:70:LR_Drum Kick Low.wav
192,192,14356,1,0,0:0:0:70:LR_Drum Kick Low.wav
64,192,14506,1,0,0:0:0:70:cymbal light.wav
448,192,14506,1,0,0:0:0:70:LR_Drum Rpd Fast .wav
320,192,14656,1,0,0:0:0:70:LR_Drum Kick Low.wav
192,192,14956,1,0,0:0:0:70:LR_Drum Kick Low.wav
320,192,15106,1,0,0:0:0:70:cymbal light.wav
448,192,15106,1,0,0:0:0:70:LR_Drum Rpd Fast .wav
64,192,15256,1,0,0:0:0:70:LR_Drum Kick Low.wav
192,192,15406,1,0,0:0:0:70:LR_Drum Finish.wav
320,192,15406,1,0,0:0:0:0:
448,192,15706,1,0,0:0:0:70:cymbal light.wav
320,192,15706,1,0,0:0:0:70:LR_Drum Rpd Fast .wav
64,192,15856,1,0,0:0:0:70:LR_Drum Kick Low.wav
192,192,16156,1,0,0:0:0:70:LR_Drum Kick Low.wav
320,192,16306,1,0,0:0:0:70:cymbal light.wav
448,192,16306,1,0,0:0:0:70:LR_Drum Rpd Fast .wav
64,192,16456,1,0,0:0:0:70:LR_Drum Kick Low.wav
320,192,16756,1,0,0:0:0:70:LR_Drum Kick Low.wav
192,192,16906,1,0,0:0:0:70:cymbal light.wav
448,192,16906,1,0,0:0:0:70:LR_Drum Rpd Fast .wav
64,192,17056,1,0,0:0:0:70:LR_Drum Kick Low.wav
320,192,17356,1,0,0:0:0:70:LR_Drum Kick Low.wav
192,192,17506,1,0,0:0:0:70:cymbal light.wav
448,192,17506,1,0,0:0:0:70:LR_Drum Rpd Fast .wav
64,192,17656,1,0,0:0:0:70:LR_Drum Kick Low.wav
320,192,17806,1,0,0:0:0:0:
192,192,18106,1,0,0:0:0:70:cymbal light.wav
64,192,18106,1,0,0:0:0:70:LR_Drum Rpd Fast .wav
320,192,18256,1,0,0:0:0:70:LR_Drum Kick Low.wav
448,192,18556,1,0,0:0:0:70:LR_Drum Kick Low.wav
320,192,18706,1,0,0:0:0:70:cymbal light.wav
192,192,18706,1,0,0:0:0:70:LR_Drum Rpd Fast .wav
64,192,18856,1,0,0:0:0:70:LR_Drum Kick Low.wav
320,192,19156,1,0,0:0:0:70:LR_Drum Kick Low.wav
192,192,19306,1,0,0:0:0:70:LR_Drum Finish.wav
64,192,19306,1,0,0:0:0:0:
448,192,19606,1,0,0:0:0:70:LR_Drum Kick Low.wav
320,192,19756,1,0,0:0:0:70:LR_Drum Kick Low.wav
192,192,19906,1,0,0:0:0:70:LR_Drum Kick Low.wav
64,192,20056,1,0,0:0:0:70:LR_Drum Kick Low.wav
192,192,20206,1,0,0:0:0:70:LR_Drum Rpd Fast .wav
448,192,20206,1,0,0:0:0:100:LR_Drum Finish.wav
320,192,20506,1,0,0:0:0:100:hat light.wav
64,192,20806,1,0,0:0:0:100:hat light.wav
320,192,21106,1,0,0:0:0:100:hat light.wav
448,192,21406,1,0,0:0:0:100:hat light.wav
192,192,21706,1,0,0:0:0:100:hat light.wav
64,192,22006,1,0,0:0:0:100:hat light.wav
320,192,22306,1,0,0:0:0:100:hat light.wav
448,192,22456,1,0,0:0:0:70:LR_Drum Kick Low.wav
192,192,22606,1,0,0:0:0:100:hat light.wav
64,192,22906,1,0,0:0:0:100:hat light.wav
320,192,23206,1,0,0:0:0:100:hat light.wav
192,192,23506,1,0,0:0:0:100:hat light.wav
448,192,23806,1,0,0:0:0:100:hat light.wav
64,192,24106,1,0,0:0:0:100:hat light.wav
448,192,24406,1,0,0:0:0:100:hat light.wav
192,192,24556,1,0,0:0:0:70:LR_Drum Kick Low.wav
320,192,24856,1,0,0:0:0:70:LR_Drum Kick Low.wav
448,192,25006,1,0,0:0:0:70:LR_Drum Kick Low.wav
64,192,25306,1,0,0:0:0:100:hat light.wav
448,192,25606,1,0,0:0:0:100:hat light.wav
192,192,25906,1,0,0:0:0:100:hat light.wav
64,192,26206,1,0,0:0:0:0:
320,192,26506,1,0,0:0:0:100:hat light.wav
448,192,26806,1,0,0:0:0:100:hat light.wav
192,192,27106,1,0,0:0:0:100:hat light.wav
448,192,27256,1,0,0:0:0:70:LR_Drum Kick Low.wav
64,192,27406,1,0,0:0:0:70:LR_Drum Kick Low.wav
320,192,27706,1,0,0:0:0:100:hat light.wav
192,192,28006,1,0,0:0:0:100:hat light.wav
64,192,28306,1,0,0:0:0:100:hat light.wav
320,192,28606,1,0,0:0:0:100:hat light.wav
64,192,28906,1,0,0:0:0:100:hat light.wav
448,192,29056,1,0,0:0:0:70:sel_l.wav
192,192,29356,1,0,0:0:0:70:LR_Drum Kick Low.wav
64,192,29656,1,0,0:0:0:70:LR_Drum Kick Low.wav
320,192,29806,1,0,0:0:0:70:LR_Drum Kick Low.wav
448,192,29806,1,0,0:0:0:100:LR_Drum Finish.wav
64,192,30106,1,0,0:0:0:100:hat light.wav
320,192,30406,1,0,0:0:0:100:hat light.wav
192,192,30706,1,0,0:0:0:100:hat light.wav
448,192,31006,1,0,0:0:0:100:hat light.wav
64,192,31306,1,0,0:0:0:100:hat light.wav
320,192,31606,1,0,0:0:0:100:hat light.wav
192,192,31906,1,0,0:0:0:100:hat light.wav
448,192,32056,1,0,0:0:0:70:LR_Drum Kick Low.wav
320,192,32206,1,0,0:0:0:70:LR_Drum Kick Low.wav
64,192,32506,1,0,0:0:0:100:hat light.wav
320,192,32806,1,0,0:0:0:100:hat light.wav
192,192,33106,1,0,0:0:0:100:hat light.wav
448,192,33406,1,0,0:0:0:100:hat light.wav
64,192,33706,1,0,0:0:0:100:hat light.wav
320,192,33856,1,0,0:0:0:70:sel_l.wav
192,192,34156,1,0,0:0:0:70:LR_Drum Kick Low.wav
64,192,34456,1,0,0:0:0:70:LR_Drum Kick Low.wav
448,192,34606,1,0,0:0:0:70:LR_Drum Kick Low.wav
192,192,34906,1,0,0:0:0:100:hat light.wav
320,192,35206,1,0,0:0:0:100:hat light.wav
64,192,35506,1,0,0:0:0:100:hat light.wav
320,192,35806,1,0,0:0:0:100:hat light.wav
192,192,36106,1,0,0:0:0:100:hat light.wav
448,192,36406,1,0,0:0:0:100:hat light.wav
64,192,36706,1,0,0:0:0:100:hat light.wav
448,192,36856,1,0,0:0:0:70:LR_Drum Kick Low.wav
192,192,37006,1,0,0:0:0:70:LR_Drum Kick Low.wav
320,192,37306,1,0,0:0:0:100:hat light.wav
64,192,37606,1,0,0:0:0:100:hat light.wav
448,192,37906,1,0,0:0:0:100:hat light.wav
192,192,38206,1,0,0:0:0:100:LR_Drum Finish.wav
320,192,38206,1,0,0:0:0:0:
64,192,38506,1,0,0:0:0:100:LR_Drum Rpd Fast .wav
192,192,38506,1,0,0:0:0:0:
448,192,38656,1,0,0:0:0:100:LR_Drum Rpd Fast .wav
320,192,38656,1,0,0:0:0:0:
192,192,38956,1,0,0:0:0:100:LR_Tom Hit.wav
448,192,39106,1,0,0:0:0:70:sel_l.wav
320,192,39256,1,0,0:0:0:100:hat light.wav
192,192,39406,1,0,0:0:0:100:LR_Drum Finish.wav
64,192,39406,1,0,0:0:0:70:LR_Drum Kick Low.wav
320,192,39706,1,0,0:0:0:70:LR_Drum Rpd Fast .wav
192,192,39856,1,0,0:0:0:70:LR_Drum Kick Low.wav
320,192,40306,1,0,0:0:0:70:LR_Drum Rpd Fast .wav
448,192,40306,1,0,0:0:0:0:
192,192,40606,1,0,0:0:0:70:LR_Drum Kick Low.wav
64,192,40906,1,0,0:0:0:70:LR_Drum Rpd Fast .wav
320,192,40906,1,0,0:0:0:0:
448,192,41056,1,0,0:0:0:70:LR_Drum Kick Low.wav
320,192,41356,1,0,0:0:0:70:LR_Drum Kick Low.wav
64,192,41506,1,0,0:0:0:70:LR_Drum Rpd Fast .wav
448,192,41506,1,0,0:0:0:0:
192,192,41806,1,0,0:0:0:70:LR_Drum Kick Low.wav
320,192,42106,1,0,0:0:0:70:LR_Drum Rpd Fast .wav
448,192,42106,1,0,0:0:0:0:
192,192,42256,1,0,0:0:0:70:LR_Drum Rpd Fast .wav
64,192,42256,1,0,0:0:0:0:
192,192,42556,1,0,0:0:0:70:LR_Drum Kick Low.wav
64,192,42556,1,0,0:0:0:0:
320,192,42706,1,0,0:0:0:70:LR_Drum Rpd Fast .wav
448,192,42706,1,0,0:0:0:0:
448,192,43006,1,0,0:0:0:70:LR_Drum Kick Low.wav
192,192,43306,1,0,0:0:0:70:LR_Drum Rpd Fast .wav
64,192,43306,1,0,0:0:0:0:
320,192,43456,1,0,0:0:0:70:LR_Drum Rpd Fast .wav
448,192,43456,1,0,0:0:0:0:
448,192,43756,1,0,0:0:0:70:LR_Drum Rpd Fast .wav
320,192,43756,1,0,0:0:0:0:
64,192,43906,1,0,0:0:0:70:LR_Drum Kick Low.wav
192,192,43906,1,0,0:0:0:0:
320,192,44056,1,0,0:0:0:70:LR_Drum Kick Low.wav
448,192,44206,1,0,0:0:0:70:LR_Drum Kick Low.wav
192,192,44506,1,0,0:0:0:70:LR_Drum Rpd Fast .wav
64,192,44506,1,0,0:0:0:0:
320,192,44656,1,0,0:0:0:70:LR_Drum Kick Low.wav
192,192,44956,1,0,0:0:0:0:
320,192,45106,1,0,0:0:0:70:LR_Drum Rpd Fast .wav
448,192,45106,1,0,0:0:0:0:
64,192,45406,1,0,0:0:0:70:LR_Drum Kick Low.wav
320,192,45706,1,0,0:0:0:70:LR_Drum Rpd Fast .wav
448,192,45706,1,0,0:0:0:0:
192,192,45856,1,0,0:0:0:70:LR_Drum Kick Low.wav
64,192,45856,1,0,0:0:0:0:
320,192,46156,1,0,0:0:0:70:LR_Drum Kick Low.wav
192,192,46306,1,0,0:0:0:70:LR_Drum Rpd Fast .wav
448,192,46306,1,0,0:0:0:0:
64,192,46606,1,0,0:0:0:70:LR_Drum Kick Low.wav
320,192,46906,1,0,0:0:0:70:LR_Drum Rpd Fast .wav
448,192,46906,1,0,0:0:0:0:
192,192,47056,1,0,0:0:0:70:LR_Drum Rpd Fast .wav
64,192,47056,1,0,0:0:0:0:
448,192,47356,1,0,0:0:0:70:LR_Drum Kick Low.wav
192,192,47506,1,0,0:0:0:70:LR_Drum Rpd Fast .wav
64,192,47506,1,0,0:0:0:0:
320,192,47806,1,0,0:0:0:70:LR_Drum Kick Low.wav
192,192,48106,1,0,0:0:0:70:LR_Drum Rpd Fast .wav
64,192,48106,1,0,0:0:0:0:
320,192,48256,1,0,0:0:0:70:LR_Drum Rpd Fast .wav
448,192,48256,1,0,0:0:0:0:
192,192,48556,1,0,0:0:0:70:LR_Drum Kick Low.wav
64,192,48706,1,0,0:0:0:70:LR_Drum Rpd Fast .wav
448,192,48706,1,0,0:0:0:0:
320,192,48856,1,0,0:0:0:70:LR_Drum Kick Low.wav
192,192,49006,1,0,0:0:0:70:LR_Drum Kick Low.wav
448,192,49006,1,0,0:0:0:70:LR_Drum Finish.wav
64,192,49306,1,0,0:0:0:70:LR_Drum Rpd Fast .wav
448,192,49306,1,0,0:0:0:0:
320,192,49456,1,0,0:0:0:70:LR_Drum Kick Low.wav
192,192,49906,1,0,0:0:0:70:LR_Drum Rpd Fast .wav
448,192,49906,1,0,0:0:0:0:
320,192,50206,1,0,0:0:0:70:LR_Drum Kick Low.wav
64,192,50506,1,0,0:0:0:70:LR_Drum Rpd Fast .wav
448,192,50506,1,0,0:0:0:0:
320,192,50656,1,0,0:0:0:70:LR_Drum Kick Low.wav
64,192,50956,1,0,0:0:0:70:LR_Drum Kick Low.wav
320,192,51106,1,0,0:0:0:70:LR_Drum Rpd Fast .wav
448,192,51106,1,0,0:0:0:0:
192,192,51406,1,0,0:0:0:70:LR_Drum Kick Low.wav
64,192,51706,1,0,0:0:0:70:LR_Drum Rpd Fast .wav
320,192,51706,1,0,0:0:0:0:
192,192,51856,1,0,0:0:0:70:LR_Drum Rpd Fast .wav
448,192,51856,1,0,0:0:0:0:
320,192,52156,1,0,0:0:0:70:LR_Drum Kick Low.wav
64,192,52306,1,0,0:0:0:70:LR_Drum Rpd Fast .wav
192,192,52306,1,0,0:0:0:0:
320,192,52606,1,0,0:0:0:70:LR_Drum Kick Low.wav
64,192,52906,1,0,0:0:0:70:LR_Drum Rpd Fast .wav
192,192,52906,1,0,0:0:0:0:
320,192,53056,1,0,0:0:0:70:LR_Drum Rpd Fast .wav
448,192,53056,1,0,0:0:0:0:
320,192,53356,1,0,0:0:0:70:LR_Drum Kick Low.wav
64,192,53506,1,0,0:0:0:70:LR_Drum Rpd Fast .wav
192,192,53506,1,0,0:0:0:0:
320,192,53656,1,0,0:0:0:70:LR_Drum Kick Low.wav
64,192,53806,1,0,0:0:0:70:LR_Drum Kick Low.wav
448,192,53806,1,0,0:0:0:70:LR_Drum Finish.wav
192,192,54106,1,0,0:0:0:70:LR_Drum Rpd Fast .wav
320,192,54106,1,0,0:0:0:0:
448,192,54256,1,0,0:0:0:70:LR_Drum Kick Low.wav
192,192,54706,1,0,0:0:0:70:LR_Drum Rpd Fast .wav
448,192,54706,1,0,0:0:0:0:
320,192,55006,1,0,0:0:0:70:LR_Drum Kick Low.wav
64,192,55306,1,0,0:0:0:70:LR_Drum Rpd Fast .wav
192,192,55306,1,0,0:0:0:0:
320,192,55456,1,0,0:0:0:70:LR_Drum Kick Low.wav
448,192,55756,1,0,0:0:0:70:LR_Drum Kick Low.wav
192,192,55906,1,0,0:0:0:70:LR_Drum Rpd Fast .wav
64,192,55906,1,0,0:0:0:0:
320,192,56206,1,0,0:0:0:70:LR_Drum Kick Low.wav
192,192,56506,1,0,0:0:0:70:LR_Drum Rpd Fast .wav
448,192,56506,1,0,0:0:0:0:
64,192,56656,1,0,0:0:0:70:LR_Drum Kick Low.wav
192,192,57106,1,0,0:0:0:70:LR_Drum Rpd Fast .wav
320,192,57106,1,0,0:0:0:70:LR_Drum Kick Low.wav
448,192,57406,1,0,0:0:0:0:
64,192,57706,1,0,0:0:0:70:LR_Drum Rpd Fast .wav
192,192,57706,1,0,0:0:0:0:
320,192,57856,1,0,0:0:0:70:LR_Drum Kick Low.wav
192,192,58156,1,0,0:0:0:70:LR_Drum Kick Low.wav
64,192,58306,1,0,0:0:0:70:LR_Drum Rpd Fast .wav
320,192,58306,1,0,0:0:0:0:
192,192,58606,1,0,0:0:0:70:LR_Drum Rpd Fast .wav
320,192,58906,1,0,0:0:0:70:LR_Drum Kick Low.wav
448,192,58906,1,0,0:0:0:0:
192,192,59056,128,0,59206:0:0:0:70:LR_Drum Rpd Fast .wav
64,192,59356,128,0,59506:0:0:0:70:LR_Drum Rpd Fast .wav
320,192,59506,1,0,0:0:0:0:
448,192,59656,128,0,59806:0:0:0:70:LR_Drum Rpd Fast .wav
64,192,61006,1,0,0:0:0:70:LR_Drum Kick Low.wav
448,192,61006,1,0,0:0:0:0:
320,192,61306,1,0,0:0:0:70:LR_Drum Rpd Fast .wav
448,192,61306,1,0,0:0:0:0:
64,192,61456,1,0,0:0:0:70:LR_Drum Kick Low.wav
320,192,61756,1,0,0:0:0:70:LR_Drum Kick Low.wav
192,192,61906,1,0,0:0:0:70:LR_Drum Rpd Fast .wav
448,192,61906,1,0,0:0:0:70:cymbal light.wav
64,192,62206,1,0,0:0:0:70:cymbal light.wav
320,192,62506,1,0,0:0:0:70:cymbal light.wav
448,192,62506,1,0,0:0:0:70:LR_Drum Rpd Fast .wav
192,192,62656,1,0,0:0:0:70:LR_Drum Kick Low.wav
64,192,62956,1,0,0:0:0:70:LR_Drum Kick Low.wav
320,192,63106,1,0,0:0:0:70:cymbal light.wav
448,192,63106,1,0,0:0:0:70:LR_Drum Rpd Fast .wav
192,192,63406,1,0,0:0:0:70:cymbal light.wav
64,192,63706,1,0,0:0:0:70:cymbal light.wav
320,192,63706,1,0,0:0:0:70:LR_Drum Rpd Fast .wav
448,192,63856,1,0,0:0:0:70:LR_Drum Kick Low.wav
192,192,64156,1,0,0:0:0:70:LR_Drum Kick Low.wav
64,192,64306,1,0,0:0:0:70:cymbal light.wav
320,192,64306,1,0,0:0:0:70:LR_Drum Rpd Fast .wav
448,192,64606,1,0,0:0:0:70:cymbal light.wav
192,192,64906,1,0,0:0:0:70:cymbal light.wav
64,192,64906,1,0,0:0:0:70:LR_Drum Rpd Fast .wav
320,192,65056,1,0,0:0:0:70:LR_Drum Kick Low.wav
448,192,65356,1,0,0:0:0:70:LR_Drum Kick Low.wav
320,192,65506,1,0,0:0:0:70:cymbal light.wav
64,192,65506,1,0,0:0:0:70:LR_Drum Rpd Fast .wav
192,192,65806,1,0,0:0:0:70:LR_Drum Finish.wav
448,192,65806,1,0,0:0:0:70:LR_Drum Kick Low.wav
320,192,66106,1,0,0:0:0:70:cymbal light.wav
64,192,66106,1,0,0:0:0:70:LR_Drum Rpd Fast .wav
448,192,66256,1,0,0:0:0:70:LR_Drum Kick Low.wav
192,192,66556,1,0,0:0:0:70:LR_Drum Kick Low.wav
64,192,66706,1,0,0:0:0:70:cymbal light.wav
448,192,66706,1,0,0:0:0:70:LR_Drum Rpd Fast .wav
320,192,67006,1,0,0:0:0:70:cymbal light.wav
192,192,67306,1,0,0:0:0:70:cymbal light.wav
64,192,67306,1,0,0:0:0:70:LR_Drum Rpd Fast .wav
320,192,67456,1,0,0:0:0:70:LR_Drum Kick Low.wav
448,192,67756,1,0,0:0:0:70:LR_Drum Kick Low.wav
320,192,67906,1,0,0:0:0:70:cymbal light.wav
192,192,67906,1,0,0:0:0:70:LR_Drum Rpd Fast .wav
64,192,68206,1,0,0:0:0:70:cymbal light.wav
320,192,68506,1,0,0:0:0:70:cymbal light.wav
448,192,68506,1,0,0:0:0:70:LR_Drum Rpd Fast .wav
192,192,68656,1,0,0:0:0:70:LR_Drum Kick Low.wav
64,192,68956,1,0,0:0:0:70:LR_Drum Kick Low.wav
320,192,69106,1,0,0:0:0:70:cymbal light.wav
448,192,69106,1,0,0:0:0:70:LR_Drum Rpd Fast .wav
192,192,69406,1,0,0:0:0:70:LR_Drum Kick Low.wav
64,192,69406,1,0,0:0:0:0:
320,192,69556,1,0,0:0:0:70:LR_Drum Rpd Fast .wav
64,192,69706,1,0,0:0:0:70:LR_Drum Kick Low.wav
448,192,69706,1,0,0:0:0:0:
320,192,70006,1,0,0:0:0:70:LR_Drum Kick Low.wav
192,192,70006,1,0,0:0:0:0:
448,192,70156,1,0,0:0:0:70:LR_Drum Kick Low.wav
320,192,70231,1,0,0:0:0:70:LR_Drum Kick Low.wav
192,192,70306,1,0,0:0:0:70:LR_Drum Kick Low.wav
64,192,70381,1,0,0:0:0:0:
192,192,70456,1,0,0:0:0:70:LR_Drum Kick Low.wav
320,192,70531,1,0,0:0:0:70:LR_Drum Kick Low.wav
64,192,70606,1,0,0:0:0:70:LR_Drum Kick Low.wav
448,192,70606,1,0,0:0:0:100:LR_Drum Finish.wav
192,192,70906,1,0,0:0:0:70:LR_Drum Rpd Fast .wav
448,192,70906,1,0,0:0:0:0:
320,192,71056,1,0,0:0:0:70:LR_Drum Kick Low.wav
64,192,71356,1,0,0:0:0:70:LR_Drum Kick Low.wav
192,192,71506,1,0,0:0:0:70:LR_Drum Rpd Fast .wav
448,192,71506,1,0,0:0:0:70:cymbal light.wav
320,192,71806,1,0,0:0:0:70:LR_Drum Kick Low.wav
64,192,72106,1,0,0:0:0:70:LR_Drum Rpd Fast .wav
448,192,72106,1,0,0:0:0:0:
192,192,72256,1,0,0:0:0:70:LR_Drum Kick Low.wav
448,192,72556,1,0,0:0:0:70:LR_Drum Kick Low.wav
320,192,72706,1,0,0:0:0:70:LR_Drum Rpd Fast .wav
192,192,72706,1,0,0:0:0:70:cymbal light.wav
64,192,73006,1,0,0:0:0:70:LR_Drum Kick Low.wav
320,192,73306,1,0,0:0:0:70:LR_Drum Rpd Fast .wav
448,192,73306,1,0,0:0:0:70:cymbal light.wav
192,192,73456,1,0,0:0:0:70:LR_Drum Rpd Fast .wav
64,192,73756,1,0,0:0:0:70:LR_Drum Kick Low.wav
320,192,73906,1,0,0:0:0:70:LR_Drum Rpd Fast .wav
448,192,73906,1,0,0:0:0:70:cymbal light.wav
192,192,74206,1,0,0:0:0:70:LR_Drum Kick Low.wav
64,192,74506,1,0,0:0:0:70:LR_Drum Rpd Fast .wav
320,192,74506,1,0,0:0:0:70:cymbal light.wav
448,192,74656,1,0,0:0:0:70:LR_Drum Rpd Fast .wav
192,192,74956,1,0,0:0:0:70:LR_Drum Kick Low.wav
64,192,75106,1,0,0:0:0:70:LR_Drum Rpd Fast .wav
320,192,75106,1,0,0:0:0:70:cymbal light.wav
448,192,75406,1,0,0:0:0:70:LR_Drum Kick Low.wav
320,192,75406,1,0,0:0:0:70:cymbal light.wav
192,192,75706,1,0,0:0:0:70:LR_Drum Rpd Fast .wav
320,192,75706,1,0,0:0:0:0:
64,192,75856,1,0,0:0:0:70:LR_Drum Kick Low.wav
320,192,76156,1,0,0:0:0:70:LR_Drum Kick Low.wav
192,192,76306,1,0,0:0:0:70:LR_Drum Rpd Fast .wav
448,192,76306,1,0,0:0:0:70:cymbal light.wav
64,192,76606,1,0,0:0:0:70:LR_Drum Kick Low.wav
320,192,76906,1,0,0:0:0:70:LR_Drum Rpd Fast .wav
448,192,76906,1,0,0:0:0:70:cymbal light.wav
192,192,77056,1,0,0:0:0:70:LR_Drum Kick Low.wav
64,192,77356,1,0,0:0:0:70:LR_Drum Kick Low.wav
320,192,77506,1,0,0:0:0:70:LR_Drum Rpd Fast .wav
448,192,77506,1,0,0:0:0:70:cymbal light.wav
192,192,77806,1,0,0:0:0:70:LR_Drum Kick Low.wav
64,192,78106,1,0,0:0:0:70:LR_Drum Rpd Fast .wav
320,192,78106,1,0,0:0:0:0:
448,192,78256,1,0,0:0:0:70:LR_Drum Rpd Fast .wav
192,192,78556,1,0,0:0:0:70:LR_Drum Kick Low.wav
320,192,78706,1,0,0:0:0:70:LR_Drum Rpd Fast .wav
64,192,78706,1,0,0:0:0:0:
448,192,79006,1,0,0:0:0:70:LR_Drum Kick Low.wav
320,192,79156,1,0,0:0:0:70:LR_Drum Kick Low.wav
192,192,79306,1,0,0:0:0:70:LR_Drum Rpd Fast .wav
64,192,79306,1,0,0:0:0:0:
448,192,79456,1,0,0:0:0:70:LR_Drum Kick Low.wav
320,192,79531,1,0,0:0:0:70:LR_Drum Rpd Fast .wav
192,192,79606,1,0,0:0:0:70:LR_Drum Rpd Fast .wav
64,192,79756,1,0,0:0:0:70:LR_Drum Rpd Fast .wav
192,192,79906,1,0,0:0:0:70:LR_Drum Kick Low.wav
320,192,80056,1,0,0:0:0:70:LR_Drum Kick Low.wav
64,192,80206,1,0,0:0:0:70:LR_Drum Kick Low.wav
448,192,80206,1,0,0:0:0:0:
320,192,80506,1,0,0:0:0:70:LR_Drum Rpd Fast .wav
192,192,80656,1,0,0:0:0:70:LR_Drum Kick Low.wav
64,192,80956,1,0,0:0:0:70:LR_Drum Kick Low.wav
320,192,81106,1,0,0:0:0:70:LR_Drum Rpd Fast .wav
448,192,81106,1,0,0:0:0:0:
192,192,81406,1,0,0:0:0:70:LR_Drum Kick Low.wav
64,192,81706,1,0,0:0:0:70:LR_Drum Rpd Fast .wav
320,192,81706,1,0,0:0:0:0:
448,192,81856,1,0,0:0:0:70:LR_Drum Kick Low.wav
320,192,82156,1,0,0:0:0:70:LR_Drum Kick Low.wav
448,192,82306,1,0,0:0:0:70:LR_Drum Rpd Fast .wav
64,192,82306,1,0,0:0:0:0:
320,192,82606,1,0,0:0:0:70:LR_Drum Kick Low.wav
192,192,82906,1,0,0:0:0:70:LR_Drum Rpd Fast .wav
64,192,82906,1,0,0:0:0:0:
448,192,83056,1,0,0:0:0:70:LR_Drum Kick Low.wav
192,192,83356,1,0,0:0:0:70:LR_Drum Rpd Fast .wav
64,192,83506,1,0,0:0:0:70:LR_Drum Rpd Fast .wav
448,192,83506,1,0,0:0:0:0:
192,192,83806,1,0,0:0:0:70:LR_Drum Rpd Fast .wav
320,192,83806,1,0,0:0:0:70:LR_Drum Finish.wav
64,192,84106,1,0,0:0:0:70:LR_Drum Rpd Fast .wav
192,192,84406,1,0,0:0:0:70:LR_Drum Rpd Fast .wav
320,192,84556,1,0,0:0:0:70:LR_Drum Rpd Fast .wav
64,192,84556,1,0,0:0:0:0:
448,192,85006,1,0,0:0:0:70:LR_Drum Kick Low.wav
192,192,85306,1,0,0:0:0:70:LR_Drum Rpd Fast .wav
320,192,85306,1,0,0:0:0:70:cymbal light.wav
64,192,85456,1,0,0:0:0:70:LR_Drum Kick Low.wav
320,192,85756,1,0,0:0:0:70:LR_Drum Kick Low.wav
192,192,85906,1,0,0:0:0:70:LR_Drum Rpd Fast .wav
448,192,85906,1,0,0:0:0:70:cymbal light.wav
64,192,86056,1,0,0:0:0:0:
320,192,86356,1,0,0:0:0:0:
192,192,86506,1,0,0:0:0:70:cymbal light.wav
64,192,86506,1,0,0:0:0:70:LR_Drum Rpd Fast .wav
448,192,86656,1,0,0:0:0:70:LR_Drum Kick Low.wav
192,192,86956,1,0,0:0:0:70:LR_Drum Kick Low.wav
320,192,87106,1,0,0:0:0:70:cymbal light.wav
448,192,87106,1,0,0:0:0:70:LR_Drum Rpd Fast .wav
64,192,87256,1,0,0:0:0:0:
192,192,87406,1,0,0:0:0:70:LR_Drum Kick Low.wav
64,192,87706,1,0,0:0:0:70:LR_Drum Rpd Fast .wav
320,192,87706,1,0,0:0:0:70:cymbal light.wav
192,192,87856,1,0,0:0:0:70:LR_Drum Kick Low.wav
64,192,88156,1,0,0:0:0:70:LR_Drum Kick Low.wav
192,192,88306,1,0,0:0:0:70:LR_Drum Rpd Fast .wav
320,192,88306,1,0,0:0:0:70:cymbal light.wav
448,192,88456,1,0,0:0:0:70:LR_Drum Kick Low.wav
64,192,88756,1,0,0:0:0:70:LR_Drum Kick Low.wav
320,192,88906,1,0,0:0:0:70:cymbal light.wav
448,192,88906,1,0,0:0:0:70:LR_Drum Rpd Fast .wav
192,192,89206,1,0,0:0:0:70:LR_Drum Rpd Fast .wav
64,192,89206,1,0,0:0:0:0:
320,192,89356,1,0,0:0:0:70:LR_Drum Rpd Fast .wav
448,192,89356,1,0,0:0:0:0:
192,192,89506,1,0,0:0:0:70:LR_Drum Rpd Fast .wav
64,192,89506,1,0,0:0:0:0:
320,192,89656,1,0,0:0:0:70:LR_Drum Rpd Fast .wav
448,192,89656,1,0,0:0:0:0:
192,192,89806,1,0,0:0:0:70:LR_Drum Kick Low.wav
