osu file format v14

[General]
AudioFilename: audio.mp3
AudioLeadIn: 0
PreviewTime: 60106
Countdown: 0
SampleSet: Soft
StackLeniency: 0.7
Mode: 3
LetterboxInBreaks: 0
SpecialStyle: 0
WidescreenStoryboard: 1

[Editor]
Bookmarks: 104129,210555,323992
DistanceSpacing: 0.6
BeatDivisor: 4
GridSize: 4
TimelineZoom: 1.9

[Metadata]
Title:Peace Sign (TV edit.)
TitleUnicode:ピースサイン (TV edit.)
Artist:Kenshi Yonezu
ArtistUnicode:米津玄師
Creator:Eldergleam
Version:Easy
Source:僕のヒーローアカデミア 第2期
Tags:izuku midoriya momo yaoyorozu tsuyu atsui bakugo katsuki all might tenya iida ochako uraraka season 2 spring 2017 Draftnell
BeatmapID:1256613
BeatmapSetID:574119

[Difficulty]
HPDrainRate:6.6
CircleSize:4
OverallDifficulty:6.9
ApproachRate:5
SliderMultiplier:1.4
SliderTickRate:1

[Events]
//Background and Video events
0,0,"817877.png",0,0
Video,384,"bnha2+op.avi"
//Break Periods
//Storyboard Layer 0 (Background)
//Storyboard Layer 1 (Fail)
//Storyboard Layer 2 (Pass)
//Storyboard Layer 3 (Foreground)
//Storyboard Sound Samples
Sample,10906,0,"LR_Drum Rpd Fast .wav",70
Sample,11506,0,"LR_Drum Rpd Fast .wav",70
Sample,12106,0,"LR_Drum Rpd Fast .wav",70
Sample,12706,0,"LR_Drum Rpd Fast .wav",70
Sample,13306,0,"LR_Drum Rpd Fast .wav",70
Sample,13906,0,"LR_Drum Rpd Fast .wav",70
Sample,14506,0,"LR_Drum Rpd Fast .wav",70
Sample,15106,0,"LR_Drum Rpd Fast .wav",70
Sample,15706,0,"LR_Drum Rpd Fast .wav",70
Sample,16306,0,"LR_Drum Rpd Fast .wav",70
Sample,16906,0,"LR_Drum Rpd Fast .wav",70
Sample,17506,0,"LR_Drum Rpd Fast .wav",70
Sample,18106,0,"LR_Drum Rpd Fast .wav",70
Sample,18706,0,"LR_Drum Rpd Fast .wav",70
Sample,22456,0,"sel_l.wav",70
Sample,22606,0,"LR_Drum Kick Low.wav",70
Sample,24556,0,"sel_l.wav",70
Sample,24856,0,"sel_l.wav",70
Sample,25006,0,"hat light.wav",100
Sample,27256,0,"sel_l.wav",70
Sample,27406,0,"hat light.wav",100
Sample,29356,0,"sel_l.wav",70
Sample,29656,0,"sel_l.wav",70
Sample,34156,0,"sel_l.wav",70
Sample,34456,0,"sel_l.wav",70
Sample,34606,0,"hat light.wav",100
Sample,37006,0,"hat light.wav",100
Sample,39106,0,"LR_Drum Kick Low.wav",70
Sample,39406,0,"LR_Drum Kick Low.wav",70
Sample,59056,0,"cymbal light.wav",70
Sample,59356,0,"cymbal light.wav",70
Sample,59656,0,"cymbal light.wav",70
Sample,61306,0,"cymbal light.wav",70
Sample,61906,0,"cymbal light.wav",70
Sample,62506,0,"LR_Drum Rpd Fast .wav",70
Sample,63106,0,"LR_Drum Rpd Fast .wav",70
Sample,63706,0,"LR_Drum Rpd Fast .wav",70
Sample,64306,0,"LR_Drum Rpd Fast .wav",70
Sample,64906,0,"LR_Drum Rpd Fast .wav",70
Sample,65506,0,"LR_Drum Rpd Fast .wav",70
Sample,66106,0,"LR_Drum Rpd Fast .wav",70
Sample,66706,0,"LR_Drum Rpd Fast .wav",70
Sample,67306,0,"LR_Drum Rpd Fast .wav",70
Sample,67906,0,"LR_Drum Rpd Fast .wav",70
Sample,68506,0,"LR_Drum Rpd Fast .wav",70
Sample,69106,0,"LR_Drum Rpd Fast .wav",70
Sample,70606,0,"LR_Drum Finish.wav",100
Sample,70906,0,"cymbal light.wav",70
Sample,71506,0,"cymbal light.wav",70
Sample,72106,0,"cymbal light.wav",70
Sample,72706,0,"cymbal light.wav",70
Sample,73306,0,"cymbal light.wav",70
Sample,73906,0,"cymbal light.wav",70
Sample,74506,0,"cymbal light.wav",70
Sample,75106,0,"cymbal light.wav",70
Sample,75706,0,"cymbal light.wav",70
Sample,76306,0,"cymbal light.wav",70
Sample,76906,0,"cymbal light.wav",70
Sample,77506,0,"cymbal light.wav",70
Sample,85306,0,"cymbal light.wav",70
Sample,85906,0,"cymbal light.wav",70
Sample,86506,0,"LR_Drum Rpd Fast .wav",70
Sample,87106,0,"LR_Drum Rpd Fast .wav",70
Sample,87706,0,"cymbal light.wav",70
Sample,88306,0,"cymbal light.wav",70

[TimingPoints]
1006,300,4,2,1,45,1,0
61006,-100,4,2,1,45,0,1
79906,-100,4,2,1,45,0,0

[HitObjects]
64,192,1006,5,0,0:0:0:40:LR_Drum Hit Beat Long.wav
448,192,1006,1,0,0:0:0:70:LR_Drum Finish.wav
320,192,1456,1,0,0:0:0:40:LR_Drum Hit Beat Long.wav
64,192,1906,1,0,0:0:0:40:LR_Drum Hit Beat Long.wav
192,192,2206,1,0,0:0:0:40:LR_Drum Hit Beat Long.wav
448,192,2656,1,0,0:0:0:40:LR_Drum Hit Beat Long.wav
64,192,3106,1,0,0:0:0:40:LR_Drum Hit Beat Long.wav
320,192,3406,1,0,0:0:0:40:LR_Drum Hit Beat Long.wav
192,192,3856,1,0,0:0:0:40:LR_Drum Hit Beat Long.wav
448,192,4306,1,0,0:0:0:40:LR_Drum Hit Beat Long.wav
64,192,4606,1,0,0:0:0:40:LR_Drum Hit Beat Long.wav
320,192,5056,1,0,0:0:0:40:LR_Drum Hit Beat Long.wav
192,192,5506,1,0,0:0:0:40:LR_Drum Hit Beat Long.wav
64,192,5806,1,0,0:0:0:40:LR_Drum Hit Beat Long.wav
448,192,5806,1,0,0:0:0:70:LR_Drum Finish.wav
320,192,6256,1,0,0:0:0:40:LR_Drum Hit Beat Long.wav
192,192,6706,1,0,0:0:0:40:LR_Drum Hit Beat Long.wav
64,192,7006,1,0,0:0:0:40:LR_Drum Hit Beat Long.wav
448,192,7456,1,0,0:0:0:40:LR_Drum Hit Beat Long.wav
192,192,7906,1,0,0:0:0:40:LR_Drum Hit Beat Long.wav
320,192,8206,1,0,0:0:0:40:LR_Drum Hit Beat Long.wav
192,192,8656,1,0,0:0:0:40:LR_Drum Hit Beat Long.wav
448,192,9106,1,0,0:0:0:40:LR_Drum Hit Beat Long.wav
64,192,9406,1,0,0:0:0:40:LR_Drum Hit Beat Long.wav
192,192,9706,1,0,0:0:0:70:LR_Drum Kick Low.wav
448,192,9856,128,0,10606:0:0:0:0:
64,192,10606,1,0,0:0:0:70:LR_Drum Finish.wav
192,192,10606,1,0,0:0:0:70:LR_Drum Kick Low.wav
320,192,10906,1,0,0:0:0:70:cymbal light.wav
64,192,11506,1,0,0:0:0:70:cymbal light.wav
320,192,12106,1,0,0:0:0:70:cymbal light.wav
192,192,12706,1,0,0:0:0:70:cymbal light.wav
448,192,13306,1,0,0:0:0:70:cymbal light.wav
320,192,13906,1,0,0:0:0:70:cymbal light.wav
64,192,14506,1,0,0:0:0:70:cymbal light.wav
192,192,15106,1,0,0:0:0:70:cymbal light.wav
320,192,15406,1,0,0:0:0:70:LR_Drum Finish.wav
448,192,15406,1,0,0:0:0:0:
64,192,15706,1,0,0:0:0:70:cymbal light.wav
448,192,16306,1,0,0:0:0:70:cymbal light.wav
320,192,16906,1,0,0:0:0:70:cymbal light.wav
64,192,17506,1,0,0:0:0:70:cymbal light.wav
192,192,18106,1,0,0:0:0:70:cymbal light.wav
320,192,18706,1,0,0:0:0:70:cymbal light.wav
448,192,19306,1,0,0:0:0:70:LR_Drum Finish.wav
64,192,19306,1,0,0:0:0:0:
320,192,19606,1,0,0:0:0:70:LR_Drum Kick Low.wav
192,192,19756,1,0,0:0:0:70:LR_Drum Kick Low.wav
320,192,19906,1,0,0:0:0:70:LR_Drum Kick Low.wav
192,192,20056,1,0,0:0:0:70:LR_Drum Kick Low.wav
320,192,20206,1,0,0:0:0:70:LR_Drum Rpd Fast .wav
448,192,20206,1,0,0:0:0:100:LR_Drum Finish.wav
64,192,20506,1,0,0:0:0:100:hat light.wav
448,192,21106,1,0,0:0:0:100:hat light.wav
192,192,21706,1,0,0:0:0:100:hat light.wav
320,192,22306,1,0,0:0:0:100:hat light.wav
64,192,22456,1,0,0:0:0:70:LR_Drum Kick Low.wav
448,192,22606,1,0,0:0:0:100:hat light.wav
192,192,22906,1,0,0:0:0:100:hat light.wav
448,192,23506,1,0,0:0:0:100:hat light.wav
64,192,24106,1,0,0:0:0:100:hat light.wav
448,192,24556,1,0,0:0:0:70:LR_Drum Kick Low.wav
192,192,24856,1,0,0:0:0:70:LR_Drum Kick Low.wav
320,192,25006,1,0,0:0:0:70:LR_Drum Kick Low.wav
64,192,25306,1,0,0:0:0:100:hat light.wav
448,192,25906,1,0,0:0:0:100:hat light.wav
320,192,26506,1,0,0:0:0:100:hat light.wav
64,192,27106,1,0,0:0:0:100:hat light.wav
448,192,27256,1,0,0:0:0:70:LR_Drum Kick Low.wav
320,192,27406,1,0,0:0:0:70:LR_Drum Kick Low.wav
192,192,27706,1,0,0:0:0:100:hat light.wav
320,192,28306,1,0,0:0:0:100:hat light.wav
192,192,28906,1,0,0:0:0:100:hat light.wav
448,192,29356,1,0,0:0:0:70:LR_Drum Kick Low.wav
192,192,29656,1,0,0:0:0:70:LR_Drum Kick Low.wav
320,192,29806,1,0,0:0:0:70:LR_Drum Kick Low.wav
64,192,29806,1,0,0:0:0:100:LR_Drum Finish.wav
192,192,30106,1,0,0:0:0:100:hat light.wav
448,192,30706,1,0,0:0:0:100:hat light.wav
320,192,31306,1,0,0:0:0:100:hat light.wav
64,192,31906,1,0,0:0:0:100:hat light.wav
320,192,32506,1,0,0:0:0:100:hat light.wav
192,192,33106,1,0,0:0:0:100:hat light.wav
320,192,33706,1,0,0:0:0:100:hat light.wav
192,192,34156,1,0,0:0:0:70:LR_Drum Kick Low.wav
320,192,34456,1,0,0:0:0:70:LR_Drum Kick Low.wav
64,192,34606,1,0,0:0:0:70:LR_Drum Kick Low.wav
192,192,34906,1,0,0:0:0:100:hat light.wav
64,192,35506,1,0,0:0:0:100:hat light.wav
320,192,36106,1,0,0:0:0:100:hat light.wav
192,192,36706,1,0,0:0:0:100:hat light.wav
320,192,36856,1,0,0:0:0:0:
448,192,37006,1,0,0:0:0:70:LR_Drum Kick Low.wav
192,192,37306,1,0,0:0:0:100:hat light.wav
64,192,37456,1,0,0:0:0:0:
192,192,37906,1,0,0:0:0:100:hat light.wav
320,192,38206,1,0,0:0:0:100:LR_Drum Finish.wav
448,192,38206,1,0,0:0:0:0:
64,192,38506,1,0,0:0:0:100:LR_Drum Rpd Fast .wav
192,192,38656,1,0,0:0:0:100:LR_Drum Rpd Fast .wav
448,192,38956,1,0,0:0:0:100:LR_Tom Hit.wav
192,192,39106,1,0,0:0:0:100:hat light.wav
448,192,39256,1,0,0:0:0:70:sel_l.wav
64,192,39406,1,0,0:0:0:100:LR_Drum Finish.wav
320,192,39406,1,0,0:0:0:0:
192,192,39706,1,0,0:0:0:70:LR_Drum Rpd Fast .wav
320,192,40306,1,0,0:0:0:70:LR_Drum Rpd Fast .wav
64,192,40906,1,0,0:0:0:70:LR_Drum Rpd Fast .wav
320,192,41506,1,0,0:0:0:70:LR_Drum Rpd Fast .wav
192,192,42106,1,0,0:0:0:70:LR_Drum Rpd Fast .wav
448,192,42706,1,0,0:0:0:70:LR_Drum Rpd Fast .wav
64,192,43306,1,0,0:0:0:70:LR_Drum Rpd Fast .wav
320,192,43906,1,0,0:0:0:70:LR_Drum Rpd Fast .wav
192,192,44506,1,0,0:0:0:70:LR_Drum Rpd Fast .wav
320,192,45106,1,0,0:0:0:70:LR_Drum Rpd Fast .wav
64,192,45706,1,0,0:0:0:70:LR_Drum Rpd Fast .wav
448,192,46306,1,0,0:0:0:70:LR_Drum Rpd Fast .wav
192,192,46906,1,0,0:0:0:70:LR_Drum Rpd Fast .wav
320,192,47506,1,0,0:0:0:70:LR_Drum Rpd Fast .wav
448,192,48106,1,0,0:0:0:70:LR_Drum Rpd Fast .wav
192,192,48706,1,0,0:0:0:70:LR_Drum Rpd Fast .wav
64,192,49006,1,0,0:0:0:70:LR_Drum Kick Low.wav
320,192,49006,1,0,0:0:0:70:LR_Drum Finish.wav
448,192,49306,1,0,0:0:0:70:LR_Drum Rpd Fast .wav
320,192,49906,1,0,0:0:0:70:LR_Drum Rpd Fast .wav
64,192,50506,1,0,0:0:0:70:LR_Drum Rpd Fast .wav
192,192,51106,1,0,0:0:0:70:LR_Drum Rpd Fast .wav
320,192,51706,1,0,0:0:0:70:LR_Drum Rpd Fast .wav
448,192,52306,1,0,0:0:0:70:LR_Drum Rpd Fast .wav
64,192,52906,1,0,0:0:0:70:LR_Drum Rpd Fast .wav
320,192,53506,1,0,0:0:0:70:LR_Drum Rpd Fast .wav
64,192,53806,1,0,0:0:0:70:LR_Drum Kick Low.wav
448,192,53806,1,0,0:0:0:70:LR_Drum Finish.wav
192,192,54106,1,0,0:0:0:70:LR_Drum Rpd Fast .wav
320,192,54706,1,0,0:0:0:70:LR_Drum Rpd Fast .wav
64,192,55306,1,0,0:0:0:70:LR_Drum Rpd Fast .wav
320,192,55906,1,0,0:0:0:70:LR_Drum Rpd Fast .wav
192,192,56506,1,0,0:0:0:70:LR_Drum Rpd Fast .wav
448,192,57106,1,0,0:0:0:70:LR_Drum Rpd Fast .wav
192,192,57706,1,0,0:0:0:70:LR_Drum Rpd Fast .wav
320,192,58306,1,0,0:0:0:70:LR_Drum Rpd Fast .wav
64,192,58606,1,0,0:0:0:0:
192,192,58906,1,0,0:0:0:0:
448,192,59056,1,0,0:0:0:70:LR_Drum Rpd Fast .wav
192,192,59356,1,0,0:0:0:70:LR_Drum Rpd Fast .wav
64,192,59656,1,0,0:0:0:70:LR_Drum Rpd Fast .wav
448,192,60406,128,0,61006:0:0:0:0:
64,192,61006,1,0,0:0:0:70:LR_Drum Kick Low.wav
320,192,61006,1,0,0:0:0:0:
192,192,61306,1,0,0:0:0:70:LR_Drum Rpd Fast .wav
448,192,61906,1,0,0:0:0:70:LR_Drum Rpd Fast .wav
64,192,62506,1,0,0:0:0:70:cymbal light.wav
320,192,63106,1,0,0:0:0:70:cymbal light.wav
192,192,63706,1,0,0:0:0:70:cymbal light.wav
448,192,64306,1,0,0:0:0:70:cymbal light.wav
64,192,64906,1,0,0:0:0:70:cymbal light.wav
320,192,65506,1,0,0:0:0:70:cymbal light.wav
64,192,65806,1,0,0:0:0:70:LR_Drum Finish.wav
448,192,65806,1,0,0:0:0:70:LR_Drum Kick Low.wav
192,192,66106,1,0,0:0:0:70:cymbal light.wav
448,192,66706,1,0,0:0:0:70:cymbal light.wav
192,192,67306,1,0,0:0:0:70:cymbal light.wav
64,192,67906,1,0,0:0:0:70:cymbal light.wav
448,192,68506,1,0,0:0:0:70:cymbal light.wav
192,192,69106,1,0,0:0:0:70:cymbal light.wav
320,192,69706,1,0,0:0:0:70:LR_Drum Rpd Fast .wav
448,192,69706,1,0,0:0:0:0:
448,192,70006,128,0,70306:0:0:0:70:LR_Drum Kick Low.wav
192,192,70006,1,0,0:0:0:0:
64,192,70306,128,0,70606:0:0:0:70:LR_Drum Kick Low.wav
320,192,70606,1,0,0:0:0:70:LR_Drum Kick Low.wav
448,192,70906,1,0,0:0:0:70:LR_Drum Rpd Fast .wav
320,192,71506,1,0,0:0:0:70:LR_Drum Rpd Fast .wav
192,192,72106,1,0,0:0:0:70:LR_Drum Rpd Fast .wav
320,192,72706,1,0,0:0:0:70:LR_Drum Rpd Fast .wav
64,192,73306,1,0,0:0:0:70:LR_Drum Rpd Fast .wav
320,192,73906,1,0,0:0:0:70:LR_Drum Rpd Fast .wav
192,192,74506,1,0,0:0:0:70:LR_Drum Rpd Fast .wav
448,192,75106,1,0,0:0:0:70:LR_Drum Rpd Fast .wav
320,192,75406,1,0,0:0:0:70:LR_Drum Kick Low.wav
64,192,75406,1,0,0:0:0:70:cymbal light.wav
192,192,75706,1,0,0:0:0:70:LR_Drum Rpd Fast .wav
448,192,76306,1,0,0:0:0:70:LR_Drum Rpd Fast .wav
192,192,76906,1,0,0:0:0:70:LR_Drum Rpd Fast .wav
64,192,77506,1,0,0:0:0:70:LR_Drum Rpd Fast .wav
448,192,78106,1,0,0:0:0:70:LR_Drum Rpd Fast .wav
320,192,78706,1,0,0:0:0:70:LR_Drum Rpd Fast .wav
192,192,79306,1,0,0:0:0:70:LR_Drum Rpd Fast .wav
448,192,79306,1,0,0:0:0:0:
64,192,79606,1,0,0:0:0:70:LR_Drum Rpd Fast .wav
320,192,79906,1,0,0:0:0:70:LR_Drum Kick Low.wav
64,192,80206,1,0,0:0:0:70:LR_Drum Kick Low.wav
448,192,80206,1,0,0:0:0:0:
320,192,80506,1,0,0:0:0:70:LR_Drum Rpd Fast .wav
192,192,81106,1,0,0:0:0:70:LR_Drum Rpd Fast .wav
448,192,81706,1,0,0:0:0:70:LR_Drum Rpd Fast .wav
64,192,82306,1,0,0:0:0:70:LR_Drum Rpd Fast .wav
320,192,82906,1,0,0:0:0:70:LR_Drum Rpd Fast .wav
192,192,83506,1,0,0:0:0:70:LR_Drum Rpd Fast .wav
320,192,83806,1,0,0:0:0:70:LR_Drum Rpd Fast .wav
448,192,83806,1,0,0:0:0:70:LR_Drum Finish.wav
192,192,84406,1,0,0:0:0:70:LR_Drum Rpd Fast .wav
64,192,84556,1,0,0:0:0:70:LR_Drum Rpd Fast .wav
320,192,85006,1,0,0:0:0:70:LR_Drum Kick Low.wav
448,192,85006,1,0,0:0:0:0:
64,192,85306,1,0,0:0:0:70:LR_Drum Rpd Fast .wav
192,192,85906,1,0,0:0:0:70:LR_Drum Rpd Fast .wav
448,192,86506,1,0,0:0:0:70:cymbal light.wav
192,192,87106,1,0,0:0:0:70:cymbal light.wav
64,192,87706,1,0,0:0:0:70:LR_Drum Rpd Fast .wav
320,192,88306,1,0,0:0:0:70:LR_Drum Rpd Fast .wav
192,192,88906,1,0,0:0:0:70:cymbal light.wav
64,192,88906,1,0,0:0:0:70:LR_Drum Rpd Fast .wav
448,192,89206,1,0,0:0:0:70:LR_Drum Rpd Fast .wav
320,192,89356,1,0,0:0:0:70:LR_Drum Rpd Fast .wav
192,192,89506,1,0,0:0:0:70:LR_Drum Rpd Fast .wav
64,192,89656,1,0,0:0:0:70:LR_Drum Rpd Fast .wav
448,192,89806,1,0,0:0:0:70:LR_Drum Kick Low.wav
