osu file format v14

[General]
AudioFilename: audio.mp3
AudioLeadIn: 0
PreviewTime: 59439
Countdown: 1
SampleSet: Normal
StackLeniency: 0.7
Mode: 0
LetterboxInBreaks: 0
WidescreenStoryboard: 1

[Editor]
DistanceSpacing: 0.5
BeatDivisor: 4
GridSize: 16
TimelineZoom: 1.2

[Metadata]
Title:Peace Sign (TV Size)
TitleUnicode:僕のヒーローアカデミア
Artist:Kenshi Yonezu
ArtistUnicode:Kenshi Yonezu
Creator:Cotil
Version:Insane
Source:僕のヒーローアカデミア
Tags:Boku no hero academia op opening tv size
BeatmapID:1352216
BeatmapSetID:630157

[Difficulty]
HPDrainRate:6
CircleSize:3.5
OverallDifficulty:6
ApproachRate:9
SliderMultiplier:1.4
SliderTickRate:1

[Events]
//Background and Video events
0,0,"73349d9b4d2056b8e2e04ee605a3f24e.png",0,0
//Break Periods
//Storyboard Layer 0 (Background)
//Storyboard Layer 1 (Fail)
//Storyboard Layer 2 (Pass)
//Storyboard Layer 3 (Foreground)
//Storyboard Sound Samples

[TimingPoints]
339,300,4,1,1,100,1,0
19539,-100,4,2,1,80,0,0
59439,-100,4,1,1,100,0,0
60339,-100,4,1,1,100,0,1
84339,-100,4,1,1,100,0,0

[Colours]
Combo1 : 128,0,0
Combo2 : 255,255,0
Combo3 : 255,128,64

[HitObjects]
448,80,339,6,0,P|432:128|400:160,1,70,10|0,0:0|0:0,0:0:0:0:
240,192,789,5,10,0:0:0:0:
208,64,939,1,0,0:0:0:0:
240,192,1089,1,0,0:0:0:0:
144,272,1239,2,0,P|112:240|112:192,1,70
160,128,1539,2,0,P|208:112|256:128,1,70
320,176,1839,2,0,P|320:224|288:256,1,70
192,288,2139,1,0,0:0:0:0:
112,224,2289,1,0,0:0:0:0:
192,288,2439,1,0,0:0:0:0:
144,144,2589,1,0,0:0:0:0:
240,64,2739,2,10,L|304:96,1,70,10|0,0:0|0:0,0:0:0:0:
368,256,3189,5,10,0:0:0:0:
240,224,3339,1,0,0:0:0:0:
368,256,3489,1,0,0:0:0:0:
448,160,3639,2,0,P|448:112|432:80,1,70
320,48,3939,2,0,P|272:48|240:80,1,70
192,160,4239,2,0,P|192:208|224:240,1,70
352,224,4539,1,0,0:0:0:0:
400,112,4689,1,0,0:0:0:0:
352,224,4839,1,0,0:0:0:0:
336,48,4989,1,0,0:0:0:0:
208,32,5139,2,10,L|144:64,1,70,10|0,0:0|0:0,0:0:0:0:
80,272,5589,5,10,0:0:0:0:
192,240,5739,1,0,0:0:0:0:
80,272,5889,1,0,0:0:0:0:
48,160,6039,2,0,P|64:112|96:80,1,70
176,32,6339,2,0,P|224:32|256:64,1,70
320,144,6639,2,0,P|320:192|288:224,1,70
160,272,6939,1,0,0:0:0:0:
96,176,7089,1,0,0:0:0:0:
160,272,7239,1,0,0:0:0:0:
160,112,7389,1,0,0:0:0:0:
272,48,7539,2,10,L|304:112,1,70,10|0,0:0|0:0,0:0:0:0:
464,256,7989,5,10,0:0:0:0:
400,144,8139,1,0,0:0:0:0:
464,256,8289,1,0,0:0:0:0:
304,176,8439,1,10,0:0:0:0:
464,256,8589,1,0,0:0:0:0:
352,336,8739,2,6,L|272:304,1,70
128,288,9039,2,6,L|208:256,1,70
368,208,9339,2,6,L|288:176,1,70
112,160,9639,2,6,L|192:128,1,70
64,32,9939,5,0,0:0:0:0:
64,32,10014,1,0,0:0:0:0:
64,32,10089,1,0,0:0:0:0:
112,112,10239,1,0,0:0:0:0:
192,64,10389,2,0,P|288:48|352:64,1,140
328,55,10839,1,8,0:0:0:0:
368,208,10989,2,0,P|336:240|288:256,1,70
314,250,11289,1,0,0:0:0:0:
176,192,11439,1,8,0:0:0:0:
240,48,11589,2,0,P|304:48|384:96,1,140
370,82,12039,1,8,0:0:0:0:
416,240,12189,6,0,P|384:272|336:288,1,70
362,282,12489,1,0,0:0:0:0:
160,176,12639,1,8,0:0:0:0:
288,96,12789,1,0,0:0:0:0:
304,256,13089,5,0,0:0:0:0:
432,336,13239,1,8,0:0:0:0:
416,176,13389,1,0,0:0:0:0:
416,176,13464,1,0,0:0:0:0:
416,176,13539,1,2,0:0:0:0:
304,128,13689,1,2,0:0:0:0:
208,32,13839,1,2,0:0:0:0:
128,144,13989,5,2,0:0:0:0:
128,144,14064,1,0,0:0:0:0:
128,144,14139,1,6,0:0:0:0:
224,240,14289,1,6,0:0:0:0:
128,336,14439,1,6,0:0:0:0:
32,240,14589,1,6,0:0:0:0:
64,96,14739,6,0,P|96:64|144:64,1,70
119,59,15039,1,8,0:0:0:0:
288,32,15189,2,0,P|368:48|416:112,1,140
406,88,15639,1,8,0:0:0:0:
432,240,15789,2,0,P|400:272|352:288,1,70
378,282,16089,1,0,0:0:0:0:
256,208,16239,1,8,0:0:0:0:
176,320,16389,2,0,P|128:272|112:192,1,140
112,208,16839,1,8,0:0:0:0:
160,64,16989,5,0,0:0:0:0:
336,32,17139,2,0,P|368:64|384:112,1,70
288,208,17439,2,0,P|256:176|240:144,1,70,8|0,0:0|0:0,0:0:0:0:
128,64,17889,5,2,0:0:0:0:
96,112,18039,1,2,0:0:0:0:
64,160,18189,1,2,0:0:0:0:
32,208,18339,1,2,0:0:0:0:
64,256,18489,1,2,0:0:0:0:
208,176,18639,1,6,0:0:0:0:
240,224,18789,1,6,0:0:0:0:
272,272,18939,1,6,0:0:0:0:
171,335,19089,1,14,0:0:0:0:
155,326,19164,1,0,0:0:0:0:
141,315,19239,1,14,0:0:0:0:
131,300,19314,1,0,0:0:0:0:
124,283,19389,1,12,0:0:0:0:
122,265,19464,1,0,0:0:0:0:
121,247,19539,6,0,P|131:171|198:120,1,140,2|0,0:0|0:0,0:0:0:0:
352,144,19989,1,0,0:0:0:0:
224,208,20289,5,0,0:0:0:0:
352,48,20439,1,0,0:0:0:0:
352,48,20589,1,0,0:0:0:0:
352,48,20739,2,0,P|400:64|464:144,1,140,2|0,0:0|0:0,0:0:0:0:
368,192,21189,1,0,0:0:0:0:
96,320,21489,5,0,0:0:0:0:
32,224,21789,2,2,P|32:176|64:144,1,70
160,64,22089,1,0,0:0:0:0:
192,208,22239,1,0,0:0:0:0:
160,64,22389,1,0,0:0:0:0:
192,208,22539,1,0,0:0:0:0:
320,96,22689,2,0,P|368:112|384:144,1,70
288,240,23139,1,2,0:0:0:0:
112,320,23439,1,0,0:0:0:0:
48,256,23589,1,0,0:0:0:0:
176,32,23889,5,2,0:0:0:0:
240,144,24039,1,0,0:0:0:0:
320,32,24189,1,2,0:0:0:0:
432,96,24339,2,0,P|480:144|464:224,1,140,2|0,0:0|0:0,0:0:0:0:
400,304,24789,1,0,0:0:0:0:
320,208,25089,2,0,L|192:288,1,140
80,256,25539,1,2,0:0:0:0:
96,64,25839,1,0,0:0:0:0:
96,64,25989,1,0,0:0:0:0:
288,32,26289,5,0,0:0:0:0:
368,160,26439,1,0,0:0:0:0:
208,32,26589,1,2,0:0:0:0:
96,80,26739,2,0,P|48:128|48:224,1,140,2|0,0:0|0:0,0:0:0:0:
176,192,27189,1,0,0:0:0:0:
32,304,27489,2,0,L|112:336,1,70
256,352,27789,2,0,P|336:304|352:192,1,210
352,192,28389,1,0,0:0:0:0:
432,80,28689,5,2,0:0:0:0:
432,80,28839,1,0,0:0:0:0:
288,32,28989,1,2,0:0:0:0:
144,64,29139,2,0,P|112:112|112:192,1,140,2|0,0:0|0:0,0:0:0:0:
112,192,29589,1,0,0:0:0:0:
304,320,29889,1,0,0:0:0:0:
432,160,30039,1,0,0:0:0:0:
432,320,30189,1,0,0:0:0:0:
304,160,30339,1,2,0:0:0:0:
112,48,30639,5,0,0:0:0:0:
112,48,30789,1,0,0:0:0:0:
80,304,31089,5,0,0:0:0:0:
160,224,31239,1,0,0:0:0:0:
256,288,31389,5,2,0:0:0:0:
336,208,31539,1,2,0:0:0:0:
464,144,31839,6,0,P|448:112|400:80,1,70
288,32,32139,1,0,0:0:0:0:
208,160,32289,1,0,0:0:0:0:
144,64,32439,1,0,0:0:0:0:
64,192,32589,1,0,0:0:0:0:
112,320,32739,2,0,P|176:336|256:320,1,140,2|0,0:0|0:0,0:0:0:0:
247,323,33189,1,0,0:0:0:0:
352,240,33489,5,2,0:0:0:0:
448,208,33639,1,0,0:0:0:0:
368,144,33789,1,2,0:0:0:0:
464,96,33939,2,0,P|416:64|320:64,1,140,2|0,0:0|0:0,0:0:0:0:
335,59,34389,1,0,0:0:0:0:
144,80,34689,1,0,0:0:0:0:
32,32,34839,1,0,0:0:0:0:
48,160,34989,1,0,0:0:0:0:
48,160,35139,1,2,0:0:0:0:
48,304,35439,6,0,P|80:320|128:320,1,70
400,272,35889,5,0,0:0:0:0:
336,144,36039,1,0,0:0:0:0:
256,272,36189,1,2,0:0:0:0:
192,144,36339,2,0,P|224:80|288:48,1,140,2|0,0:0|0:0,0:0:0:0:
416,128,36789,1,0,0:0:0:0:
304,304,37089,5,0,0:0:0:0:
240,176,37239,1,0,0:0:0:0:
160,304,37389,2,12,P|96:256|80:192,1,140,0|12,0:0|0:0,0:0:0:0:
32,112,37839,1,12,0:0:0:0:
32,112,37989,1,12,0:0:0:0:
192,32,38289,1,8,0:0:0:0:
192,32,38439,1,12,0:0:0:0:
368,48,38739,6,0,P|400:112|384:192,1,140,0|8,0:0|0:0,0:0:0:0:
288,288,39189,1,0,0:0:0:0:
240,160,39339,1,0,0:0:0:0:
160,288,39489,1,0,0:0:0:0:
80,144,39639,6,0,P|48:192|64:272,1,140,8|0,0:0|0:0,0:0:0:0:
176,336,40089,1,0,0:0:0:0:
256,208,40239,1,8,0:0:0:0:
336,336,40389,1,0,0:0:0:0:
400,208,40539,1,0,0:0:0:0:
400,208,40689,1,0,0:0:0:0:
320,64,40839,5,8,0:0:0:0:
432,32,40989,1,0,0:0:0:0:
320,64,41139,2,0,P|224:48|160:80,1,140,0|8,0:0|0:0,0:0:0:0:
96,128,41589,1,0,0:0:0:0:
112,288,41889,5,0,0:0:0:0:
112,288,42039,1,8,0:0:0:0:
320,320,42339,5,0,0:0:0:0:
448,240,42489,1,0,0:0:0:0:
320,192,42639,1,8,0:0:0:0:
448,112,42789,1,0,0:0:0:0:
320,64,42939,1,0,0:0:0:0:
320,64,43089,1,0,0:0:0:0:
192,48,43239,2,0,L|128:112,1,70,8|0,0:0|0:0,0:0:0:0:
48,192,43539,2,0,L|160:304,1,140,0|8,0:0|0:0,0:0:0:0:
146,290,43989,1,0,0:0:0:0:
288,224,44289,1,0,0:0:0:0:
288,224,44439,1,8,0:0:0:0:
416,64,44739,6,0,L|272:32,1,140,0|8,0:0|0:0,0:0:0:0:
279,33,45189,1,0,0:0:0:0:
128,112,45489,1,0,0:0:0:0:
128,112,45639,1,8,0:0:0:0:
64,304,45939,5,0,0:0:0:0:
240,352,46239,2,0,P|288:336|320:304,1,70,8|0,0:0|0:0,0:0:0:0:
416,192,46689,2,0,P|384:112|336:80,1,140
341,82,47139,1,0,0:0:0:0:
192,64,47439,1,8,0:0:0:0:
192,64,47589,1,8,0:0:0:0:
96,192,47739,1,0,0:0:0:0:
96,192,47889,1,0,0:0:0:0:
208,288,48039,1,8,0:0:0:0:
304,160,48189,1,0,0:0:0:0:
384,32,48339,1,0,0:0:0:0:
464,160,48639,6,0,P|464:224|400:304,1,140,8|0,0:0|0:0,0:0:0:0:
256,224,49239,5,8,0:0:0:0:
160,288,49389,1,0,0:0:0:0:
160,288,49539,2,0,P|112:224|112:144,1,140,0|8,0:0|0:0,0:0:0:0:
208,64,50139,1,0,0:0:0:0:
448,112,50439,5,8,0:0:0:0:
320,176,50589,1,0,0:0:0:0:
448,240,50739,1,0,0:0:0:0:
256,320,51039,5,8,0:0:0:0:
160,176,51189,1,8,0:0:0:0:
128,288,51489,5,0,0:0:0:0:
32,144,51639,1,8,0:0:0:0:
32,144,51939,5,0,0:0:0:0:
128,48,52089,1,0,0:0:0:0:
128,48,52239,1,8,0:0:0:0:
208,144,52389,1,0,0:0:0:0:
208,144,52539,1,0,0:0:0:0:
288,32,52689,1,0,0:0:0:0:
288,32,52839,1,8,0:0:0:0:
288,32,52989,1,0,0:0:0:0:
416,112,53139,2,0,P|416:192|368:256,1,140,0|8,0:0|0:0,0:0:0:0:
256,160,53739,5,0,0:0:0:0:
128,256,54039,2,0,L|192:320,1,70,8|0,0:0|0:0,0:0:0:0:
320,304,54339,1,0,0:0:0:0:
256,160,54639,5,8,0:0:0:0:
128,240,54939,1,0,0:0:0:0:
32,176,55089,1,0,0:0:0:0:
112,96,55239,1,8,0:0:0:0:
112,96,55314,1,0,0:0:0:0:
112,96,55389,2,0,L|192:128,1,70
240,208,55839,5,8,0:0:0:0:
336,48,56139,5,0,0:0:0:0:
448,208,56439,5,8,0:0:0:0:
256,192,56739,5,8,0:0:0:0:
256,192,56814,1,0,0:0:0:0:
256,192,56889,1,8,0:0:0:0:
192,48,57189,1,8,0:0:0:0:
192,48,57339,1,8,0:0:0:0:
96,144,57639,5,8,0:0:0:0:
32,256,57789,1,8,0:0:0:0:
160,304,57939,1,0,0:0:0:0:
160,304,58014,1,0,0:0:0:0:
160,304,58089,1,0,0:0:0:0:
224,144,58389,5,14,0:0:0:0:
336,304,58689,1,14,0:0:0:0:
432,80,58989,1,14,0:0:0:0:
80,64,59439,6,0,P|48:144|64:208,1,140
192,288,60039,1,0,0:0:0:0:
432,192,60339,6,0,L|368:144,1,70
208,160,60639,2,0,L|288:224,1,70,8|0,0:0|0:0,0:0:0:0:
304,80,60939,1,0,0:0:0:0:
304,80,61089,1,0,0:0:0:0:
352,224,61239,1,8,0:0:0:0:
352,224,61389,1,0,0:0:0:0:
192,288,61539,5,0,0:0:0:0:
128,144,61689,1,0,0:0:0:0:
192,288,61839,1,8,0:0:0:0:
80,112,61989,1,0,0:0:0:0:
192,288,62139,1,0,0:0:0:0:
256,144,62289,2,0,L|304:80,1,70,0|8,0:0|0:0,0:0:0:0:
432,96,62589,6,0,L|384:240,1,140
387,228,63039,1,8,0:0:0:0:
192,320,63189,2,0,L|257:177,1,140
249,192,63639,1,8,0:0:0:0:
112,48,63789,2,0,L|256:128,1,140
234,115,64239,1,8,0:0:0:0:
304,272,64389,2,0,L|160:192,1,140
181,204,64839,1,8,0:0:0:0:
32,272,65139,6,0,L|112:144,1,140,0|8,0:0|0:0,0:0:0:0:
256,80,65589,1,0,0:0:0:0:
320,208,65739,1,0,0:0:0:0:
256,80,65889,1,0,0:0:0:0:
304,256,66039,1,8,0:0:0:0:
256,80,66189,5,0,0:0:0:0:
416,112,66339,1,0,0:0:0:0:
240,128,66489,1,0,0:0:0:0:
400,160,66639,1,8,0:0:0:0:
224,176,66789,1,0,0:0:0:0:
384,208,66939,1,0,0:0:0:0:
384,208,67089,1,0,0:0:0:0:
288,304,67239,1,8,0:0:0:0:
288,304,67389,5,8,0:0:0:0:
144,256,67539,1,0,0:0:0:0:
304,272,67689,1,0,0:0:0:0:
160,224,67839,1,8,0:0:0:0:
320,240,67989,1,0,0:0:0:0:
176,192,68139,1,0,0:0:0:0:
288,128,68289,1,0,0:0:0:0:
288,128,68439,5,8,0:0:0:0:
224,32,68589,2,0,L|160:64,1,70
48,96,68889,2,0,L|112:160,1,70,0|8,0:0|0:0,0:0:0:0:
240,176,69189,2,0,L|192:256,1,70
80,272,69489,1,8,0:0:0:0:
224,352,69639,1,8,0:0:0:0:
241,349,69714,1,8,0:0:0:0:
256,340,69789,1,8,0:0:0:0:
268,327,69864,1,8,0:0:0:0:
275,311,69939,1,8,0:0:0:0:
368,336,70089,6,0,L|416:256,1,70,0|8,0:0|0:0,0:0:0:0:
480,192,70389,2,0,L|400:144,1,70
320,80,70689,1,0,0:0:0:0:
320,80,70839,1,8,0:0:0:0:
304,208,70989,5,0,0:0:0:0:
192,128,71139,1,0,0:0:0:0:
176,256,71289,1,0,0:0:0:0:
192,128,71439,1,8,0:0:0:0:
304,208,71589,1,0,0:0:0:0:
192,128,71739,1,0,0:0:0:0:
176,256,71889,1,0,0:0:0:0:
48,128,72189,6,0,L|80:272,1,140
78,264,72639,1,8,0:0:0:0:
208,336,72789,2,0,L|336:256,1,140
326,261,73239,1,8,0:0:0:0:
352,112,73389,2,0,L|224:192,1,140
233,186,73839,1,8,0:0:0:0:
80,128,73989,2,0,L|224:48,1,140
202,60,74439,1,8,0:0:0:0:
416,64,74739,6,0,P|448:128|432:192,1,140,0|8,0:0|0:0,0:0:0:0:
336,272,75189,1,0,0:0:0:0:
336,272,75339,1,0,0:0:0:0:
272,144,75489,5,0,0:0:0:0:
128,128,75639,1,8,0:0:0:0:
256,192,75789,1,0,0:0:0:0:
112,176,75939,1,0,0:0:0:0:
240,240,76089,1,0,0:0:0:0:
96,224,76239,1,8,0:0:0:0:
224,288,76389,1,0,0:0:0:0:
96,320,76539,1,0,0:0:0:0:
96,320,76689,5,0,0:0:0:0:
128,192,76839,1,8,0:0:0:0:
144,320,76989,1,0,0:0:0:0:
176,192,77139,1,0,0:0:0:0:
192,320,77289,1,0,0:0:0:0:
224,192,77439,1,8,0:0:0:0:
304,272,77589,1,0,0:0:0:0:
304,272,77739,5,0,0:0:0:0:
384,176,77889,1,0,0:0:0:0:
384,176,78039,1,8,0:0:0:0:
304,64,78189,2,0,L|240:112,1,70
128,96,78489,2,0,L|176:160,1,70,0|8,0:0|0:0,0:0:0:0:
256,240,78789,1,0,0:0:0:0:
304,256,78939,1,0,0:0:0:0:
352,272,79089,1,0,0:0:0:0:
384,240,79239,1,8,0:0:0:0:
400,208,79389,1,0,0:0:0:0:
464,112,79539,6,0,P|400:80|320:80,1,140,0|8,0:0|0:0,0:0:0:0:
224,32,79989,1,0,0:0:0:0:
256,160,80139,1,0,0:0:0:0:
112,112,80289,1,0,0:0:0:0:
112,112,80439,1,8,0:0:0:0:
64,224,80589,1,0,0:0:0:0:
64,224,80739,1,0,0:0:0:0:
192,288,81039,5,8,0:0:0:0:
192,288,81189,1,0,0:0:0:0:
432,272,81489,1,0,0:0:0:0:
336,144,81639,1,8,0:0:0:0:
304,288,81789,1,0,0:0:0:0:
448,160,81939,1,0,0:0:0:0:
352,32,82239,6,0,L|256:64,1,70,8|0,0:0|0:0,0:0:0:0:
128,96,82689,2,0,L|176:160,1,70,0|8,0:0|0:0,0:0:0:0:
352,128,83139,1,8,0:0:0:0:
448,304,83439,1,8,0:0:0:0:
208,304,83739,1,8,0:0:0:0:
208,304,83889,1,8,0:0:0:0:
176,112,84339,5,0,0:0:0:0:
304,176,84489,1,0,0:0:0:0:
304,64,84639,1,8,0:0:0:0:
432,128,84789,1,0,0:0:0:0:
432,272,84939,2,0,L|368:304,1,70
272,352,85239,2,0,L|208:288,1,70,8|0,0:0|0:0,0:0:0:0:
96,256,85689,5,0,0:0:0:0:
48,32,85989,1,0,0:0:0:0:
272,96,86289,5,0,0:0:0:0:
304,144,86439,1,8,0:0:0:0:
304,192,86589,1,0,0:0:0:0:
288,240,86739,2,0,L|224:288,1,70
128,176,87039,1,8,0:0:0:0:
240,64,87189,6,0,P|304:96|368:144,1,140
448,256,87639,1,8,0:0:0:0:
288,304,87789,1,0,0:0:0:0:
320,176,87939,1,8,0:0:0:0:
320,176,88089,1,8,0:0:0:0:
176,240,88239,1,8,0:0:0:0:
176,240,88389,1,8,0:0:0:0:
384,192,88539,5,12,0:0:0:0:
464,64,88689,1,12,0:0:0:0:
208,208,88839,5,12,0:0:0:0:
288,80,88989,1,12,0:0:0:0:
