osu file format v14

[General]
AudioFilename: MAD HEAD LOVE.mp3
AudioLeadIn: 0
PreviewTime: 55667
Countdown: 0
SampleSet: Normal
StackLeniency: 0.7
Mode: 0
LetterboxInBreaks: 0
WidescreenStoryboard: 0

[Editor]
Bookmarks: 3675,8200,17248,26296,35344,48916,82846,91894,100942,114514,121300,123562,150707,159755,177851,184637,188030,215174
DistanceSpacing: 0.9
BeatDivisor: 4
GridSize: 4
TimelineZoom: 1

[Metadata]
Title:MAD HEAD LOVE
TitleUnicode:ポッピンアパシー
Artist:Kenshi Yonezu
ArtistUnicode:米津玄師
Creator:Yoges
Version:Expert
Source:
Tags:cbh come[back]home come back home jrock jpop japanese hachi battle
BeatmapID:1039561
BeatmapSetID:487607

[Difficulty]
HPDrainRate:6
CircleSize:4.2
OverallDifficulty:8.3
ApproachRate:9.5
SliderMultiplier:1.5
SliderTickRate:1

[Events]
//Background and Video events
0,0,"2016-08-05_22-17-01.png",0,0
Video,0,"video.flv"
//Break Periods
2,83129,91046
2,150989,158624
2,184695,187505
//Storyboard Layer 0 (Background)
//Storyboard Layer 1 (Fail)
//Storyboard Layer 2 (Pass)
//Storyboard Layer 3 (Foreground)
//Storyboard Sound Samples

[TimingPoints]
3676,282.752120640905,4,1,1,50,1,0
8200,-100,4,1,1,50,0,1
17248,-125,4,1,1,40,0,0
35344,-142.857142857143,4,1,1,50,0,0
48350,-100,4,1,1,50,0,0
55702,-90.9090909090909,4,1,1,50,0,1
82846,-90.9090909090909,4,1,1,50,0,0
91894,-125,4,1,1,40,0,0
100942,-142.857142857143,4,1,1,40,0,0
114514,-100,4,1,1,40,0,0
121018,-76.9230769230769,4,1,1,40,0,0
121300,-83.3333333333333,4,1,1,40,0,0
121583,-90.9090909090909,4,1,1,40,0,0
121866,-100,4,1,1,40,0,0
122149,-111.111111111111,4,1,1,40,0,0
122431,-125,4,1,1,40,0,0
122714,-142.857142857143,4,1,1,40,0,0
122997,-166.666666666667,4,1,1,40,0,0
123562,-90.9090909090909,4,1,1,50,0,1
150707,-100,4,1,1,50,0,0
159755,-125,4,1,1,40,0,0
177851,-90.9090909090909,4,1,1,50,0,1
180113,-83.3333333333333,4,1,1,50,0,1
182375,-76.9230769230769,4,1,1,50,0,1
184637,-133.333333333333,4,1,1,50,0,0
188030,-90.9090909090909,4,1,1,50,0,1
215174,-200,4,1,1,50,0,0

[Colours]
Combo1 : 215,30,30
Combo2 : 216,180,56
Combo3 : 119,179,175
Combo4 : 86,188,84
Combo5 : 106,130,221
Combo6 : 241,218,218
Combo7 : 217,19,58
Combo8 : 247,153,153

[HitObjects]
238,100,3675,5,0,0:0:0:0:
194,228,3958,1,0,0:0:0:0:
150,140,4241,1,0,0:0:0:0:
238,312,4524,1,4,0:0:0:0:
256,192,4665,12,0,7917,3:0:0:0:
254,79,8200,6,0,P|276:134|249:194,1,112.5,4|0,0:0|2:0,0:0:0:0:
236,210,8482,2,0,P|272:198|311:203,1,75,8|0,0:0|0:0,0:0:0:0:
178,134,8765,1,0,0:0:0:0:
276,291,8906,1,0,0:0:0:0:
389,176,9048,1,8,0:0:0:0:
143,233,9189,2,2,B|143:289|143:289|154:301|154:301|154:348,1,112.5,2|0,0:0|2:0,0:0:0:0:
154,378,9472,1,0,0:0:0:0:
44,181,9613,6,0,L|43:281,1,75,8|0,0:0|0:0,0:0:0:0:
4,93,9896,2,0,P|45:100|95:53,1,112.5,0|0,0:0|2:0,0:0:0:0:
107,20,10179,2,0,P|125:60|159:70,1,75,8|0,0:0|0:0,0:0:0:0:
371,49,10462,6,0,B|322:48|322:48|306:56|306:56|241:54,1,112.5,4|0,0:0|2:0,0:0:0:0:
248,19,10744,2,0,L|244:136,1,112.5,8|0,0:0|2:0,0:0:0:0:
214,154,11027,1,0,0:0:0:0:
361,161,11168,1,0,0:0:0:0:
264,250,11310,1,8,0:0:0:0:
432,95,11451,2,2,P|456:165|428:232,1,150,2|0,0:0|0:0,0:0:0:0:
301,34,11875,70,0,P|341:30|385:30,1,75,8|0,0:0|0:0,0:0:0:0:
210,13,12158,2,0,P|212:60|208:129,1,112.5,0|0,0:0|2:0,0:0:0:0:
176,144,12441,2,0,L|277:151,1,75,8|0,0:0|0:0,0:0:0:0:
420,268,12724,6,0,B|404:236|404:209|404:209|419:185|416:160,1,112.5,4|0,0:0|2:0,0:0:0:0:
412,123,13006,2,0,L|337:128,1,75,8|0,0:0|0:0,0:0:0:0:
504,252,13289,1,0,0:0:0:0:
338,336,13430,1,0,0:0:0:0:
477,327,13572,1,8,0:0:0:0:
265,262,13713,2,2,P|241:293|161:301,1,112.5,2|0,0:0|2:0,0:0:0:0:
136,293,13996,1,0,0:0:0:0:
176,144,14137,6,0,P|185:197|187:224,1,75,8|0,0:0|0:0,0:0:0:0:
236,34,14420,2,0,L|357:39,1,112.5,0|0,0:0|2:0,0:0:0:0:
381,21,14703,2,0,P|372:74|370:101,1,75,8|0,0:0|0:0,0:0:0:0:
473,170,14986,6,0,P|427:173|397:238,1,112.5,4|0,0:0|2:0,0:0:0:0:
393,263,15268,2,0,P|354:230|290:242,1,112.5,8|0,0:0|2:0,0:0:0:0:
271,265,15551,1,0,0:0:0:0:
341,137,15692,1,0,0:0:0:0:
355,346,15834,1,8,0:0:0:0:
170,169,15975,2,2,P|183:223|181:321,1,150,2|0,0:0|0:0,0:0:0:0:
25,270,16399,70,0,L|117:265,1,75,8|0,0:0|0:0,0:0:0:0:
140,47,16682,2,0,P|98:70|86:144,1,112.5,0|0,0:0|2:0,0:0:0:0:
95,164,16965,2,0,L|170:169,1,75,8|0,0:0|0:0,0:0:0:0:
369,119,17248,6,0,B|327:120|327:120|292:136|292:136|248:138,1,120,4|0,0:0|0:0,0:0:0:0:
307,210,17672,1,0,0:0:0:0:
167,110,17813,2,0,P|163:142|177:183,1,60
89,75,18096,2,0,P|77:105|80:148,1,60
268,84,18379,1,0,0:0:0:0:
167,110,18520,1,0,0:0:0:0:
372,56,18661,2,0,P|376:88|362:129,1,60
268,224,18944,2,0,L|352:220,1,60
408,216,19227,1,0,0:0:0:0:
160,192,19368,6,0,P|160:236|172:304,1,90
208,360,19651,1,0,0:0:0:0:
208,360,19722,1,0,0:0:0:0:
208,360,19792,2,0,L|124:356,1,60
352,280,20075,1,0,0:0:0:0:
328,372,20216,1,0,0:0:0:0:
300,188,20358,1,0,0:0:0:0:
272,312,20499,1,0,0:0:0:0:
272,48,20641,6,0,P|284:84|289:130,1,60
496,112,20923,2,0,L|396:108,1,90,0|0,0:0|2:0,0:0:0:0:
352,160,21206,2,0,L|452:156,1,90,0|0,0:0|2:0,0:0:0:0:
464,228,21489,2,0,P|459:265|462:312,1,60
360,8,21772,70,0,P|365:52|368:108,1,90,4|0,0:0|2:0,0:0:0:0:
364,136,22054,1,0,0:0:0:0:
464,36,22196,1,0,0:0:0:0:
280,220,22337,2,0,B|303:249|324:254|324:254|366:233,1,90,0|0,0:0|2:0,0:0:0:0:
389,218,22620,1,0,0:0:0:0:
176,136,22761,2,0,P|173:184|176:236,1,90,0|0,0:0|2:0,0:0:0:0:
180,264,23044,5,0,0:0:0:0:
84,100,23185,1,0,0:0:0:0:
72,264,23327,1,0,0:0:0:0:
256,176,23468,1,0,0:0:0:0:
96,184,23610,1,0,0:0:0:0:
260,288,23751,1,0,0:0:0:0:
284,96,23892,1,0,0:0:0:0:
340,328,24034,6,0,P|388:332|428:288,1,90,4|0,0:0|2:0,0:0:0:0:
440,276,24316,1,0,0:0:0:0:
265,377,24458,1,0,0:0:0:0:
184,205,24599,2,0,B|196:241|196:241|196:269|188:309,1,90,0|0,0:0|2:0,0:0:0:0:
184,333,24882,1,0,0:0:0:0:
283,155,25023,2,0,L|379:159,1,90,0|0,0:0|2:0,0:0:0:0:
412,161,25306,1,0,0:0:0:0:
199,58,25447,2,0,P|202:112|201:143,1,60
44,104,25730,2,0,L|109:99,1,60
24,196,26013,1,0,0:0:0:0:
321,109,26296,6,0,P|316:152|316:191,2,60,4|0|0,0:0|0:0|0:0,0:0:0:0:
373,50,26720,1,0,0:0:0:0:
243,207,26861,2,0,L|172:203,1,60
379,217,27144,1,0,0:0:0:0:
280,291,27285,1,0,0:0:0:0:
287,76,27427,2,0,P|282:119|282:158,1,60
425,127,27709,2,0,P|394:125|362:122,1,60
502,100,27992,1,0,0:0:0:0:
342,200,28134,1,0,0:0:0:0:
333,239,28204,1,0,0:0:0:0:
342,277,28275,1,0,0:0:0:0:
456,347,28416,70,0,P|397:348|354:355,1,90
283,315,28699,1,0,0:0:0:0:
283,315,28770,1,0,0:0:0:0:
283,315,28840,2,0,P|285:356|290:382,1,60
336,244,29123,1,0,0:0:0:0:
187,258,29265,1,0,0:0:0:0:
200,148,29406,1,0,0:0:0:0:
176,336,29547,1,0,0:0:0:0:
108,100,29689,6,0,P|110:123|117:168,1,60
240,76,29971,2,0,P|285:76|331:74,1,90,0|0,0:0|2:0,0:0:0:0:
391,118,30254,2,0,P|346:116|301:116,1,90,0|0,0:0|2:0,0:0:0:0:
267,184,30537,2,0,L|270:253,1,60
488,232,30820,6,0,B|457:219|432:217|432:217|390:233,1,90,4|0,0:0|2:0,0:0:0:0:
368,246,31102,1,0,0:0:0:0:
468,132,31244,1,0,0:0:0:0:
308,312,31385,2,0,P|288:272|288:220,1,90,0|0,0:0|2:0,0:0:0:0:
296,188,31668,1,0,0:0:0:0:
96,288,31809,2,0,B|136:276|136:276|168:280|208:296,1,90,0|0,0:0|2:0,0:0:0:0:
220,300,32092,5,0,0:0:0:0:
84,204,32233,1,0,0:0:0:0:
44,372,32375,1,0,0:0:0:0:
131,277,32516,1,0,0:0:0:0:
0,256,32658,1,0,0:0:0:0:
139,364,32799,1,0,0:0:0:0:
192,191,32940,1,0,0:0:0:0:
252,320,33082,70,0,P|300:324|356:320,1,90,4|0,0:0|2:0,0:0:0:0:
380,316,33364,1,0,0:0:0:0:
168,372,33506,1,0,0:0:0:0:
156,160,33647,2,0,B|164:196|164:196|160:229|152:256,1,90,0|0,0:0|2:0,0:0:0:0:
144,284,33930,1,0,0:0:0:0:
340,76,34071,2,0,P|328:108|260:112,1,90,0|0,0:0|2:0,0:0:0:0:
240,116,34354,1,0,0:0:0:0:
408,172,34495,1,0,0:0:0:0:
316,232,34637,1,0,0:0:0:0:
488,124,34778,5,0,0:0:0:0:
460,284,34920,1,0,0:0:0:0:
381,231,35061,1,0,0:0:0:0:
512,217,35202,1,0,0:0:0:0:
336,68,35344,6,0,P|332:104|272:128,1,104.999996795654,4|0,0:0|0:0,0:0:0:0:
200,100,35768,1,0,0:0:0:0:
104,188,35909,2,0,L|108:248,1,52.4999983978272
180,300,36192,2,0,L|176:360,1,52.4999983978272
332,224,36475,6,0,B|368:220|368:220|404:228|404:228|440:224,1,104.999996795654
512,212,36899,1,0,0:0:0:0:
308,328,37040,2,0,L|232:324,1,52.4999983978272
376,380,37323,1,0,0:0:0:0:
216,76,37606,70,0,P|224:116|208:196,1,104.999996795654,4|0,0:0|0:0,0:0:0:0:
180,248,38030,1,0,0:0:0:0:
28,312,38171,2,0,P|61:290|113:301,1,78.7499975967408,0|0,0:0|2:0,0:0:0:0:
135,311,38454,1,0,0:0:0:0:
56,96,38595,2,0,L|60:188,1,78.7499975967408,0|0,0:0|2:0,0:0:0:0:
92,152,38878,2,0,L|196:152,1,104.999996795654
300,28,39302,2,0,L|236:28,1,52.4999983978272
356,92,39585,1,0,0:0:0:0:
188,284,39868,6,0,P|220:288|268:224,1,104.999996795654,4|0,0:0|0:0,0:0:0:0:
276,160,40292,1,0,0:0:0:0:
372,256,40433,2,0,L|376:308,1,52.4999983978272
460,128,40716,2,0,L|456:180,1,52.4999983978272
392,32,40999,6,0,L|276:36,1,104.999996795654
208,36,41423,1,0,0:0:0:0:
172,200,41564,2,0,P|176:168|176:136,1,52.4999983978272
256,336,41847,2,0,P|252:304|252:272,1,52.4999983978272
316,164,42130,6,0,P|352:160|404:160,2,78.7499975967408,4|0|0,0:0|0:0|0:0,0:0:0:0:
224,44,42695,2,0,P|260:48|312:48,2,78.7499975967408
96,216,43261,2,0,P|140:200|148:140,1,104.999996795654
116,76,43685,1,0,0:0:0:0:
28,264,43826,2,0,P|36:296|44:316,1,52.4999983978272
12,184,44109,1,0,0:0:0:0:
164,368,44392,70,0,P|200:348|208:272,1,104.999996795654,4|0,0:0|0:0,0:0:0:0:
196,212,44816,1,0,0:0:0:0:
300,304,44957,2,0,L|352:307,1,52.4999983978272
412,196,45240,2,0,L|359:199,1,52.4999983978272
200,12,45523,6,0,P|212:60|204:116,1,104.999996795654
160,180,45947,1,0,0:0:0:0:
36,144,46088,2,0,L|96:140,1,52.4999983978272
88,24,46371,1,0,0:0:0:0:
160,264,46654,6,0,P|150:313|102:328,1,104.999996795654,4|0,0:0|0:0,0:0:0:0:
28,300,47078,1,0,0:0:0:0:
220,208,47219,2,0,L|316:204,1,78.7499975967408,0|0,0:0|2:0,0:0:0:0:
340,204,47502,1,0,0:0:0:0:
272,112,47643,1,0,0:0:0:0:
232,292,47785,1,0,0:0:0:0:
136,136,47926,2,0,P|140:180|136:244,1,104.999996795654
276,80,48350,6,0,L|200:76,1,75
300,196,48633,1,0,0:0:0:0:
64,32,48916,70,0,B|39:114|108:90|80:192,1,150,4|0,0:0|0:0,0:0:0:0:
60,244,49340,1,0,0:0:0:0:
244,184,49481,2,0,L|164:180,1,75
344,116,49764,2,0,P|328:164|328:208,1,75
396,300,50047,5,0,0:0:0:0:
492,232,50188,1,0,0:0:0:0:
220,232,50330,2,0,P|240:264|232:336,1,112.5,0|0,0:0|2:0,0:0:0:0:
212,364,50612,1,0,0:0:0:0:
96,288,50754,1,0,0:0:0:0:
396,280,50895,2,0,L|272:284,1,112.5,0|0,0:0|2:0,0:0:0:0:
244,284,51178,6,0,P|250:335|229:375,1,75,4|0,0:0|0:0,0:0:0:0:
135,178,51461,2,0,L|209:175,1,75
283,35,51743,2,0,B|276:70|276:70|287:118,1,75
456,120,52026,2,0,L|379:117,1,75
128,196,52309,2,0,L|205:193,1,75
464,104,52592,2,0,L|387:101,1,75
120,212,52874,2,0,L|197:209,1,75
472,88,53157,2,0,L|395:85,1,75
300,328,53440,6,0,P|348:320|368:248,1,112.5,4|0,0:0|2:0,0:0:0:0:
368,228,53723,1,0,0:0:0:0:
220,256,53864,1,0,0:0:0:0:
220,256,54005,2,0,P|167:244|147:194,1,112.5,4|0,0:0|2:0,0:0:0:0:
152,155,54288,1,0,0:0:0:0:
292,136,54430,1,0,0:0:0:0:
292,136,54571,70,0,L|384:132,1,75,4|0,0:0|2:0,0:0:0:0:
156,28,54854,2,0,L|248:32,1,75,0|0,0:0|2:0,0:0:0:0:
72,172,55136,2,0,L|164:168,1,75,0|0,0:0|2:0,0:0:0:0:
28,92,55419,5,0,0:0:0:0:
19,115,55702,38,0,L|31:243,1,123.75000377655,4|0,0:0|2:0,0:0:0:0:
7,275,55985,2,0,P|75:259|119:275,1,82.5000025177003,8|0,0:0|0:0,0:0:0:0:
275,191,56267,2,0,P|243:231|251:299,1,123.75000377655,0|0,0:0|2:0,0:0:0:0:
275,335,56550,1,8,0:0:0:0:
163,231,56692,1,0,0:0:0:0:
323,259,56833,6,2,B|383:267|383:267|411:255|427:215,1,123.75000377655,2|0,0:0|2:0,0:0:0:0:
427,144,57116,2,0,L|299:148,1,123.75000377655,8|0,0:0|2:0,0:0:0:0:
239,108,57398,2,0,L|362:111,1,123.75000377655,0|0,0:0|2:0,0:0:0:0:
341,76,57681,1,8,0:0:0:0:
351,262,57823,1,0,0:0:0:0:
170,62,57964,2,0,B|134:163|199:132|164:222,1,165.000005035401,4|8,0:0|0:0,0:0:0:0:
130,296,58388,5,0,0:0:0:0:
91,168,58529,1,0,0:0:0:0:
92,365,58671,1,0,0:0:0:0:
215,273,58812,1,8,0:0:0:0:
32,294,58954,1,0,0:0:0:0:
285,208,59095,2,2,P|300:248|289:331,1,123.75000377655,2|0,0:0|2:0,0:0:0:0:
273,364,59378,2,0,L|191:358,1,82.5000025177003,8|0,0:0|0:0,0:0:0:0:
391,152,59660,2,0,P|380:193|402:274,1,123.75000377655,0|0,0:0|2:0,0:0:0:0:
427,301,59943,2,0,L|509:307,1,82.5000025177003,8|0,0:0|0:0,0:0:0:0:
433,76,60226,6,0,P|370:66|313:110,1,123.75000377655,4|0,0:0|2:0,0:0:0:0:
345,131,60509,2,0,P|315:93|230:87,1,123.75000377655,8|0,0:0|2:0,0:0:0:0:
225,45,60791,2,0,P|245:93|199:151,1,123.75000377655,0|0,0:0|2:0,0:0:0:0:
172,170,61074,1,8,0:0:0:0:
158,0,61216,1,0,0:0:0:0:
202,256,61357,2,0,B|148:255|148:255|132:263|132:263|64:262,1,123.75000377655,2|0,0:0|2:0,0:0:0:0:
49,234,61640,2,0,L|50:344,1,82.5000025177003,8|0,0:0|0:0,0:0:0:0:
194,97,61922,2,0,P|180:148|189:227,1,123.75000377655,0|0,0:0|2:0,0:0:0:0:
202,256,62205,69,8,0:0:0:0:
286,112,62347,1,0,0:0:0:0:
161,329,62488,2,0,B|241:364|246:291|339:326,1,165.000005035401,4|8,0:0|0:0,0:0:0:0:
396,354,62912,1,0,0:0:0:0:
432,135,63053,2,0,P|417:187|443:277,1,123.75000377655,0|0,0:0|2:0,0:0:0:0:
450,290,63336,1,8,0:0:0:0:
404,56,63478,1,0,0:0:0:0:
313,162,63619,2,0,P|285:183|197:149,1,123.75000377655,2|0,0:0|2:0,0:0:0:0:
203,120,63902,2,0,P|195:185|127:216,1,123.75000377655,8|0,0:0|2:0,0:0:0:0:
109,222,64184,5,8,0:0:0:0:
316,208,64326,1,0,0:0:0:0:
89,220,64467,1,8,0:0:0:0:
296,206,64609,1,0,0:0:0:0:
80,304,64750,6,0,P|89:354|121:378,1,82.5000025177003,4|0,0:0|0:0,0:0:0:0:
196,144,65033,2,0,L|105:148,1,82.5000025177003,8|0,0:0|0:0,0:0:0:0:
308,276,65315,2,0,L|217:272,1,82.5000025177003
332,55,65598,2,0,P|338:104|335:136,1,82.5000025177003,8|0,0:0|0:0,0:0:0:0:
324,352,65881,2,2,P|332:304|401:281,1,123.75000377655,2|0,0:0|2:0,0:0:0:0:
436,288,66164,1,0,0:0:0:0:
400,134,66305,2,2,B|353:140|353:140|317:134|317:134|266:140,1,123.75000377655,2|0,0:0|2:0,0:0:0:0:
236,148,66588,1,0,0:0:0:0:
96,16,66871,6,0,B|117:49|120:80|102:102|93:161,1,123.75000377655,4|0,0:0|0:0,0:0:0:0:
92,156,67153,1,0,0:0:0:0:
86,175,67224,1,0,0:0:0:0:
86,195,67295,1,8,0:0:0:0:
25,77,67436,1,0,0:0:0:0:
128,276,67577,2,0,P|176:268|216:272,1,82.5000025177003
272,120,67860,2,0,L|268:216,1,82.5000025177003,8|0,0:0|0:0,0:0:0:0:
496,232,68143,69,0,0:0:0:0:
356,244,68284,1,0,0:0:0:0:
508,236,68426,1,8,0:0:0:0:
368,248,68567,1,0,0:0:0:0:
480,352,68708,5,0,0:0:0:0:
340,340,68850,1,0,0:0:0:0:
468,356,68991,1,8,0:0:0:0:
328,344,69133,1,0,0:0:0:0:
440,192,69274,6,0,P|452:244|448:296,1,82.5000025177003,4|0,0:0|0:0,0:0:0:0:
256,196,69557,2,0,L|352:192,1,82.5000025177003,8|0,0:0|0:0,0:0:0:0:
148,144,69839,2,0,P|152:204|140:248,1,82.5000025177003
401,47,70122,2,0,L|305:43,1,82.5000025177003,8|0,0:0|0:0,0:0:0:0:
504,232,70405,2,0,B|452:208|444:256|360:228,1,123.75000377655,2|0,0:0|2:0,0:0:0:0:
344,224,70688,1,0,0:0:0:0:
229,49,70829,2,0,P|237:89|241:177,1,123.75000377655,2|0,0:0|2:0,0:0:0:0:
237,213,71112,1,0,0:0:0:0:
401,47,71395,6,0,P|472:66|482:126,1,123.75000377655,4|0,0:0|0:0,0:0:0:0:
486,127,71677,1,0,0:0:0:0:
486,147,71748,1,0,0:0:0:0:
485,167,71819,1,8,0:0:0:0:
325,6,71960,1,0,0:0:0:0:
310,250,72102,1,0,0:0:0:0:
397,174,72243,1,0,0:0:0:0:
211,148,72384,2,0,P|254:147|297:150,1,82.5000025177003,8|0,0:0|0:0,0:0:0:0:
215,260,72667,69,0,0:0:0:0:
197,60,72808,1,0,0:0:0:0:
55,214,72950,2,0,P|95:225|136:224,1,82.5000025177003,8|0,0:0|0:0,0:0:0:0:
53,112,73233,1,0,0:0:0:0:
59,315,73374,1,0,0:0:0:0:
239,142,73515,2,0,L|242:224,1,82.5000025177003,8|0,0:0|0:0,0:0:0:0:
483,251,73798,6,0,P|458:210|376:202,1,123.75000377655,4|0,0:0|2:0,0:0:0:0:
348,211,74081,2,0,L|352:295,1,82.5000025177003,8|0,0:0|0:0,0:0:0:0:
148,128,74364,2,0,P|211:130|246:175,1,123.75000377655,0|0,0:0|2:0,0:0:0:0:
254,214,74646,1,8,0:0:0:0:
265,47,74788,1,0,0:0:0:0:
79,342,74929,6,2,B|77:283|77:283|83:271|83:271|81:217,1,123.75000377655,2|0,0:0|2:0,0:0:0:0:
23,170,75212,2,0,P|67:182|140:147,1,123.75000377655,8|0,0:0|2:0,0:0:0:0:
180,89,75495,2,0,B|177:140|177:140|184:152|184:152|182:211,1,123.75000377655,0|0,0:0|2:0,0:0:0:0:
181,287,75777,1,8,0:0:0:0:
66,94,75919,1,0,0:0:0:0:
284,154,76060,2,0,B|375:180|365:107|446:131,1,165.000005035401,4|8,0:0|0:0,0:0:0:0:
374,45,76484,5,0,0:0:0:0:
405,262,76626,1,0,0:0:0:0:
499,201,76767,1,0,0:0:0:0:
499,201,76838,1,0,0:0:0:0:
499,201,76908,1,8,0:0:0:0:
259,224,77050,1,0,0:0:0:0:
252,22,77191,70,2,P|209:35|203:124,1,123.75000377655,2|0,0:0|2:0,0:0:0:0:
204,144,77474,2,0,P|253:131|289:131,1,82.5000025177003,8|0,0:0|0:0,0:0:0:0:
147,304,77757,2,0,P|142:254|126:180,1,123.75000377655,0|0,0:0|2:0,0:0:0:0:
86,190,78039,2,0,P|44:188|5:176,1,82.5000025177003,8|0,0:0|0:0,0:0:0:0:
228,265,78322,6,0,L|352:263,1,123.75000377655,4|0,0:0|2:0,0:0:0:0:
393,261,78605,1,8,0:0:0:0:
304,376,78746,1,0,0:0:0:0:
287,89,78888,2,0,P|295:140|359:155,1,123.75000377655,0|0,0:0|2:0,0:0:0:0:
397,145,79170,1,8,0:0:0:0:
209,168,79312,1,0,0:0:0:0:
195,0,79453,6,2,P|176:44|103:49,1,123.75000377655,2|0,0:0|2:0,0:0:0:0:
90,13,79736,2,0,P|108:58|66:133,1,123.75000377655,8|0,0:0|2:0,0:0:0:0:
44,145,80019,2,0,P|91:146|134:156,1,82.5000025177003
4,56,80301,1,8,0:0:0:0:
0,232,80443,1,0,0:0:0:0:
265,104,80584,6,0,B|311:160|233:202|275:269,1,165.000005035401,4|8,0:0|0:0,0:0:0:0:
362,202,81008,1,0,0:0:0:0:
176,180,81150,2,0,P|166:234|190:308,1,123.75000377655,0|0,0:0|2:0,0:0:0:0:
209,331,81432,1,8,0:0:0:0:
81,208,81574,1,0,0:0:0:0:
313,228,81715,2,0,B|356:230|356:230|396:210|396:210|445:212,1,123.75000377655,2|0,0:0|2:0,0:0:0:0:
459,180,81998,2,0,P|448:242|472:302,1,123.75000377655,8|0,0:0|2:0,0:0:0:0:
496,330,82281,2,0,L|401:335,1,82.5000025177003
512,114,82563,1,8,0:0:0:0:
306,344,82846,69,4,0:0:0:0:
312,191,91894,54,0,P|361:209|370:277,1,120,4|0,0:0|0:0,0:0:0:0:
305,330,92318,1,0,0:0:0:0:
453,200,92460,2,0,L|526:202,1,60
414,90,92742,2,0,L|354:91,1,60
499,87,93025,1,0,0:0:0:0:
419,0,93167,1,0,0:0:0:0:
331,169,93308,2,0,P|333:213|341:238,1,60
193,126,93591,2,0,L|252:127,1,60
140,199,93873,1,0,0:0:0:0:
51,97,94015,6,0,P|50:142|44:194,1,90
25,268,94298,1,0,0:0:0:0:
25,268,94368,1,0,0:0:0:0:
25,268,94439,2,0,L|101:267,1,60
140,199,94722,1,0,0:0:0:0:
121,332,94863,1,0,0:0:0:0:
270,298,95004,1,0,0:0:0:0:
187,267,95146,1,0,0:0:0:0:
324,227,95287,6,0,P|353:222|383:224,1,60
509,355,95570,2,0,L|505:255,1,90,0|0,0:0|2:0,0:0:0:0:
466,201,95853,2,0,L|462:301,1,90,0|0,0:0|2:0,0:0:0:0:
404,341,96135,2,0,P|374:343|344:338,1,60
283,172,96418,6,0,P|285:215|251:258,1,90,4|0,0:0|2:0,0:0:0:0:
228,271,96701,1,0,0:0:0:0:
252,98,96842,1,0,0:0:0:0:
78,186,96984,2,0,L|175:188,1,90,0|0,0:0|2:0,0:0:0:0:
203,189,97266,1,0,0:0:0:0:
4,4,97408,2,0,P|2:53|13:112,1,90,0|0,0:0|2:0,0:0:0:0:
18,128,97691,69,0,0:0:0:0:
96,259,97832,1,0,0:0:0:0:
200,121,97973,1,0,0:0:0:0:
96,157,98115,1,0,0:0:0:0:
283,179,98256,1,0,0:0:0:0:
215,42,98397,1,0,0:0:0:0:
178,208,98539,1,0,0:0:0:0:
376,117,98680,6,0,P|386:159|367:215,1,90,4|0,0:0|2:0,0:0:0:0:
354,233,98963,1,0,0:0:0:0:
315,55,99104,1,0,0:0:0:0:
442,240,99246,2,0,P|432:283|443:326,1,90,0|0,0:0|2:0,0:0:0:0:
464,355,99528,1,0,0:0:0:0:
499,149,99670,2,0,L|404:154,1,90,0|0,0:0|2:0,0:0:0:0:
373,156,99953,1,0,0:0:0:0:
423,66,100094,1,0,0:0:0:0:
504,234,100235,1,0,0:0:0:0:
316,300,100377,5,0,0:0:0:0:
428,262,100518,1,0,0:0:0:0:
240,264,100659,1,0,0:0:0:0:
388,342,100801,1,0,0:0:0:0:
164,120,100942,6,0,P|168:160|164:232,1,104.999996795654,4|0,0:0|0:0,0:0:0:0:
152,304,101366,1,0,0:0:0:0:
319,208,101508,2,0,L|255:205,1,52.4999983978272
377,292,101790,2,0,L|430:290,1,52.4999983978272
152,304,102073,69,0,0:0:0:0:
285,298,102215,1,0,0:0:0:0:
233,236,102356,1,0,0:0:0:0:
205,365,102497,1,0,0:0:0:0:
341,180,102639,2,0,P|335:213|322:247,1,52.4999983978272
358,83,102921,2,0,L|415:85,1,52.4999983978272
190,173,103204,6,0,P|154:161|133:87,1,104.999996795654,4|0,0:0|0:0,0:0:0:0:
150,26,103628,1,0,0:0:0:0:
71,194,103770,2,0,P|77:230|78:269,1,52.4999983978272
22,126,104053,1,0,0:0:0:0:
114,321,104194,2,0,L|172:317,1,52.4999983978272
56,379,104477,2,0,L|3:382,2,52.4999983978272
223,211,104901,2,0,P|226:253|229:281,1,52.4999983978272
168,149,105184,1,0,0:0:0:0:
325,364,105466,6,0,P|365:368|416:319,1,104.999996795654,4|0,0:0|0:0,0:0:0:0:
422,250,105890,1,0,0:0:0:0:
245,343,106032,2,0,P|205:347|154:298,1,104.999996795654
148,229,106456,1,0,0:0:0:0:
314,129,106597,5,0,0:0:0:0:
307,240,106739,1,0,0:0:0:0:
218,187,106880,1,0,0:0:0:0:
363,191,107021,1,0,0:0:0:0:
239,16,107163,2,0,P|241:58|246:81,1,52.4999983978272
438,70,107446,2,0,L|383:69,1,52.4999983978272
424,252,107728,70,0,P|452:241|517:250,2,78.7499975967408,4|0|0,0:0|0:0|0:0,0:0:0:0:
328,116,108294,2,0,P|315:78|318:40,2,78.7499975967408
227,210,108859,2,0,B|173:229|173:195|107:214,1,104.999996795654
50,240,109283,1,0,0:0:0:0:
121,73,109425,2,0,L|127:127,1,52.4999983978272
59,10,109708,1,0,0:0:0:0:
242,305,109990,6,0,P|276:297|313:224,1,104.999996795654,4|0,0:0|0:0,0:0:0:0:
308,164,110414,1,0,0:0:0:0:
124,260,110556,2,0,L|184:256,1,52.4999983978272
92,156,110839,2,0,L|39:152,1,52.4999983978272
235,36,111121,5,0,0:0:0:0:
243,150,111263,1,0,0:0:0:0:
152,93,111404,1,0,0:0:0:0:
296,90,111545,1,0,0:0:0:0:
248,232,111687,2,0,L|252:288,1,52.4999983978272
152,93,111970,2,0,L|155:145,1,52.4999983978272
348,162,112252,6,0,P|380:146|404:78,1,104.999996795654,4|0,0:0|0:0,0:0:0:0:
396,8,112676,1,0,0:0:0:0:
432,224,112818,2,0,L|440:284,1,52.4999983978272
480,144,113101,1,0,0:0:0:0:
348,162,113242,1,0,0:0:0:0:
432,224,113383,1,0,0:0:0:0:
268,100,113525,2,0,L|268:160,1,52.4999983978272
92,124,113807,69,0,0:0:0:0:
64,128,113878,1,0,0:0:0:0:
40,132,113949,1,0,0:0:0:0:
180,108,114090,1,0,0:0:0:0:
128,196,114232,1,0,0:0:0:0:
92,36,114373,1,0,0:0:0:0:
52,248,114514,6,0,P|81:281|182:271,1,150,4|0,0:0|0:0,0:0:0:0:
231,220,114938,1,0,0:0:0:0:
392,272,115080,2,0,P|429:272|466:268,1,75
324,112,115363,2,0,L|332:212,1,75
240,68,115645,5,0,0:0:0:0:
388,56,115787,1,0,0:0:0:0:
152,24,115928,2,0,P|160:76|148:144,1,112.5,0|0,0:0|2:0,0:0:0:0:
136,168,116211,1,0,0:0:0:0:
40,96,116352,1,0,0:0:0:0:
212,224,116494,2,0,P|204:276|216:344,1,112.5,0|0,0:0|2:0,0:0:0:0:
228,368,116776,6,0,L|308:364,1,75,4|0,0:0|0:0,0:0:0:0:
417,260,117059,2,0,P|421:308|413:352,1,75
358,159,117342,2,0,L|278:155,1,75
220,372,117625,2,0,L|300:368,1,75
366,155,117907,2,0,L|286:151,1,75
212,376,118190,2,0,L|292:372,1,75
374,151,118473,2,0,L|294:147,1,75
204,380,118756,2,0,L|284:376,1,75
300,148,119038,70,0,P|316:196|292:256,1,112.5,4|0,0:0|2:0,0:0:0:0:
268,276,119321,1,0,0:0:0:0:
196,68,119462,1,0,0:0:0:0:
196,68,119604,2,0,P|180:120|200:172,1,112.5,4|0,0:0|2:0,0:0:0:0:
228,195,119887,1,0,0:0:0:0:
335,11,120028,1,0,0:0:0:0:
335,11,120169,6,0,L|239:7,1,75,4|0,0:0|0:0,0:0:0:0:
392,160,120452,2,0,L|296:164,1,75
512,64,120735,2,0,L|416:60,1,75
428,248,121018,6,0,L|420:364,1,97.4999955368044
284,168,121300,6,0,L|288:272,1,89.9999972534181
452,176,121583,70,0,L|444:280,1,82.5000025177003
264,96,121866,6,0,L|268:200,1,75
476,104,122149,6,0,L|468:200,1,67.4999979400635
272,20,122431,6,0,L|276:100,1,60
468,29,122714,70,0,L|461:102,1,52.4999983978272
344,216,122997,6,0,L|347:273,1,44.999998626709
240,16,123280,5,0,0:0:0:0:
225,36,123562,22,0,B|205:84|249:100|217:164,1,123.75000377655,4|0,0:0|2:0,0:0:0:0:
201,192,123845,2,0,L|105:188,1,82.5000025177003,8|0,0:0|0:0,0:0:0:0:
17,328,124128,2,0,P|65:300|125:332,1,123.75000377655,0|0,0:0|2:0,0:0:0:0:
141,364,124411,1,8,0:0:0:0:
1,232,124552,1,0,0:0:0:0:
232,296,124693,6,2,L|360:300,1,123.75000377655,2|0,0:0|2:0,0:0:0:0:
428,276,124976,2,0,L|300:280,1,123.75000377655,8|0,0:0|2:0,0:0:0:0:
260,216,125259,2,0,P|248:176|296:112,1,123.75000377655,0|0,0:0|2:0,0:0:0:0:
368,100,125542,1,8,0:0:0:0:
184,232,125683,1,0,0:0:0:0:
64,68,125824,2,0,B|52:116|52:116|80:144|112:152|112:152|116:216,1,165.000005035401,4|8,0:0|0:0,0:0:0:0:
120,280,126249,5,0,0:0:0:0:
156,120,126390,1,0,0:0:0:0:
16,208,126531,1,0,0:0:0:0:
236,172,126673,1,8,0:0:0:0:
64,68,126814,1,0,0:0:0:0:
256,264,126955,2,0,P|300:240|324:160,1,123.75000377655,2|0,0:0|2:0,0:0:0:0:
320,132,127238,2,0,L|237:135,1,82.5000025177003,8|0,0:0|0:0,0:0:0:0:
16,208,127521,2,0,P|28:148|84:120,1,123.75000377655,0|0,0:0|2:0,0:0:0:0:
120,116,127804,2,0,P|164:88|176:52,1,82.5000025177003,8|0,0:0|0:0,0:0:0:0:
40,288,128086,6,0,L|180:284,1,123.75000377655,4|0,0:0|2:0,0:0:0:0:
186,319,128369,2,0,P|161:277|182:208,1,123.75000377655,8|0,0:0|2:0,0:0:0:0:
216,186,128652,2,0,B|248:202|280:200|280:200|308:185|356:190,1,123.75000377655,0|0,0:0|2:0,0:0:0:0:
376,193,128935,1,8,0:0:0:0:
191,105,129076,1,0,0:0:0:0:
400,271,129217,2,0,P|451:229|452:167,1,123.75000377655,2|0,0:0|2:0,0:0:0:0:
448,135,129500,2,0,P|480:171|536:171,1,82.5000025177003,8|0,0:0|0:0,0:0:0:0:
416,52,129783,2,0,B|350:36|353:72|288:56,1,123.75000377655,0|0,0:0|2:0,0:0:0:0:
256,44,130066,69,8,0:0:0:0:
484,0,130207,1,0,0:0:0:0:
280,136,130348,2,0,P|248:184|300:292,1,165.000005035401,4|8,0:0|0:0,0:0:0:0:
336,340,130773,1,0,0:0:0:0:
156,196,130914,2,0,B|156:236|156:236|168:280|168:280|168:340,1,123.75000377655,0|0,0:0|2:0,0:0:0:0:
168,360,131197,1,8,0:0:0:0:
332,208,131338,1,0,0:0:0:0:
184,116,131479,2,0,P|108:124|76:172,1,123.75000377655,2|0,0:0|2:0,0:0:0:0:
40,164,131762,2,0,P|116:172|148:220,1,123.75000377655,8|0,0:0|2:0,0:0:0:0:
156,244,132045,5,8,0:0:0:0:
112,76,132186,1,0,0:0:0:0:
112,300,132328,1,8,0:0:0:0:
156,132,132469,1,0,0:0:0:0:
40,292,132610,6,0,P|35:332|40:373,1,82.5000025177003,4|0,0:0|0:0,0:0:0:0:
0,92,132893,2,0,P|4:132|0:173,1,82.5000025177003,8|0,0:0|0:0,0:0:0:0:
188,16,133176,2,0,L|92:20,1,82.5000025177003
312,140,133459,2,0,L|216:136,1,82.5000025177003,8|0,0:0|0:0,0:0:0:0:
448,48,133741,2,2,B|428:112|468:112|448:184,1,123.75000377655,2|0,0:0|2:0,0:0:0:0:
440,208,134024,1,0,0:0:0:0:
168,88,134166,2,2,P|120:93|88:166,1,123.75000377655,2|0,0:0|2:0,0:0:0:0:
88,198,134448,1,0,0:0:0:0:
296,296,134731,6,0,B|256:292|256:292|212:300|212:300|148:296,1,123.75000377655
164,316,135014,1,0,0:0:0:0:
160,336,135085,1,0,0:0:0:0:
160,356,135155,1,8,0:0:0:0:
176,176,135297,1,0,0:0:0:0:
356,352,135438,2,0,P|408:348|452:348,1,82.5000025177003
240,236,135721,2,0,P|292:240|336:240,1,82.5000025177003,8|0,0:0|0:0,0:0:0:0:
432,72,136003,69,0,0:0:0:0:
428,212,136145,1,0,0:0:0:0:
440,80,136286,1,8,0:0:0:0:
436,220,136428,1,0,0:0:0:0:
332,20,136569,5,0,0:0:0:0:
336,160,136711,1,0,0:0:0:0:
324,28,136852,1,8,0:0:0:0:
328,168,136994,1,0,0:0:0:0:
471,14,137135,6,0,P|504:46|511:101,1,82.5000025177003,4|0,0:0|0:0,0:0:0:0:
328,168,137417,2,0,L|436:164,1,82.5000025177003,8|0,0:0|0:0,0:0:0:0:
204,48,137700,2,0,L|121:44,1,82.5000025177003
179,209,137983,2,0,P|180:250|176:291,1,82.5000025177003,8|0,0:0|0:0,0:0:0:0:
410,321,138266,2,2,B|355:333|355:285|288:293,1,123.75000377655,2|0,0:0|2:0,0:0:0:0:
255,311,138548,1,0,0:0:0:0:
491,142,138690,2,2,P|482:207|485:272,1,123.75000377655,2|0,0:0|2:0,0:0:0:0:
491,305,138972,1,0,0:0:0:0:
179,102,139255,6,0,P|235:101|285:170,1,123.75000377655
284,166,139538,1,0,0:0:0:0:
286,186,139609,1,0,0:0:0:0:
288,206,139679,1,8,0:0:0:0:
272,68,139821,1,0,0:0:0:0:
264,292,139962,1,0,0:0:0:0:
376,248,140103,1,0,0:0:0:0:
176,248,140245,2,0,P|183:302|184:341,1,82.5000025177003,8|0,0:0|0:0,0:0:0:0:
97,196,140528,69,0,0:0:0:0:
228,168,140669,1,0,0:0:0:0:
3,177,140810,2,0,P|7:227|6:260,1,82.5000025177003,8|0,0:0|0:0,0:0:0:0:
128,32,141093,1,0,0:0:0:0:
110,186,141234,1,0,0:0:0:0:
33,1,141376,2,0,P|29:42|29:83,1,82.5000025177003,8|0,0:0|0:0,0:0:0:0:
236,188,141659,6,0,P|304:150|297:87,1,123.75000377655,4|0,0:0|2:0,0:0:0:0:
299,70,141941,2,0,P|255:72|209:71,1,82.5000025177003,8|0,0:0|0:0,0:0:0:0:
356,236,142224,2,0,P|408:212|481:237,1,123.75000377655,0|0,0:0|2:0,0:0:0:0:
503,253,142507,1,8,0:0:0:0:
405,130,142648,1,0,0:0:0:0:
236,324,142790,6,2,P|182:333|131:284,1,123.75000377655,2|0,0:0|2:0,0:0:0:0:
114,217,143072,2,0,L|251:212,1,123.75000377655,8|0,0:0|2:0,0:0:0:0:
307,180,143355,2,0,L|170:175,1,123.75000377655,0|0,0:0|2:0,0:0:0:0:
208,103,143638,1,8,0:0:0:0:
287,267,143779,1,0,0:0:0:0:
390,140,143921,2,0,B|481:151|431:229|520:237,1,165.000005035401,4|8,0:0|0:0,0:0:0:0:
342,70,144345,5,0,0:0:0:0:
385,257,144486,1,0,0:0:0:0:
455,187,144627,1,0,0:0:0:0:
265,227,144768,1,8,0:0:0:0:
408,338,144910,1,0,0:0:0:0:
277,143,145052,70,0,B|216:139|221:178|149:172,1,123.75000377655,2|0,0:0|2:0,0:0:0:0:
118,164,145334,2,0,P|147:192|167:239,1,82.5000025177003,8|0,0:0|0:0,0:0:0:0:
0,14,145617,2,0,B|58:-4|62:35|130:12,1,123.75000377655,0|0,0:0|2:0,0:0:0:0:
160,1,145900,2,0,P|131:29|111:76,1,82.5000025177003,8|0,0:0|0:0,0:0:0:0:
400,139,146183,6,0,L|274:143,1,123.75000377655,4|0,0:0|2:0,0:0:0:0:
235,143,146465,1,8,0:0:0:0:
340,250,146607,1,0,0:0:0:0:
450,72,146748,2,0,P|438:123|457:201,1,123.75000377655,0|0,0:0|2:0,0:0:0:0:
471,228,147031,1,8,0:0:0:0:
408,0,147172,1,0,0:0:0:0:
239,225,147314,6,0,P|187:212|156:145,1,123.75000377655,2|0,0:0|2:0,0:0:0:0:
155,112,147596,2,0,P|151:164|86:201,1,123.75000377655,8|0,0:0|2:0,0:0:0:0:
55,214,147879,2,0,P|15:243|6:287,1,82.5000025177003
216,340,148162,1,8,0:0:0:0:
64,356,148303,1,0,0:0:0:0:
324,183,148445,6,0,B|354:275|297:262|332:353,1,165.000005035401,4|8,0:0|0:0,0:0:0:0:
239,225,148869,1,0,0:0:0:0:
427,241,149010,2,0,P|471:236|504:167,1,123.75000377655,0|0,0:0|2:0,0:0:0:0:
503,129,149293,1,8,0:0:0:0:
512,317,149434,1,0,0:0:0:0:
362,108,149576,2,0,P|301:100|253:139,1,123.75000377655,2|0,0:0|2:0,0:0:0:0:
238,174,149858,2,0,B|231:212|235:223|278:248|262:317,1,123.75000377655,8|0,0:0|2:0,0:0:0:0:
260,332,150141,2,0,L|160:336,1,82.5000025177003
156,334,150353,69,0,0:0:0:0:
135,334,150424,1,8,0:0:0:0:
346,333,150565,1,0,0:0:0:0:
69,382,150707,1,4,0:0:0:0:
448,96,159472,53,0,0:0:0:0:
448,96,159755,2,0,L|520:100,1,60,4|0,0:0|0:0,0:0:0:0:
380,152,160037,5,0,0:0:0:0:
304,20,160179,2,0,B|336:104|268:120|304:200,1,180
336,264,160744,1,0,0:0:0:0:
423,221,160886,1,0,0:0:0:0:
256,260,161027,2,0,P|268:308|312:340,1,90,0|0,0:0|2:0,0:0:0:0:
332,348,161310,1,0,0:0:0:0:
179,299,161451,1,0,0:0:0:0:
103,383,161593,2,0,P|143:379|199:379,1,90,0|0,0:0|2:0,0:0:0:0:
231,383,161875,1,0,0:0:0:0:
37,337,162017,5,0,0:0:0:0:
141,161,162158,2,0,P|155:217|124:267,1,120
79,205,162582,1,0,0:0:0:0:
241,237,162724,1,0,0:0:0:0:
198,328,162865,1,0,0:0:0:0:
156,253,163006,1,0,0:0:0:0:
325,217,163148,2,0,P|329:257|329:285,1,60
329,107,163430,2,0,P|277:112|233:111,1,90,0|0,0:0|2:0,0:0:0:0:
201,111,163713,1,0,0:0:0:0:
309,34,163855,5,0,0:0:0:0:
287,154,163996,2,0,P|287:186|291:222,1,60
368,167,164279,1,4,0:0:0:0:
291,289,164420,1,0,0:0:0:0:
208,173,164561,2,0,B|104:149|144:209|32:185,1,180
90,274,165127,70,0,P|92:303|92:333,1,60
168,232,165410,1,0,0:0:0:0:
222,383,165551,1,0,0:0:0:0:
309,267,165692,2,0,P|248:335|165:310,1,180,0|0,0:3|0:0,0:0:0:0:
300,189,166258,2,0,L|372:185,1,60
182,171,166541,5,0,0:0:0:0:
230,259,166682,1,0,0:0:0:0:
142,249,166823,1,0,0:0:0:0:
294,215,166965,1,0,0:0:0:0:
290,341,167106,1,0,0:0:0:0:
294,138,167248,1,0,0:0:0:0:
294,215,167389,6,0,P|302:247|290:327,1,90,0|0,0:0|2:0,0:0:0:0:
290,341,167672,1,0,0:0:0:0:
294,138,167813,1,0,0:0:0:0:
387,225,167954,2,0,L|495:221,1,90,0|0,0:0|2:0,0:0:0:0:
476,260,168237,2,0,P|473:289|477:319,1,60
497,135,168520,1,0,0:0:0:0:
294,222,168803,2,0,L|228:226,1,60,4|0,0:0|0:0,0:0:0:0:
116,132,169085,5,0,0:0:0:0:
143,287,169227,2,0,P|221:305|234:226,1,180
158,204,169792,1,0,0:0:0:0:
329,283,169934,1,0,0:0:0:0:
329,283,170075,2,0,P|323:229|332:170,1,90,0|0,0:0|2:0,0:0:0:0:
334,156,170358,1,0,0:0:0:0:
233,225,170499,1,0,0:0:0:0:
233,225,170641,2,0,L|129:221,1,90,0|0,0:0|2:0,0:0:0:0:
104,219,170923,1,0,0:0:0:0:
24,93,171065,69,0,0:0:0:0:
24,93,171206,2,0,P|31:152|23:220,1,120
146,58,171630,1,0,0:0:0:0:
146,58,171771,2,0,P|139:117|147:185,1,120
216,264,172196,2,0,L|156:262,1,60
287,358,172479,2,0,L|192:353,1,90,0|0,0:0|2:0,0:0:0:0:
159,349,172761,1,0,0:0:0:0:
352,308,172903,5,0,0:0:0:0:
288,159,173044,2,0,P|292:203|292:255,1,90,0|0,0:0|2:0,0:0:0:0:
288,287,173327,1,4,0:0:0:0:
367,182,173468,1,0,0:0:0:0:
208,243,173610,2,0,L|85:242,1,120
9,236,174034,5,0,0:0:0:0:
137,173,174175,2,0,L|136:267,1,90,0|0,0:0|2:0,0:0:0:0:
137,302,174458,1,0,0:0:0:0:
233,212,174599,1,0,0:0:0:0:
300,321,174741,2,0,P|343:313|374:242,1,120
65,289,175306,6,0,L|173:291,1,90,0|0,0:0|2:0,0:0:0:0:
194,291,175589,1,0,0:0:0:0:
149,209,175730,1,0,0:0:0:0:
199,306,175872,1,0,0:0:0:0:
270,225,176013,1,0,0:0:0:0:
203,320,176154,1,0,0:0:0:0:
149,193,176296,1,0,0:0:0:0:
208,334,176437,1,0,0:0:0:0:
270,211,176578,1,0,0:0:0:0:
214,346,176720,70,0,P|169:368|120:368,1,90,0|0,0:0|2:0,0:0:0:0:
93,355,177003,2,0,P|93:310|88:265,1,90,0|0,0:0|2:0,0:0:0:0:
70,230,177285,2,0,L|129:223,1,60
6,300,177568,1,0,0:0:0:0:
255,193,177851,6,0,L|387:186,1,123.75000377655,4|0,0:0|2:0,0:0:0:0:
407,185,178134,1,8,0:0:0:0:
305,67,178275,1,0,0:0:0:0:
464,249,178416,2,0,P|463:291|458:331,1,82.5000025177003
492,32,178699,2,0,P|491:86|505:178,1,123.75000377655,8|0,0:0|2:0,0:0:0:0:
510,181,178982,5,0,0:0:0:0:
387,48,179123,1,0,0:0:0:0:
337,248,179265,2,2,P|312:287|227:291,1,123.75000377655,2|0,0:0|2:0,0:0:0:0:
213,288,179547,1,0,0:0:0:0:
296,148,179689,1,0,0:0:0:0:
417,331,179830,2,2,L|523:324,1,82.5000025177003,2|0,0:0|0:0,0:0:0:0:
116,180,180113,6,0,L|123:316,1,134.999995880127,4|0,0:0|2:0,0:0:0:0:
125,346,180396,1,8,0:0:0:0:
44,132,180537,1,0,0:0:0:0:
293,114,180678,2,0,L|201:120,1,89.9999972534181
484,268,180961,2,0,P|419:255|387:197,1,134.999995880127,8|0,0:0|2:0,0:0:0:0:
385,166,181244,69,0,0:0:0:0:
314,289,181385,1,0,0:0:0:0:
469,19,181527,2,2,B|460:82|489:91|479:163,1,134.999995880127,2|0,0:0|2:0,0:0:0:0:
474,183,181809,1,0,0:0:0:0:
280,101,181951,1,0,0:0:0:0:
223,287,182092,2,2,P|221:340|226:378,1,89.9999972534181,2|0,0:0|0:0,0:0:0:0:
73,226,182375,6,0,L|178:227,1,97.4999955368044,12|0,0:0|0:0,0:0:0:0:
64,61,182658,2,0,L|164:57,1,97.4999955368044,8|0,0:0|0:0,0:0:0:0:
47,236,182940,2,0,L|151:229,1,97.4999955368044,8|0,0:0|0:0,0:0:0:0:
35,52,183223,2,0,L|134:41,1,97.4999955368044,8|0,0:0|0:0,0:0:0:0:
362,220,183506,6,0,L|258:204,1,97.4999955368044,8|0,0:0|0:0,0:0:0:0:
389,37,183789,2,0,L|290:17,1,97.4999955368044,8|0,0:0|0:0,0:0:0:0:
342,370,184071,5,8,0:0:0:0:
320,105,184213,1,8,0:0:0:0:
256,314,184354,1,8,0:0:0:0:
512,297,184495,1,8,0:0:0:0:
148,172,188030,6,0,L|156:320,1,123.75000377655,4|0,0:0|2:0,0:0:0:0:
180,328,188313,2,0,P|120:316|88:328,1,82.5000025177003,8|0,0:0|0:0,0:0:0:0:
288,44,188595,2,0,L|280:192,1,123.75000377655,0|0,0:0|2:0,0:0:0:0:
280,208,188878,1,8,0:0:0:0:
140,84,189020,1,0,0:0:0:0:
272,296,189161,6,2,P|336:280|364:220,1,123.75000377655,2|0,0:0|2:0,0:0:0:0:
425,188,189444,2,0,L|297:184,1,123.75000377655,8|0,0:0|2:0,0:0:0:0:
233,151,189726,2,0,L|361:147,1,123.75000377655,0|0,0:0|2:0,0:0:0:0:
344,72,190009,1,8,0:0:0:0:
372,292,190151,1,0,0:0:0:0:
160,104,190292,2,0,B|128:192|192:192|160:284,1,165.000005035401,4|8,0:0|0:0,0:0:0:0:
136,340,190716,5,0,0:0:0:0:
56,184,190857,1,0,0:0:0:0:
0,352,190999,1,0,0:0:0:0:
232,323,191140,1,8,0:0:0:0:
64,280,191282,1,0,0:0:0:0:
312,344,191423,2,0,P|356:336|384:240,1,123.75000377655,2|0,0:0|2:0,0:0:0:0:
388,230,191706,2,0,P|396:282|420:314,1,82.5000025177003,8|0,0:0|0:0,0:0:0:0:
351,74,191988,2,0,P|307:82|279:178,1,123.75000377655,0|0,0:0|2:0,0:0:0:0:
230,158,192271,2,0,P|269:147|309:154,1,82.5000025177003,8|0,0:0|0:0,0:0:0:0:
144,4,192554,6,0,P|120:59|63:76,1,123.75000377655,4|0,0:0|2:0,0:0:0:0:
36,48,192837,2,0,L|36:194,1,123.75000377655,8|0,0:0|2:0,0:0:0:0:
11,204,193119,2,0,P|59:190|116:252,1,123.75000377655,0|0,0:0|2:0,0:0:0:0:
126,273,193402,1,8,0:0:0:0:
146,106,193544,1,0,0:0:0:0:
204,311,193685,2,0,B|268:328|268:294|331:308,1,123.75000377655,2|0,0:0|2:0,0:0:0:0:
354,282,193968,2,0,P|342:333|341:370,1,82.5000025177003,8|0,0:0|0:0,0:0:0:0:
346,178,194250,2,0,L|213:178,1,123.75000377655,0|0,0:0|2:0,0:0:0:0:
180,179,194533,69,8,0:0:0:0:
370,257,194675,1,0,0:0:0:0:
93,142,194816,2,0,B|66:225|128:224|91:320,1,165.000005035401,4|8,0:0|0:0,0:0:0:0:
49,371,195240,1,0,0:0:0:0:
180,179,195381,2,0,P|235:137|295:148,1,123.75000377655,0|0,0:0|2:0,0:0:0:0:
324,160,195664,1,8,0:0:0:0:
198,65,195806,1,0,0:0:0:0:
391,212,195947,2,0,L|395:340,1,123.75000377655,2|0,0:0|2:0,0:0:0:0:
430,313,196230,2,0,P|371:303|310:335,1,123.75000377655,8|0,0:0|2:0,0:0:0:0:
287,359,196512,5,8,0:0:0:0:
504,356,196654,1,0,0:0:0:0:
268,344,196795,1,8,0:0:0:0:
485,341,196937,1,0,0:0:0:0:
196,296,197078,6,0,P|144:312|92:312,1,82.5000025177003,4|0,0:0|0:0,0:0:0:0:
384,364,197361,2,0,P|332:348|280:348,1,82.5000025177003,8|0,0:0|0:0,0:0:0:0:
448,196,197643,2,0,L|444:280,1,82.5000025177003
388,24,197926,2,0,L|384:108,1,82.5000025177003,8|0,0:0|0:0,0:0:0:0:
192,144,198209,2,2,P|248:148|268:64,1,123.75000377655,2|0,0:0|2:0,0:0:0:0:
276,53,198492,1,0,0:0:0:0:
120,236,198633,2,2,P|180:230|264:236,1,123.75000377655,2|0,0:0|2:0,0:0:0:0:
284,239,198916,1,0,0:0:0:0:
23,4,199199,6,0,B|26:47|26:47|12:85|12:85|16:135,1,123.75000377655
18,145,199481,1,0,0:0:0:0:
21,165,199552,1,0,0:0:0:0:
24,185,199623,1,8,0:0:0:0:
104,88,199764,1,0,0:0:0:0:
148,267,199905,2,0,P|151:314|148:355,1,82.5000025177003
264,172,200188,2,0,L|180:168,1,82.5000025177003,8|0,0:0|0:0,0:0:0:0:
412,244,200471,69,0,0:0:0:0:
232,252,200612,1,0,0:0:0:0:
420,256,200754,1,8,0:0:0:0:
240,264,200895,1,0,0:0:0:0:
396,364,201036,5,0,0:0:0:0:
216,356,201177,1,0,0:0:0:0:
404,352,201319,1,8,0:0:0:0:
224,344,201460,1,0,0:0:0:0:
412,342,201602,6,0,P|464:330|504:330,1,82.5000025177003,4|0,0:0|0:0,0:0:0:0:
242,257,201885,2,0,P|281:267|322:269,1,82.5000025177003,8|0,0:0|0:0,0:0:0:0:
99,350,202167,2,0,P|151:338|191:338,1,82.5000025177003
18,202,202450,2,0,L|21:293,1,82.5000025177003,8|0,0:0|0:0,0:0:0:0:
276,92,202733,6,2,B|212:76|212:112|148:92,1,123.75000377655,2|0,0:0|2:0,0:0:0:0:
115,83,203016,1,0,0:0:0:0:
298,187,203157,2,2,P|349:161|367:91,1,123.75000377655,2|0,0:0|2:0,0:0:0:0:
364,59,203440,1,0,0:0:0:0:
80,292,203723,70,0,B|121:292|121:292|162:282|162:282|205:282,1,123.75000377655
222,282,204005,1,0,0:0:0:0:
242,282,204076,1,0,0:0:0:0:
262,282,204147,1,8,0:0:0:0:
176,384,204288,1,0,0:0:0:0:
328,204,204430,1,0,0:0:0:0:
360,320,204571,1,0,0:0:0:0:
80,292,204712,2,0,P|80:344|88:376,1,82.5000025177003,8|0,0:0|0:0,0:0:0:0:
144,64,204995,5,0,0:0:0:0:
152,232,205136,1,0,0:0:0:0:
0,176,205278,2,0,L|92:172,1,82.5000025177003,8|0,0:0|0:0,0:0:0:0:
368,200,205561,1,0,0:0:0:0:
232,188,205702,1,0,0:0:0:0:
332,36,205844,2,0,L|336:128,1,82.5000025177003,8|0,0:0|0:0,0:0:0:0:
496,260,206126,6,0,P|440:276|412:344,1,123.75000377655,4|0,0:0|2:0,0:0:0:0:
392,296,206409,2,0,L|288:296,1,82.5000025177003,8|0,0:0|0:0,0:0:0:0:
112,224,206692,2,0,P|168:240|196:308,1,123.75000377655,0|0,0:0|2:0,0:0:0:0:
196,336,206974,1,8,0:0:0:0:
208,164,207116,1,0,0:0:0:0:
24,252,207257,6,2,B|4:192|48:192|24:128,1,123.75000377655,2|0,0:0|2:0,0:0:0:0:
76,74,207540,2,0,P|140:85|199:74,1,123.75000377655,8|0,0:0|2:0,0:0:0:0:
243,13,207823,2,0,L|244:150,1,123.75000377655,0|0,0:0|2:0,0:0:0:0:
245,212,208105,1,8,0:0:0:0:
338,81,208247,1,0,0:0:0:0:
201,274,208388,2,0,P|221:336|328:343,1,165.000005035401,4|8,0:0|0:0,0:0:0:0:
458,268,208812,69,0,0:0:0:0:
278,283,208954,1,0,0:0:0:0:
440,343,209095,1,0,0:0:0:0:
395,171,209236,1,8,0:0:0:0:
380,384,209378,1,0,0:0:0:0:
313,153,209519,6,0,L|455:158,1,123.75000377655,2|0,0:0|2:0,0:0:0:0:
478,159,209802,2,0,P|461:202|463:251,1,82.5000025177003,8|0,0:0|0:0,0:0:0:0:
380,44,210085,2,0,L|238:49,1,123.75000377655,0|0,0:0|2:0,0:0:0:0:
215,51,210368,2,0,P|232:94|230:143,1,82.5000025177003,8|0,0:0|0:0,0:0:0:0:
77,282,210650,6,0,P|90:225|149:202,1,123.75000377655,4|0,0:0|2:0,0:0:0:0:
188,206,210933,1,8,0:0:0:0:
0,242,211074,1,0,0:0:0:0:
272,189,211216,2,0,B|272:247|272:247|278:258|278:258|278:316,1,123.75000377655,0|0,0:0|2:0,0:0:0:0:
279,352,211498,1,8,0:0:0:0:
221,131,211640,1,0,0:0:0:0:
372,298,211781,6,0,B|439:318|439:280|497:297,1,123.75000377655,2|0,0:0|2:0,0:0:0:0:
463,267,212064,2,0,P|435:221|457:147,1,123.75000377655,8|0,0:0|2:0,0:0:0:0:
480,127,212347,2,0,L|385:128,1,82.5000025177003
221,131,212629,1,8,0:0:0:0:
348,207,212771,1,0,0:0:0:0:
195,32,212912,70,0,P|144:56|114:167,1,165.000005035401,4|8,0:0|0:0,0:0:0:0:
130,233,213336,1,0,0:0:0:0:
320,139,213478,2,0,L|327:283,1,123.75000377655,0|0,0:0|2:0,0:0:0:0:
329,303,213760,1,8,0:0:0:0:
412,256,213902,1,0,0:0:0:0:
230,267,214043,2,0,P|180:304|185:362,1,123.75000377655,2|0,0:0|2:0,0:0:0:0:
225,357,214326,2,0,L|96:362,1,123.75000377655,8|0,0:0|2:0,0:0:0:0:
59,364,214609,1,0,0:0:0:0:
404,40,215174,6,0,L|279:36,1,112.5,0|0,0:0|2:0,0:0:0:0:
116,99,215740,2,0,L|241:95,1,112.5,0|0,0:0|2:0,0:0:0:0:
352,152,216305,2,0,P|300:154|283:240,1,150
404,40,217153,1,0,0:0:0:0:
