osu file format v14

[General]
AudioFilename: audio.mp3
AudioLeadIn: 0
PreviewTime: 196498
Countdown: 1
SampleSet: Normal
StackLeniency: 0.7
Mode: 0
LetterboxInBreaks: 0
WidescreenStoryboard: 0

[Editor]
DistanceSpacing: 3.3
BeatDivisor: 6
GridSize: 32
TimelineZoom: 2.999999

[Metadata]
Title:LOSER
TitleUnicode:LOSER
Artist:Kenshi Yonezu
ArtistUnicode:米津玄師
Creator:bigbirb-
Version:Suffer
Source:
Tags:
BeatmapID:2130776
BeatmapSetID:1018180

[Difficulty]
HPDrainRate:5
CircleSize:5
OverallDifficulty:8.5
ApproachRate:9.4
SliderMultiplier:2
SliderTickRate:1

[Events]
//Background and Video events
0,0,"33248.jpg",0,0
//Break Periods
//Storyboard Layer 0 (Background)
//Storyboard Layer 1 (Fail)
//Storyboard Layer 2 (Pass)
//Storyboard Layer 3 (Foreground)
//Storyboard Layer 4 (Overlay)
//Storyboard Sound Samples

[TimingPoints]
10083,495.867768595041,4,1,0,60,1,0
17273,-47.6190476190476,4,1,0,60,0,0
18016,-100,4,1,0,60,0,0
28430,-83.3333333333333,4,1,0,60,0,0
28925,-71.4285714285714,4,1,0,60,0,0
29173,-62.5,4,1,0,60,0,0
29421,-55.5555555555556,4,1,0,60,0,0
29669,-50,4,1,0,60,0,0
29917,-1000,4,1,0,60,0,0
31157,-200,4,1,0,60,0,0
37851,-125,4,1,0,60,0,0
52727,-111.111111111111,4,1,0,60,0,0
53223,-100,4,1,0,60,0,0
61157,-250,4,1,0,60,0,0
61653,-90.9090909090909,4,1,0,60,0,0
66363,-83.3333333333333,4,1,0,60,0,0
71818,-76.9230769230769,4,1,0,60,0,0
72066,-71.4285714285714,4,1,0,60,0,0
72314,-66.6666666666667,4,1,0,60,0,0
77521,-100,4,1,0,60,0,0

[HitObjects]
175,285,10083,6,0,P|166:229|146:198,1,66.6666666666667
225,148,10330,2,0,P|212:175|209:206,1,33.3333333333333
40,160,10578,6,0,P|76:117|87:82,1,66.6666666666667
188,100,10826,2,0,P|158:107|133:125,1,33.3333333333333
263,99,10992,1,0,0:0:0:0:
263,99,11074,2,0,P|255:69|237:44,2,33.3333333333333
271,113,11322,2,0,P|323:158|367:172,1,100
473,158,11735,1,0,0:0:0:0:
473,158,11818,2,0,L|470:243,1,66.6666666666667
466,305,12066,6,0,P|414:323|386:347,1,66.6666666666667
306,286,12314,2,0,P|337:296|353:311,1,33.3333333333333
459,194,12562,6,0,P|423:235|411:270,1,66.6666666666667
310,257,12810,2,0,P|342:250|364:255,1,33.3333333333333
248,243,12975,1,0,0:0:0:0:
248,243,13058,2,0,P|237:274|222:290,2,33.3333333333333
229,215,13306,2,0,P|164:237|129:268,1,100
75,352,13719,1,0,0:0:0:0:
75,352,13802,2,0,P|75:308|60:262,1,66.6666666666667
31,216,14049,6,0,P|31:172|46:126,1,66.6666666666667
0,67,14297,2,0,P|1:83|0:100,1,33.3333333333333
57,216,14545,6,0,P|79:177|114:145,1,66.6666666666667
104,72,14793,2,0,P|97:87|87:100,1,33.3333333333333
173,156,14959,1,0,0:0:0:0:
173,156,15041,2,0,P|163:142|156:127,2,33.3333333333333
202,164,15289,2,0,L|323:155,1,100
411,191,15702,1,0,0:0:0:0:
411,191,15785,2,0,B|416:222|416:222|426:185,1,66.6666666666667
432,108,16033,6,0,L|347:96,1,66.6666666666667
320,283,16281,2,0,L|379:274,1,33.3333333333333
308,134,16529,6,0,L|223:122,1,66.6666666666667
196,309,16777,2,0,L|255:300,2,33.3333333333333
181,301,17025,2,0,P|159:273|145:220,1,66.6666666666667
147,209,17273,2,0,P|128:130|51:218,1,209.999993591309
158,350,17603,1,0,0:0:0:0:
158,350,17686,2,0,P|177:271|254:359,1,209.999993591309
315,368,18016,6,0,L|386:363,1,66.6666666666667
415,328,18264,2,0,L|381:330,1,33.3333333333333
296,290,18512,6,0,L|354:250,1,66.6666666666667
362,205,18760,2,0,L|334:223,1,33.3333333333333
273,188,18925,1,0,0:0:0:0:
273,188,19008,2,0,P|273:146|268:129,2,33.3333333333333
215,228,19256,2,0,P|171:224|141:188,1,66.6666666666667
188,293,19504,2,0,P|167:303|156:324,1,33.3333333333333
141,378,19669,1,0,0:0:0:0:
141,378,19752,2,0,L|223:370,1,66.6666666666667
276,358,20000,6,0,L|280:279,1,66.6666666666667
257,254,20248,2,0,L|258:287,1,33.3333333333333
375,278,20496,6,0,L|338:207,1,66.6666666666667
306,197,20744,2,0,L|324:224,1,33.3333333333333
320,134,20909,1,0,0:0:0:0:
320,134,20992,2,0,L|276:126,2,33.3333333333333
382,83,21240,2,0,P|418:76|460:89,1,66.6666666666667
461,183,21487,2,0,P|477:147|477:129,1,33.3333333333333
402,215,21653,1,0,0:0:0:0:
402,215,21735,2,0,L|413:297,1,66.6666666666667
382,356,21983,6,0,B|335:346|335:346|292:368,1,66.6666666666667
277,346,22231,2,0,L|315:324,1,33.3333333333333
277,254,22479,6,0,B|231:268|231:268|205:309,1,66.6666666666667
181,297,22727,2,0,L|202:258,1,33.3333333333333
118,318,22892,1,0,0:0:0:0:
118,318,22975,2,0,L|76:312,2,33.3333333333333
26,333,23223,2,0,P|22:297|49:261,1,66.6666666666667
81,207,23471,2,0,L|75:175,1,33.3333333333333
41,62,23636,1,0,0:0:0:0:
41,62,23719,2,0,L|28:129,1,66.6666666666667
113,117,23967,6,0,P|165:129|186:149,1,66.6666666666667
254,82,24215,2,0,P|238:90|221:92,1,33.3333333333333
179,44,24463,6,0,P|218:80|226:108,1,66.6666666666667
318,84,24711,2,0,P|300:83|284:76,1,33.3333333333333
391,73,24876,1,0,0:0:0:0:
391,73,24959,2,0,P|406:66|422:66,2,33.3333333333333
371,143,25206,2,0,L|394:235,1,66.6666666666667
408,285,25454,1,0,0:0:0:0:
408,285,25537,2,0,L|317:278,2,66.6666666666667
398,359,25950,5,0,0:0:0:0:
296,342,26198,1,0,0:0:0:0:
398,359,26446,5,0,0:0:0:0:
296,342,26694,1,0,0:0:0:0:
237,309,26859,1,0,0:0:0:0:
260,246,26942,1,0,0:0:0:0:
257,236,27025,1,0,0:0:0:0:
248,231,27107,1,0,0:0:0:0:
194,185,27190,1,0,0:0:0:0:
197,175,27273,1,0,0:0:0:0:
206,170,27355,1,0,0:0:0:0:
242,104,27438,6,0,L|173:97,1,66.6666666666667
112,88,27686,1,0,0:0:0:0:
84,173,27851,1,0,0:0:0:0:
91,197,27934,6,0,P|100:245|73:282,1,66.6666666666667
89,269,28182,1,0,0:0:0:0:
199,205,28347,5,0,0:0:0:0:
199,205,28430,2,0,P|245:221|263:263,1,79.9999975585938
265,257,28678,1,0,0:0:0:0:
260,267,28760,1,0,0:0:0:0:
260,279,28843,1,0,0:0:0:0:
340,313,28925,6,0,P|416:287|434:283,1,93.3333304850261
169,331,29173,6,0,P|255:348|275:354,1,106.666666666667
11,262,29421,6,0,P|86:328|102:345,1,119.999996337891
113,54,29669,6,0,P|59:96|11:145,1,133.333333333333
229,216,29917,6,0,L|223:168,1,46.6666666666667
209,101,31157,6,0,P|174:113|151:154,1,83.3333333333333
410,309,31901,6,0,P|412:278|403:242,1,66.6666666666667
296,288,32397,2,0,L|321:298,1,16.6666666666667
346,360,32892,1,0,0:0:0:0:
296,288,33140,2,0,L|253:271,1,33.3333333333333
186,310,33388,2,0,L|201:303,1,16.6666666666667
155,222,33554,1,0,0:0:0:0:
155,222,33636,1,0,0:0:0:0:
79,108,33884,6,0,L|76:183,1,66.6666666666667
102,274,34380,2,0,P|111:291|113:295,1,16.6666666666667
170,360,34876,1,0,0:0:0:0:
257,334,35124,2,0,P|255:310|252:297,1,33.3333333333333
217,228,35372,2,0,P|208:245|206:249,1,16.6666666666667
292,224,35537,1,0,0:0:0:0:
292,224,35620,1,0,0:0:0:0:
211,42,35868,6,0,P|199:61|196:111,1,66.6666666666667
278,96,36363,2,0,L|259:89,1,16.6666666666667
282,187,37107,2,0,L|328:187,1,33.3333333333333
366,136,37355,2,0,L|343:136,1,16.6666666666667
401,75,37521,1,0,0:0:0:0:
401,75,37603,1,0,0:0:0:0:
451,275,37851,6,0,P|401:281|368:316,1,80
367,367,38264,1,0,0:0:0:0:
268,332,38347,2,0,L|200:340,1,53.3333333333333
183,266,38595,2,0,L|251:274,1,53.3333333333333
107,327,38843,1,0,0:0:0:0:
122,258,39008,1,0,0:0:0:0:
122,258,39091,2,0,P|107:202|100:188,1,53.3333333333333
77,142,39339,2,0,P|95:115|112:106,1,26.6666666666667
156,87,39504,2,0,L|189:98,1,26.6666666666667
231,239,39752,1,0,0:0:0:0:
246,233,39835,6,0,P|290:254|339:251,1,80
392,219,40248,1,0,0:0:0:0:
445,98,40330,2,0,L|385:73,1,53.3333333333333
335,103,40578,2,0,P|327:72|343:37,1,53.3333333333333
268,155,40826,2,0,L|199:145,1,53.3333333333333
123,129,41074,1,0,0:0:0:0:
133,217,41240,1,0,0:0:0:0:
133,217,41322,2,0,P|138:245|139:263,1,26.6666666666667
132,306,41487,2,0,P|126:334|126:352,1,26.6666666666667
277,353,41735,1,0,0:0:0:0:
293,284,41818,6,0,L|286:237,1,40
213,174,42066,2,0,L|220:127,1,40
284,79,42314,2,0,P|238:50|209:47,1,80
106,159,42727,1,0,0:0:0:0:
109,188,42810,2,0,L|99:259,1,53.3333333333333
162,277,43058,2,0,L|172:348,1,53.3333333333333
236,353,43306,2,0,P|259:342|278:331,1,26.6666666666667
302,287,43471,2,0,P|279:276|260:265,1,26.6666666666667
299,162,43719,1,0,0:0:0:0:
366,147,43802,6,0,L|365:82,1,53.3333333333333
445,221,44049,2,0,L|446:156,1,53.3333333333333
424,289,44297,2,0,P|382:262|371:232,1,80
316,337,44711,1,0,0:0:0:0:
316,337,44793,2,0,L|248:330,1,53.3333333333333
169,282,45041,2,0,P|189:308|199:345,1,53.3333333333333
112,323,45289,2,0,L|77:309,1,26.6666666666667
61,238,45454,2,0,L|96:224,1,26.6666666666667
39,103,45702,1,0,0:0:0:0:
125,62,45785,6,0,B|201:33|186:84|266:56,1,133.333333333333
318,28,46281,1,0,0:0:0:0:
353,176,46405,1,0,0:0:0:0:
318,28,46529,1,0,0:0:0:0:
353,176,46653,1,0,0:0:0:0:
353,176,46777,2,0,P|338:233|336:245,1,53.3333333333333
341,257,47025,2,0,L|411:263,1,53.3333333333333
490,211,47273,2,0,P|484:187|477:164,1,26.6666666666667
428,138,47438,2,0,P|433:114|440:91,1,26.6666666666667
433,334,47686,1,0,0:0:0:0:
350,362,47768,6,0,P|300:352|211:360,1,133.333333333333
136,376,48264,1,0,0:0:0:0:
196,255,48388,1,0,0:0:0:0:
91,315,48512,1,0,0:0:0:0:
112,134,48636,1,0,0:0:0:0:
80,313,48760,2,0,P|63:279|41:252,1,53.3333333333333
30,253,49008,2,0,P|49:223|78:207,1,53.3333333333333
197,179,49256,2,0,L|145:176,1,26.6666666666667
261,251,49421,2,0,L|287:252,1,26.6666666666667
363,155,49669,1,0,0:0:0:0:
296,69,49752,6,0,P|284:101|343:74,1,133.333333333333
362,51,50248,1,0,0:0:0:0:
430,79,50372,1,0,0:0:0:0:
428,194,50496,1,0,0:0:0:0:
363,260,50620,1,0,0:0:0:0:
374,368,50744,2,0,L|301:361,1,53.3333333333333
287,363,50992,2,0,B|250:360|250:360|222:342,1,53.3333333333333
167,282,51240,2,0,L|172:244,1,26.6666666666667
108,319,51405,2,0,L|111:345,1,26.6666666666667
113,198,51653,1,0,0:0:0:0:
159,132,51735,6,0,P|84:128|46:177,1,133.333333333333
45,199,52231,2,0,P|53:240|53:266,1,53.3333333333333
119,310,52479,2,0,P|111:351|111:377,1,53.3333333333333
214,145,52727,2,0,P|200:184|187:207,1,59.9999981689454
222,278,52975,2,0,P|194:309|181:332,1,59.9999981689454
387,182,53223,2,0,P|355:209|332:222,1,66.6666666666667
327,301,53471,2,0,P|287:314|264:327,1,66.6666666666667
325,106,53719,6,0,P|297:67|171:63,1,166.666666666667
176,81,54215,1,0,0:0:0:0:
199,212,54339,1,0,0:0:0:0:
204,103,54463,1,0,0:0:0:0:
122,179,54587,1,0,0:0:0:0:
236,288,54711,2,0,L|319:274,1,66.6666666666667
324,271,54959,2,0,P|331:230|346:195,1,66.6666666666667
436,146,55206,2,0,P|442:185|445:196,1,33.3333333333333
410,267,55372,2,0,P|404:306|401:317,1,33.3333333333333
272,184,55620,1,0,0:0:0:0:
181,248,55702,6,0,B|211:260|202:322|122:328|86:233,1,166.666666666667
80,222,56198,1,0,0:0:0:0:
111,123,56322,1,0,0:0:0:0:
1,123,56446,1,0,0:0:0:0:
111,123,56570,1,0,0:0:0:0:
8,91,56694,2,0,P|38:43|62:24,1,66.6666666666667
65,29,56942,2,0,P|106:48|145:45,1,66.6666666666667
205,35,57190,2,0,L|241:51,1,33.3333333333333
288,116,57355,2,0,L|252:132,1,33.3333333333333
269,293,57603,1,0,0:0:0:0:
397,255,57686,5,0,0:0:0:0:
406,276,57768,1,0,0:0:0:0:
358,324,57934,1,0,0:0:0:0:
291,161,58099,5,0,0:0:0:0:
312,227,58182,1,0,0:0:0:0:
218,194,58347,5,0,0:0:0:0:
201,268,58430,1,0,0:0:0:0:
307,86,58595,5,0,0:0:0:0:
367,142,58678,1,0,0:0:0:0:
96,285,58843,5,0,0:0:0:0:
157,351,58926,1,0,0:0:0:0:
157,351,59008,1,0,0:0:0:0:
179,343,59091,1,0,0:0:0:0:
244,367,59173,2,0,L|320:359,1,66.6666666666667
493,340,59421,1,0,0:0:0:0:
281,134,59669,6,0,P|266:180|333:279,1,166.666666666667
369,83,60165,6,0,P|336:47|217:55,1,166.666666666667
193,258,60661,6,0,L|204:171,1,66.6666666666667
340,282,60909,6,0,L|329:195,1,66.6666666666667
77,353,61157,6,0,L|88:266,1,66.6666666666667
119,42,61653,6,0,P|193:63|236:93,1,110.000003356934
233,254,62149,2,0,P|204:213|203:163,1,73.3333355712891
201,156,62397,1,0,0:0:0:0:
315,265,62562,1,0,0:0:0:0:
291,342,62644,2,0,L|186:350,1,73.3333355712891
99,275,62892,2,0,L|204:283,1,73.3333355712891
55,344,63140,1,0,0:0:0:0:
57,201,63306,1,0,0:0:0:0:
64,213,63388,1,0,0:0:0:0:
44,106,63554,1,0,0:0:0:0:
139,91,63636,6,0,P|191:93|216:101,1,73.3333355712891
342,185,63884,2,0,P|290:187|265:195,1,73.3333355712891
388,100,64132,2,0,L|410:177,1,73.3333355712891
420,197,64380,1,0,0:0:0:0:
385,343,64545,1,0,0:0:0:0:
379,308,64628,2,0,B|315:290|329:327|266:310,1,110.000003356934
195,259,65041,1,0,0:0:0:0:
204,188,65124,1,0,0:0:0:0:
204,188,65289,2,0,P|225:152|226:145,1,36.6666677856446
108,189,65537,1,0,0:0:0:0:
82,270,65620,6,0,L|90:354,1,73.3333355712891
175,288,65868,2,0,L|167:372,1,73.3333355712891
260,263,66116,2,0,L|265:320,1,36.6666677856446
69,269,66363,6,0,L|78:364,1,79.9999975585938
175,289,66611,2,0,L|166:385,1,79.9999975585938
271,261,66859,2,0,L|278:326,1,39.9999987792969
383,356,67107,2,0,L|389:290,1,39.9999987792969
402,95,67273,1,0,0:0:0:0:
402,95,67355,1,0,0:0:0:0:
284,159,67521,1,0,0:0:0:0:
210,113,67603,6,0,P|144:109|97:229,1,199.999993896485
194,282,68099,2,0,B|266:257|250:293|318:276,1,119.999996337891
424,209,68595,2,0,P|378:176|313:220,1,119.999996337891
241,184,69091,2,0,L|227:109,2,39.9999987792969
277,362,69339,1,0,0:0:0:0:
79,375,69504,1,0,0:0:0:0:
49,299,69587,6,0,P|53:249|68:182,1,79.9999975585938
198,150,69835,2,0,P|204:189|207:229,1,79.9999975585938
63,83,70082,1,0,0:0:0:0:
63,83,70330,2,0,P|108:73|161:75,1,79.9999975585938
238,92,70578,2,0,B|310:79|310:79|355:54,1,119.999996337891
384,127,70992,1,0,0:0:0:0:
384,127,71074,2,0,P|362:161|358:187,1,39.9999987792969
370,261,71240,2,0,P|361:243|348:227,1,39.9999987792969
256,305,71487,1,0,0:0:0:0:
164,293,71570,6,0,P|175:243|143:201,1,79.9999975585938
54,162,71818,6,0,P|88:199|81:252,1,86.6666626993817
246,335,72066,6,0,P|296:346|338:314,1,93.3333304850261
140,153,72314,6,0,P|129:103|161:61,1,100.000003814697
393,37,72562,6,0,P|394:125|386:199,1,150.000005722046
334,345,72975,1,0,0:0:0:0:
334,345,73058,2,0,L|238:336,1,50.0000019073487
191,255,73223,2,0,L|287:246,1,50.0000019073487
120,362,73471,1,0,0:0:0:0:
71,273,73554,6,0,P|70:214|123:124,1,150.000005722046
246,134,73967,1,0,0:0:0:0:
235,121,74049,2,0,P|206:166|195:226,1,100.000003814697
250,264,74297,2,0,P|279:309|290:369,1,100.000003814697
358,317,74545,2,0,P|365:266|407:187,1,100.000003814697
494,159,74793,1,0,0:0:0:0:
344,132,75041,2,0,P|332:172|330:208,1,50.0000019073487
260,238,75206,2,0,P|272:278|274:314,1,50.0000019073487
138,338,75454,1,0,0:0:0:0:
79,209,75537,6,0,B|116:139|57:125|110:52,1,150.000005722046
173,55,75950,1,0,0:0:0:0:
173,55,76033,2,0,P|228:78|283:76,1,100.000003814697
340,124,76281,2,0,L|336:253,1,100.000003814697
253,326,76529,2,0,P|227:265|142:256,1,150.000005722046
324,368,77025,2,0,L|337:317,1,50.0000019073487
173,57,77521,6,0,P|238:71|262:89,1,66.6666666666667
295,35,77768,2,0,P|276:41|256:43,1,33.3333333333333
186,200,78016,6,0,P|249:179|279:183,1,66.6666666666667
280,119,78263,2,0,P|267:134|250:145,1,33.3333333333333
328,171,78430,1,0,0:0:0:0:
328,171,78512,2,0,L|336:208,2,33.3333333333333
290,254,78760,2,0,P|271:311|272:337,1,66.6666666666667
328,353,79008,2,0,L|393:345,1,33.3333333333333
493,310,79173,1,0,0:0:0:0:
493,310,79256,1,0,0:0:0:0:
436,157,79421,1,0,0:0:0:0:
357,109,79504,6,0,B|276:113,1,66.6666666666667
270,139,79752,2,0,B|310:141,1,33.3333333333333
190,215,80000,6,0,B|271:219,1,66.6666666666667
277,245,80248,2,0,B|236:247,2,33.3333333333333
328,298,80496,2,0,L|329:354,2,33.3333333333333
383,237,80744,2,0,P|374:184|353:154,1,66.6666666666667
305,107,80992,2,0,P|295:133|293:161,1,33.3333333333333
302,205,81157,2,0,P|305:232|317:257,1,33.3333333333333
420,40,81405,1,0,0:0:0:0:
306,18,81487,6,0,P|272:27|221:21,1,66.6666666666667
178,88,81735,2,0,P|219:78|224:78,1,33.3333333333333
110,37,81983,6,0,P|100:70|70:112,1,66.6666666666667
106,182,82231,2,0,P|117:141|120:137,1,33.3333333333333
157,237,82397,1,0,0:0:0:0:
157,237,82479,2,0,P|162:252|164:269,2,33.3333333333333
101,321,82727,2,0,P|144:348|188:347,1,66.6666666666667
241,350,82975,2,0,L|242:317,1,33.3333333333333
269,228,83140,2,0,L|270:261,1,33.3333333333333
359,322,83388,1,0,0:0:0:0:
400,237,83471,6,0,P|376:183|354:163,1,66.6666666666667
288,118,83719,2,0,P|335:117|370:106,1,66.6666666666667
289,52,83967,2,0,L|217:46,1,66.6666666666667
150,198,84215,2,0,L|222:192,1,66.6666666666667
297,355,84463,2,0,L|303:283,1,66.6666666666667
151,216,84711,2,0,L|157:288,1,66.6666666666667
164,384,84959,2,0,L|161:350,1,33.3333333333333
82,242,85124,2,0,L|79:275,1,33.3333333333333
244,168,85372,1,0,0:0:0:0:
138,117,85454,5,0,0:0:0:0:
