osu file format v14

[General]
AudioFilename: audio.mp3
AudioLeadIn: 0
PreviewTime: 59545
Countdown: 0
SampleSet: None
StackLeniency: 0.7
Mode: 0
LetterboxInBreaks: 0
WidescreenStoryboard: 1

[Editor]
Bookmarks: 29917,45785,85454,101322,133058,180661,212396
DistanceSpacing: 0.2
BeatDivisor: 6
GridSize: 4
TimelineZoom: 2.899999

[Metadata]
Title:LOSER
TitleUnicode:LOSER
Artist:Kenshi Yonezu
ArtistUnicode:米津玄師
Creator:Wing My Way
Version:Extra
Source:
Tags:pdc pdc2018 Pending Cup 2018
BeatmapID:1781947
BeatmapSetID:852535

[Difficulty]
HPDrainRate:7
CircleSize:4
OverallDifficulty:8.8
ApproachRate:9.4
SliderMultiplier:3.2
SliderTickRate:1

[Events]
//Background and Video events
0,0,"42889409_p1.jpg",0,0
//Break Periods
2,101522,104825
2,164992,180032
//Storyboard Layer 0 (Background)
//Storyboard Layer 1 (Fail)
//Storyboard Layer 2 (Pass)
//Storyboard Layer 3 (Foreground)
//Storyboard Sound Samples

[TimingPoints]
10083,495.867768595041,4,1,2,70,1,0
10083,-100,4,1,2,70,0,0
10165,-100,4,1,2,35,0,0
10578,-100,4,1,2,60,0,0
10661,-100,4,1,2,35,0,0
11322,-100,4,1,2,60,0,0
11653,-100,4,1,2,35,0,0
12066,-100,4,1,2,70,0,0
12149,-100,4,1,2,35,0,0
12562,-100,4,1,2,60,0,0
12644,-100,4,1,2,35,0,0
13306,-100,4,1,2,60,0,0
13636,-100,4,1,2,35,0,0
14049,-100,4,1,2,70,0,0
14132,-100,4,1,2,35,0,0
14545,-100,4,1,2,60,0,0
14628,-100,4,1,2,35,0,0
15289,-100,4,1,2,60,0,0
15620,-100,4,1,2,35,0,0
16033,-100,4,1,2,70,0,0
16115,-100,4,1,2,35,0,0
16529,-100,4,1,2,60,0,0
16611,-100,4,1,2,35,0,0
17273,-100,4,1,2,60,0,0
17603,-100,4,1,2,35,0,0
18016,-100,4,1,2,70,0,0
18099,-100,4,1,2,35,0,0
18512,-100,4,1,2,60,0,0
18595,-100,4,1,2,35,0,0
19256,-100,4,1,2,60,0,0
19587,-100,4,1,2,35,0,0
20000,-100,4,1,2,70,0,0
20082,-100,4,1,2,35,0,0
20496,-100,4,1,2,60,0,0
20578,-100,4,1,2,35,0,0
21239,-100,4,1,2,60,0,0
21570,-100,4,1,2,35,0,0
21983,-100,4,1,2,60,0,0
22066,-100,4,1,2,35,0,0
22479,-100,4,1,2,60,0,0
22562,-100,4,1,2,35,0,0
23223,-100,4,1,2,60,0,0
23554,-100,4,1,2,35,0,0
23967,-100,4,1,2,60,0,0
24049,-100,4,1,2,35,0,0
24463,-100,4,1,2,60,0,0
24545,-100,4,1,2,35,0,0
25206,-100,4,1,2,60,0,0
25537,-100,4,1,2,35,0,0
25950,-100,4,1,3,40,0,0
27934,-100,4,1,3,50,0,0
29917,-100,4,1,2,60,0,0
31901,-133.333333333333,4,1,2,70,0,0
32025,-133.333333333333,4,1,2,35,0,0
32397,-83.3333333333333,4,1,2,70,0,0
32521,-83.3333333333333,4,1,2,35,0,0
32810,-200,4,1,2,35,0,0
33140,-200,4,1,2,70,0,0
33512,-200,4,1,2,35,0,0
33636,-300,4,1,2,35,0,0
33760,-300,4,1,2,35,0,0
33884,-133.333333333333,4,1,2,70,0,0
34008,-133.333333333333,4,1,2,35,0,0
34380,-83.3333333333333,4,1,2,70,0,0
34504,-83.3333333333333,4,1,2,35,0,0
34876,-200,4,1,2,35,0,0
35093,-83.3333333333333,4,1,2,5,0,0
35124,-83.3333333333333,4,1,2,70,0,0
35248,-83.3333333333333,4,1,2,35,0,0
35372,-100,4,1,2,70,0,0
35496,-100,4,1,2,35,0,0
35620,-100,4,1,2,35,0,0
35868,-181.818181818181,4,1,2,70,0,0
35992,-181.818181818181,4,1,2,35,0,0
36363,-83.3333333333333,4,1,2,70,0,0
37107,-133.333333333333,4,1,2,70,0,0
37355,-83.3333333333333,4,1,2,70,0,0
37851,-100,4,1,2,70,0,0
37975,-100,4,1,2,40,0,0
38347,-71.4285714285714,4,1,2,70,0,0
38471,-71.4285714285714,4,1,2,40,0,0
38843,-100,4,1,2,70,0,0
38967,-100,4,1,2,40,0,0
39339,-83.3333333333333,4,1,2,70,0,0
39711,-83.3333333333333,4,1,2,40,0,0
39835,-100,4,1,2,70,0,0
39959,-100,4,1,2,40,0,0
40330,-71.4285714285714,4,1,2,70,0,0
40413,-71.4285714285714,4,1,2,40,0,0
40744,-133.333333333333,4,1,2,40,0,0
41074,-83.3333333333333,4,1,2,70,0,0
41818,-133.333333333333,4,1,2,70,0,0
41901,-133.333333333333,4,1,2,40,0,0
42314,-71.4285714285714,4,1,2,70,0,0
42438,-71.4285714285714,4,1,2,40,0,0
42810,-133.333333333333,4,1,2,40,0,0
43058,-83.3333333333333,4,1,2,70,0,0
43337,-83.3333333333333,4,1,2,5,0,0
43430,-83.3333333333333,4,1,2,70,0,0
43461,-83.3333333333333,4,1,2,5,0,0
43554,-83.3333333333333,4,1,2,70,0,0
43585,-83.3333333333333,4,1,2,5,0,0
43678,-83.3333333333333,4,1,2,70,0,0
43801,-133.333333333333,4,1,2,70,0,0
43925,-133.333333333333,4,1,2,40,0,0
44297,-71.4285714285714,4,1,2,70,0,0
44731,-71.4285714285714,4,1,2,5,0,0
44793,-133.333333333333,4,1,2,70,0,0
45041,-83.3333333333333,4,1,2,70,0,0
45206,-100,4,1,2,70,0,0
45785,-100,4,3,3,70,0,0
45909,-100,4,3,3,40,0,0
46777,-100,4,3,3,70,0,0
46901,-100,4,3,3,40,0,0
47025,-100,4,3,3,70,0,0
47355,-100,4,3,3,70,0,0
47603,-100,4,3,3,40,0,0
47768,-100,4,3,3,70,0,0
47851,-100,4,3,3,40,0,0
48264,-100,4,3,3,70,0,0
48347,-100,4,3,3,40,0,0
48678,-100,4,3,3,70,0,0
48843,-100,4,3,3,40,0,0
49008,-100,4,3,3,70,0,0
49587,-100,4,3,3,40,0,0
49669,-100,4,3,3,70,0,0
49835,-100,4,3,3,40,0,0
50992,-100,4,3,3,70,0,0
51074,-100,4,3,3,40,0,0
51240,-100,4,3,3,70,0,0
51818,-100,4,3,3,40,0,0
52231,-100,4,3,3,70,0,0
52314,-100,4,3,3,40,0,0
52727,-100,4,3,3,70,0,0
52810,-100,4,3,3,40,0,0
52975,-100,4,3,3,70,0,0
53802,-100,4,3,3,40,0,0
54215,-100,4,3,3,70,0,0
54297,-100,4,3,3,40,0,0
54711,-100,4,3,3,70,0,0
54793,-100,4,3,3,40,0,0
54959,-100,4,3,3,70,0,0
55454,-100,4,3,3,40,0,0
55702,-100,4,3,3,70,0,0
55785,-100,4,3,3,40,0,0
56198,-100,4,3,3,70,0,0
56281,-100,4,3,3,40,0,0
56694,-100,4,3,3,70,0,0
56777,-100,4,3,3,40,0,0
56942,-100,4,3,3,70,0,0
57438,-100,4,3,4,40,0,0
57686,-100,4,3,4,100,0,0
57768,-100,4,3,4,40,0,0
58099,-100,4,3,4,100,0,0
58264,-100,4,3,4,40,0,0
58430,-100,4,3,4,100,0,0
58512,-100,4,3,4,40,0,0
58678,-100,4,3,4,100,0,0
58760,-100,4,3,4,40,0,0
58925,-100,4,3,4,100,0,0
59008,-100,4,3,4,40,0,0
59173,-100,4,3,4,100,0,0
59256,-100,4,3,4,40,0,0
59339,-100,4,3,4,55,0,0
59421,-100,4,3,4,70,0,0
59504,-100,4,3,4,85,0,0
59587,-100,4,3,4,100,0,0
59669,-100,4,1,2,70,0,0
61157,-333.333333333333,4,1,2,70,0,0
61570,-333.333333333333,4,1,2,5,0,0
61653,-50,4,2,8,70,0,1
61684,-50,4,2,8,5,0,1
61901,-50,4,2,8,70,0,1
61932,-50,4,2,8,5,0,1
62149,-333.333333333333,4,2,8,70,0,1
62644,-58.8235294117647,4,2,8,70,0,1
62861,-58.8235294117647,4,2,8,5,0,1
62892,-58.8235294117647,4,2,8,70,0,1
63140,-40,4,2,8,70,0,1
63512,-50,4,2,8,70,0,1
63543,-50,4,2,8,5,0,1
63636,-50,4,2,8,70,0,1
64628,-55.5555555555556,4,2,8,70,0,1
64845,-55.5555555555556,4,2,8,5,0,1
64876,-55.5555555555556,4,2,8,70,0,1
65155,-55.5555555555556,4,2,8,5,0,1
65279,-55.5555555555556,4,2,8,70,0,1
65310,-55.5555555555556,4,2,8,5,0,1
65620,-50,4,2,8,70,0,1
67541,-50,4,2,8,5,0,1
67603,-333.333333333333,4,2,8,70,0,1
68099,-33.3333333333333,4,2,8,70,0,1
68316,-33.3333333333333,4,2,8,5,0,1
68347,-55.5555555555556,4,2,8,70,0,1
68843,-333.333333333333,4,2,8,70,0,1
69587,-40,4,2,8,70,0,1
70330,-333.333333333333,4,2,8,70,0,1
70578,-50,4,2,8,70,0,1
70795,-50,4,2,8,5,0,1
70826,-333.333333333333,4,2,8,70,0,1
71074,-50,4,2,8,70,0,1
71198,-50,4,2,8,5,0,1
71240,-50,4,2,8,70,0,1
71322,-333.333333333333,4,2,8,70,0,1
71570,-40,4,2,8,70,0,1
73058,-55.5555555555556,4,2,8,70,0,1
73306,-333.333333333333,4,2,8,70,0,1
73802,-40,4,2,8,70,0,1
74018,-40,4,2,8,5,0,1
74049,-40,4,2,8,70,0,1
74266,-40,4,2,8,5,0,1
74297,-333.333333333334,4,2,8,70,0,1
74545,-125,4,2,8,70,0,1
74762,-125,4,2,8,5,0,1
74793,-50,4,2,8,70,0,1
75372,-100,4,2,8,70,0,1
75537,-50,4,2,8,70,0,1
76529,-40,4,2,8,70,0,1
76746,-40,4,2,8,5,0,1
76777,-40,4,2,8,70,0,1
76994,-40,4,2,8,5,0,1
77025,-33.3333333333333,4,2,8,70,0,1
77521,-100,4,1,2,70,0,0
77603,-100,4,1,2,35,0,0
78016,-100,4,1,2,60,0,0
78099,-100,4,1,2,35,0,0
78760,-100,4,1,2,60,0,0
79091,-100,4,1,2,35,0,0
79504,-100,4,1,2,70,0,0
79587,-100,4,1,2,35,0,0
80000,-100,4,1,2,60,0,0
80082,-100,4,1,2,35,0,0
80744,-100,4,1,2,60,0,0
81074,-100,4,1,2,35,0,0
81487,-100,4,1,2,70,0,0
81570,-100,4,1,2,35,0,0
81983,-100,4,1,2,60,0,0
82066,-100,4,1,2,35,0,0
82727,-100,4,1,2,60,0,0
83058,-100,4,1,2,35,0,0
83471,-100,4,1,2,70,0,0
83553,-100,4,1,2,35,0,0
83967,-100,4,1,2,60,0,0
84049,-100,4,1,2,35,0,0
84463,-100,4,1,2,60,0,0
84545,-100,4,1,2,35,0,0
84711,-100,4,1,2,60,0,0
85041,-100,4,1,2,35,0,0
87438,-133.333333333333,4,1,2,70,0,0
87562,-133.333333333333,4,1,2,35,0,0
87934,-83.3333333333333,4,1,2,70,0,0
88058,-83.3333333333333,4,1,2,35,0,0
88347,-200,4,1,2,35,0,0
88677,-200,4,1,2,70,0,0
89049,-200,4,1,2,35,0,0
89173,-300,4,1,2,35,0,0
89297,-300,4,1,2,35,0,0
89421,-100,4,1,2,70,0,0
89504,-100,4,1,2,35,0,0
89917,-100,4,1,2,70,0,0
90000,-100,4,1,2,35,0,0
90413,-200,4,1,2,35,0,0
90630,-83.3333333333333,4,1,2,5,0,0
90661,-83.3333333333333,4,1,2,70,0,0
90785,-83.3333333333333,4,1,2,35,0,0
90909,-100,4,1,2,70,0,0
91033,-100,4,1,2,35,0,0
91157,-100,4,1,2,35,0,0
91405,-100,4,1,2,70,0,0
91529,-100,4,1,2,35,0,0
91653,-90.9090909090909,4,1,2,35,0,0
91900,-83.3333333333333,4,1,2,70,0,0
92025,-83.3333333333333,4,1,2,35,0,0
92149,-76.9230769230769,4,1,2,55,0,0
92397,-71.4285714285714,4,1,2,65,0,0
92644,-133.333333333333,4,1,2,70,0,0
92892,-83.3333333333333,4,1,2,70,0,0
93388,-100,4,1,2,70,0,0
93512,-100,4,1,2,40,0,0
93884,-71.4285714285714,4,1,2,70,0,0
93946,-71.4285714285714,4,1,2,40,0,0
94132,-71.4285714285714,4,1,2,40,0,0
94380,-100,4,1,2,70,0,0
94504,-100,4,1,2,40,0,0
94876,-83.3333333333333,4,1,2,70,0,0
95248,-83.3333333333333,4,1,2,40,0,0
95372,-100,4,1,2,70,0,0
95496,-100,4,1,2,40,0,0
95867,-71.4285714285714,4,1,2,70,0,0
95950,-71.4285714285714,4,1,2,40,0,0
96281,-133.333333333333,4,1,2,40,0,0
96611,-83.3333333333333,4,1,2,70,0,0
97355,-100,4,1,2,70,0,0
97438,-100,4,1,2,40,0,0
97851,-100,4,1,2,70,0,0
97975,-100,4,1,2,40,0,0
98347,-133.333333333333,4,1,2,40,0,0
98595,-83.3333333333333,4,1,2,70,0,0
98874,-83.3333333333333,4,1,2,5,0,0
98967,-83.3333333333333,4,1,2,70,0,0
98998,-83.3333333333333,4,1,2,5,0,0
99091,-83.3333333333333,4,1,2,70,0,0
99122,-83.3333333333333,4,1,2,5,0,0
99215,-83.3333333333333,4,1,2,70,0,0
99246,-83.3333333333333,4,1,2,5,0,0
99339,-100,4,1,2,70,0,0
99587,-90.9090909090909,4,1,2,70,0,0
99834,-83.3333333333333,4,1,2,70,0,0
100082,-76.9230769230769,4,1,2,70,0,0
100330,-133.333333333333,4,1,2,70,0,0
100496,-133.333333333333,4,1,2,5,0,0
100578,-83.3333333333333,4,1,2,70,0,0
100743,-100,4,1,2,70,0,0
105454,-100,4,1,4,70,0,0
105950,-100,4,1,4,35,0,0
106033,-100,4,1,4,70,0,0
106198,-100,4,1,4,35,0,0
106529,-100,4,1,4,70,0,0
106611,-100,4,1,4,35,0,0
106777,-100,4,1,4,70,0,0
106859,-100,4,1,4,35,0,0
107025,-100,4,1,4,70,0,0
107107,-100,4,1,4,35,0,0
107768,-100,4,1,4,70,0,0
107851,-100,4,1,4,35,0,0
108512,-100,4,1,4,70,0,0
108595,-100,4,1,4,35,0,0
108760,-100,4,1,4,70,0,0
109256,-100,4,1,4,35,0,0
109421,-100,4,1,4,70,0,0
109504,-100,4,1,4,35,0,0
109752,-100,4,1,4,70,0,0
110248,-100,4,1,4,35,0,0
110413,-100,4,1,4,70,0,0
110578,-100,4,1,4,35,0,0
110744,-100,4,1,4,70,0,0
110826,-100,4,1,4,35,0,0
111157,-100,4,1,4,70,0,0
111240,-100,4,1,4,5,0,0
111363,-100,4,1,4,70,0,0
111487,-100,4,1,4,35,0,0
111735,-100,4,1,4,70,0,0
111818,-100,4,1,4,35,0,0
111983,-100,4,1,4,70,0,0
112892,-100,4,1,4,35,0,0
112975,-100,4,1,4,70,0,0
113554,-100,4,1,4,35,0,0
113719,-100,4,1,4,70,0,0
114049,-100,4,1,4,35,0,0
114132,-100,4,1,4,70,0,0
114215,-100,4,1,4,35,0,0
114380,-100,4,1,4,70,0,0
114628,-100,4,1,4,35,0,0
114711,-100,4,1,4,70,0,0
115620,-100,4,1,4,35,0,0
115702,-100,4,1,4,70,0,0
116198,-100,4,1,4,35,0,0
116446,-100,4,1,2,70,0,0
116529,-66.6666666666667,4,1,2,35,0,0
116694,-66.6666666666667,4,1,2,70,0,0
117190,-100,4,1,2,70,0,1
117273,-100,4,1,2,35,0,1
117686,-100,4,1,2,60,0,1
117768,-100,4,1,2,35,0,1
118430,-100,4,1,2,60,0,1
118760,-100,4,1,2,35,0,1
119173,-100,4,1,2,70,0,1
119256,-100,4,1,2,35,0,1
119669,-100,4,1,2,60,0,1
119752,-100,4,1,2,35,0,1
120413,-100,4,1,2,60,0,1
120744,-100,4,1,2,35,0,1
121157,-100,4,1,2,70,0,1
121240,-100,4,1,2,35,0,1
121653,-100,4,1,2,60,0,1
121735,-100,4,1,2,35,0,1
122397,-100,4,1,2,60,0,1
122727,-100,4,1,2,35,0,1
123140,-100,4,1,2,70,0,1
123223,-100,4,1,2,35,0,1
123636,-100,4,1,2,60,0,1
123719,-100,4,1,2,35,0,1
124380,-100,4,1,2,60,0,1
124711,-100,4,1,2,35,0,1
125124,-100,4,1,2,70,0,1
125206,-100,4,1,2,35,0,1
125620,-100,4,1,2,60,0,1
125702,-100,4,1,2,35,0,1
126363,-100,4,1,2,60,0,1
126694,-100,4,1,2,35,0,1
127107,-100,4,1,2,70,0,1
127190,-100,4,1,2,35,0,1
127603,-100,4,1,2,60,0,1
127686,-100,4,1,2,35,0,1
128347,-100,4,1,2,60,0,1
128678,-100,4,1,2,35,0,1
129091,-100,4,1,2,60,0,1
129173,-100,4,1,2,35,0,1
129587,-100,4,1,2,60,0,1
129669,-100,4,1,2,35,0,1
130330,-100,4,1,2,60,0,1
133182,-100,4,3,3,40,0,0
134050,-100,4,3,3,70,0,0
134174,-100,4,3,3,40,0,0
134298,-100,4,3,3,70,0,0
134628,-100,4,3,3,70,0,0
134876,-100,4,3,3,40,0,0
135041,-100,4,3,3,70,0,0
135124,-100,4,3,3,40,0,0
135537,-100,4,3,3,70,0,0
135620,-100,4,3,3,40,0,0
135951,-100,4,3,3,70,0,0
136116,-100,4,3,3,40,0,0
136281,-100,4,3,3,70,0,0
136860,-100,4,3,3,40,0,0
136942,-100,4,3,3,70,0,0
137108,-100,4,3,3,40,0,0
138265,-100,4,3,3,70,0,0
138347,-100,4,3,3,40,0,0
138513,-100,4,3,3,70,0,0
139091,-100,4,3,3,40,0,0
139504,-100,4,3,3,70,0,0
139587,-100,4,3,3,40,0,0
140000,-100,4,3,3,70,0,0
140083,-100,4,3,3,40,0,0
140248,-100,4,3,3,70,0,0
141075,-100,4,3,3,40,0,0
141488,-100,4,3,3,70,0,0
141570,-100,4,3,3,40,0,0
141984,-100,4,3,3,70,0,0
142066,-100,4,3,3,40,0,0
142232,-100,4,3,3,70,0,0
142727,-100,4,3,3,40,0,0
142975,-100,4,3,3,70,0,0
143058,-100,4,3,3,40,0,0
143471,-100,4,3,3,70,0,0
143554,-100,4,3,3,40,0,0
143967,-100,4,3,3,70,0,0
144050,-100,4,3,3,40,0,0
144215,-100,4,3,3,70,0,0
144711,-100,4,3,4,40,0,0
144959,-100,4,3,4,70,0,0
145041,-100,4,3,4,40,0,0
145372,-100,4,3,4,70,0,0
145537,-100,4,3,4,40,0,0
145703,-100,4,3,4,70,0,0
145785,-100,4,3,4,40,0,0
145951,-100,4,3,4,70,0,0
146033,-100,4,3,4,40,0,0
146198,-100,4,3,4,70,0,0
146281,-100,4,3,4,40,0,0
146446,-100,4,3,4,70,0,0
146529,-100,4,3,4,40,0,0
146612,-100,4,3,4,45,0,0
146694,-100,4,3,4,50,0,0
146777,-100,4,3,4,55,0,0
146860,-100,4,3,4,60,0,0
146942,-100,4,1,2,70,0,0
148430,-333.333333333333,4,1,2,70,0,0
148843,-333.333333333333,4,1,2,5,0,0
148925,-50,4,2,8,70,0,1
149422,-333.333333333333,4,2,8,70,0,1
149917,-58.8235294117647,4,2,8,70,0,1
150134,-58.8235294117647,4,2,8,5,0,1
150165,-58.8235294117647,4,2,8,70,0,1
150413,-40,4,2,8,70,0,1
150785,-50,4,2,8,70,0,1
150816,-50,4,2,8,5,0,1
150909,-50,4,2,8,70,0,1
151901,-55.5555555555556,4,2,8,70,0,1
152118,-55.5555555555556,4,2,8,5,0,1
152149,-55.5555555555556,4,2,8,70,0,1
152428,-55.5555555555556,4,2,8,5,0,1
152552,-55.5555555555556,4,2,8,70,0,1
152583,-55.5555555555556,4,2,8,5,0,1
152893,-50,4,2,8,70,0,1
154814,-50,4,2,8,5,0,1
154876,-333.333333333333,4,2,8,70,0,1
155372,-33.3333333333333,4,2,8,70,0,1
155589,-33.3333333333333,4,2,8,5,0,1
155620,-55.5555555555556,4,2,8,70,0,1
156116,-333.333333333333,4,2,8,70,0,1
156859,-40,4,2,8,70,0,1
157603,-333.333333333333,4,2,8,70,0,1
157851,-50,4,2,8,70,0,1
158068,-50,4,2,8,5,0,1
158099,-333.333333333333,4,2,8,70,0,1
158347,-50,4,2,8,70,0,1
158471,-50,4,2,8,5,0,1
158513,-50,4,2,8,70,0,1
158595,-333.333333333333,4,2,8,70,0,1
158843,-40,4,2,8,70,0,1
160331,-55.5555555555556,4,2,8,70,0,1
160578,-333.333333333333,4,2,8,70,0,1
161074,-40,4,2,8,70,0,1
161291,-40,4,2,8,5,0,1
161322,-40,4,2,8,70,0,1
161539,-40,4,2,8,5,0,1
161570,-333.333333333334,4,2,8,70,0,1
161818,-125,4,2,8,70,0,1
162035,-125,4,2,8,5,0,1
162066,-50,4,2,8,70,0,1
162645,-100,4,2,8,70,0,1
162810,-50,4,2,8,70,0,1
163802,-40,4,2,8,70,0,1
164019,-40,4,2,8,5,0,1
164049,-40,4,2,8,70,0,1
164267,-40,4,2,8,5,0,1
164297,-33.3333333333333,4,2,8,70,0,0
180661,-100,4,1,2,50,0,0
196033,-333.333333333333,4,1,2,70,0,0
196446,-333.333333333333,4,1,2,5,0,0
196529,-50,4,2,8,70,0,1
197025,-333.333333333333,4,2,8,70,0,1
197520,-58.8235294117647,4,2,8,70,0,1
197737,-58.8235294117647,4,2,8,5,0,1
197768,-58.8235294117647,4,2,8,70,0,1
198016,-40,4,2,8,70,0,1
198388,-50,4,2,8,70,0,1
199504,-55.5555555555556,4,2,8,70,0,1
199721,-55.5555555555556,4,2,8,5,0,1
199752,-55.5555555555556,4,2,8,70,0,1
200000,-27.7777777777778,4,2,8,70,0,1
200496,-50,4,2,8,70,0,1
202417,-50,4,2,8,5,0,1
202479,-333.333333333333,4,2,8,70,0,1
202975,-33.3333333333333,4,2,8,70,0,1
203192,-33.3333333333333,4,2,8,5,0,1
203223,-55.5555555555556,4,2,8,70,0,1
203719,-333.333333333333,4,2,8,70,0,1
204462,-40,4,2,8,70,0,1
205206,-333.333333333333,4,2,8,70,0,1
205454,-50,4,2,8,70,0,1
205671,-50,4,2,8,5,0,1
205702,-333.333333333333,4,2,8,70,0,1
205950,-50,4,2,8,70,0,1
206074,-50,4,2,8,5,0,1
206116,-50,4,2,8,70,0,1
206198,-333.333333333333,4,2,8,70,0,1
206446,-40,4,2,8,70,0,1
207934,-55.5555555555556,4,2,8,70,0,1
208181,-333.333333333333,4,2,8,70,0,1
208677,-40,4,2,8,70,0,1
208894,-40,4,2,8,5,0,1
208925,-40,4,2,8,70,0,1
209142,-40,4,2,8,5,0,1
209173,-333.333333333334,4,2,8,70,0,1
209421,-125,4,2,8,70,0,1
209638,-125,4,2,8,5,0,1
209669,-50,4,2,8,70,0,1
210248,-100,4,2,8,70,0,1
210413,-50,4,2,8,70,0,1
211405,-40,4,2,8,70,0,1
211622,-40,4,2,8,5,0,1
211652,-40,4,2,8,70,0,1
211870,-40,4,2,8,5,0,1
211900,-100,4,2,8,70,0,1
212397,-100,4,1,2,70,0,0
212480,-100,4,1,2,35,0,0
212893,-100,4,1,2,60,0,0
212976,-100,4,1,2,35,0,0
213637,-100,4,1,2,60,0,0
213968,-100,4,1,2,35,0,0
214381,-100,4,1,2,70,0,0
214463,-100,4,1,2,35,0,0
214877,-100,4,1,2,60,0,0
214959,-100,4,1,2,35,0,0
215620,-100,4,1,2,60,0,0
215951,-100,4,1,2,35,0,0
216364,-100,4,1,2,70,0,0
216447,-100,4,1,2,35,0,0
216860,-100,4,1,2,60,0,0
216943,-100,4,1,2,35,0,0
217604,-100,4,1,2,60,0,0
217935,-100,4,1,2,35,0,0
218348,-100,4,1,2,70,0,0
218430,-100,4,1,2,35,0,0
218844,-100,4,1,2,60,0,0
218926,-100,4,1,2,35,0,0
219587,-100,4,1,2,60,0,0
219918,-100,4,1,2,35,0,0
220331,-100,4,1,2,70,0,0
220414,-100,4,1,2,35,0,0
220827,-100,4,1,2,60,0,0
220910,-100,4,1,2,35,0,0
221571,-100,4,1,2,60,0,0
221901,-100,4,1,2,35,0,0
222315,-100,4,1,2,70,0,0
222397,-100,4,1,2,35,0,0
222811,-100,4,1,2,60,0,0
222893,-100,4,1,2,35,0,0
223554,-100,4,1,2,60,0,0
223885,-100,4,1,2,35,0,0
228264,-100,4,1,2,70,0,0
228347,-100,4,1,2,35,0,0
228760,-100,4,1,2,60,0,0
228843,-100,4,1,2,35,0,0
229504,-100,4,1,2,60,0,0
229835,-100,4,1,2,35,0,0
230248,-100,4,1,2,70,0,0
230330,-100,4,1,2,35,0,0
230744,-100,4,1,2,60,0,0
230826,-100,4,1,2,35,0,0
231487,-100,4,1,2,60,0,0
231818,-100,4,1,2,35,0,0
232231,-100,4,1,2,70,0,0
232314,-100,4,1,2,35,0,0
232727,-100,4,1,2,60,0,0
232810,-100,4,1,2,35,0,0
233471,-100,4,1,2,60,0,0
233802,-100,4,1,2,35,0,0
234215,-100,4,1,2,70,0,0
234297,-100,4,1,2,35,0,0
234711,-100,4,1,2,60,0,0
234793,-100,4,1,2,35,0,0
235454,-100,4,1,2,60,0,0
235785,-100,4,1,2,35,0,0
236198,-100,4,1,2,70,0,0
236281,-100,4,1,2,35,0,0
236694,-100,4,1,2,60,0,0
236777,-100,4,1,2,35,0,0
237438,-100,4,1,2,60,0,0
237768,-100,4,1,2,35,0,0
238182,-100,4,1,2,70,0,0
238264,-100,4,1,2,35,0,0
238678,-100,4,1,2,60,0,0
238760,-100,4,1,2,35,0,0
239421,-100,4,1,2,60,0,0
239752,-100,4,1,2,35,0,0

[Colours]
Combo1 : 26,116,242
Combo2 : 107,84,84
Combo3 : 17,213,234
Combo4 : 122,208,250
Combo5 : 224,37,37

[HitObjects]
226,200,10083,6,0,P|172:143|149:67,1,160,8|0,0:0|0:0,0:0:0:0:
304,342,10578,2,0,P|358:285|380:209,1,160,4|0,0:0|0:0,0:0:0:0:
208,111,10950,1,0,0:0:0:0:
127,125,11074,6,0,L|-9:145,1,106.666666666667
414,171,11322,1,4,0:0:0:0:
103,48,11570,5,8,0:0:0:0:
158,245,11735,5,4,0:0:0:0:
182,322,11818,1,0,0:0:0:0:
40,155,11983,5,0,3:0:0:0:
35,141,12066,2,0,P|101:86|190:75,1,160,4|0,0:0|0:0,0:0:0:0:
388,347,12562,2,0,P|307:317|253:245,1,160,8|0,0:0|0:0,0:0:0:0:
204,124,12975,5,0,3:0:0:0:
204,124,13058,2,0,P|211:72|241:28,1,106.666666666667
64,177,13306,1,4,0:0:0:0:
64,177,13554,2,0,P|103:193|169:196,1,80,8|4,0:0|0:0,0:0:0:0:
120,50,13802,1,0,0:0:0:0:
311,230,13967,5,0,3:0:0:0:
245,282,14049,2,0,P|176:309|83:321,1,160,4|0,0:0|0:0,0:0:0:0:
63,89,14545,2,0,P|149:113|233:118,1,160,8|0,0:0|0:0,0:0:0:0:
386,222,14959,5,0,3:0:0:0:
461,239,15041,2,0,B|486:243|486:243|495:141,1,106.666666666667
507,17,15289,1,4,0:0:0:0:
468,336,15537,5,8,0:0:0:0:
259,303,15702,1,4,0:0:0:0:
337,282,15785,1,0,0:0:0:0:
72,333,15950,1,0,3:0:0:0:
151,354,16033,6,0,L|137:176,1,160,4|0,0:0|0:0,0:0:0:0:
416,263,16529,2,0,L|430:85,1,160,8|0,0:0|0:0,0:0:0:0:
285,135,16942,1,0,3:0:0:0:
276,87,17025,1,0,0:0:0:0:
389,274,17190,1,0,0:0:0:0:
391,254,17273,1,4,0:0:0:0:
267,294,17521,6,0,B|251:272|251:272|153:278,2,106.666666666667,8|4|0,0:0|0:0|0:0,0:0:0:0:
90,125,17934,5,0,3:0:0:0:
65,205,18016,2,0,L|70:398,1,160,4|0,0:0|0:0,0:0:0:0:
168,24,18512,2,0,L|173:217,1,160,8|0,0:0|0:0,0:0:0:0:
318,341,18925,6,0,P|299:355|269:363,3,53.3333333333333
268,276,19256,1,4,0:0:0:0:
286,272,19504,5,8,0:0:0:0:
49,154,19669,1,4,0:0:0:0:
55,186,19752,1,0,0:0:0:0:
144,356,19917,5,0,3:0:0:0:
129,276,20000,2,0,L|139:105,1,160,4|0,0:0|0:0,0:0:0:0:
356,193,20496,2,0,L|345:5,1,160,8|0,0:0|0:0,0:0:0:0:
138,116,20909,5,0,3:0:0:0:
132,111,20992,2,0,P|144:79|167:51,2,53.3333333333333
57,58,21240,1,4,0:0:0:0:
233,104,21487,5,8,0:0:0:0:
78,185,21653,1,4,0:0:0:0:
65,175,21735,1,0,0:0:0:0:
56,348,21901,5,0,0:0:0:0:
51,325,21983,2,0,B|137:290|108:357|209:322,1,160,4|0,0:0|0:0,0:0:0:0:
365,259,22479,2,0,B|377:167|421:226|441:120,1,160,8|0,0:0|0:0,0:0:0:0:
275,65,22892,5,0,0:0:0:0:
277,57,22975,2,0,P|265:25|242:-3,2,53.3333333333333
186,67,23223,1,4,0:0:0:0:
48,188,23471,6,0,B|81:190|81:190|92:91,1,106.666666666667,8|4,0:0|0:0,0:0:0:0:
96,33,23719,1,0,0:0:0:0:
328,344,23884,5,0,0:0:0:0:
236,342,23967,2,0,B|193:340|193:340|202:205,1,160,4|0,0:0|0:0,0:0:0:0:
363,17,24463,2,0,B|417:23|445:46|445:46|455:81|456:131,1,160,8|0,0:0|0:0,0:0:0:0:
141,158,24876,5,0,0:0:0:0:
226,143,24958,2,0,B|263:134|263:134|253:58,1,106.666666666667
279,262,25206,1,4,0:0:0:0:
98,55,25454,5,8,0:0:0:0:
254,65,25620,1,4,0:0:0:0:
254,65,25702,1,0,0:0:0:0:
52,192,25868,1,0,0:0:0:0:
52,192,25950,5,0,0:0:0:0:
348,192,26198,1,0,0:0:0:0:
316,76,26446,1,8,0:0:0:0:
196,308,26694,1,4,3:0:0:0:
164,192,26859,5,0,3:0:0:0:
52,192,26942,2,0,L|40:136,3,53.3333333333333,0|0|0|0,0:0|2:0|2:0|0:0,2:0:0:0:
316,308,27355,5,0,3:0:0:0:
316,308,27438,2,0,B|328:292|328:292|432:292,1,106.666666666667,8|0,0:0|3:0,0:0:0:0:
196,308,27686,1,0,0:0:0:0:
340,64,27934,6,0,B|347:158|347:158|412:184,1,160,8|0,0:0|0:0,0:0:0:0:
256,200,28264,5,0,2:0:0:0:
172,64,28347,2,0,B|164:158|164:158|100:184,1,160,8|0,0:0|0:0,0:0:0:0:
196,308,28677,6,0,B|184:292|184:292|80:292,1,106.666666666667,8|0,0:0|0:0,0:0:0:0:
256,200,28925,2,0,L|256:144,3,53.3333333333333,8|0|0|0,0:0|3:0|3:0|0:0,0:0:0:0:
256,32,29339,5,4,0:3:0:0:
256,32,29421,1,8,0:0:0:0:
256,200,29669,6,0,L|256:336,1,106.666666666667,2|0,0:3|0:0,0:0:0:0:
256,116,29917,1,0,0:0:0:0:
378,55,31156,5,4,0:0:0:0:
378,55,31528,1,8,0:0:0:0:
225,41,31901,6,0,B|258:27|258:27|238:139|238:139|157:152,1,200.000007629395,4|0,0:0|2:0,0:0:0:0:
9,202,32397,2,0,P|99:221|170:301,1,191.999994140625,8|0,0:0|0:0,0:0:0:0:
340,204,32810,6,0,B|320:204|320:204|306:267,1,80,2|0,2:0|0:0,0:0:0:0:
290,352,33140,1,4,0:0:0:0:
144,56,33388,5,8,0:0:0:0:
365,46,33512,1,4,0:0:0:0:
152,56,33636,6,0,L|187:55,1,26.6666666666667,2|0,0:2|0:0,0:0:0:0:
489,302,33884,6,0,B|466:301|466:301|446:189|446:189|365:176,1,200.000007629395,4|0,0:0|0:0,0:0:0:0:
28,34,34380,2,0,P|78:147|196:187,1,255.9999921875,8|0,0:0|2:0,0:0:0:0:
256,155,34876,2,0,P|228:176|195:186,1,70,4|0,0:0|0:0,0:0:0:0:
195,186,35124,6,0,B|157:135|158:93|158:93|185:106,1,127.99999609375,0|0,0:3|2:0,0:0:0:0:
255,309,35372,1,8,0:0:0:0:
302,87,35496,1,4,0:0:0:0:
255,309,35620,2,0,B|231:312|249:357|328:287,1,106.666666666667,4|0,0:0|0:0,0:0:0:0:
423,140,35868,6,0,P|447:100|401:130,1,146.666671142578,4|0,0:0|2:0,0:0:0:0:
323,291,36363,2,0,B|344:192|232:135|232:135|97:125|59:253,1,383.99998828125,8|8,0:0|3:0,0:0:0:0:
307,351,37107,2,0,B|302:360|318:370|330:335|322:271,1,80.0000030517579,4|0,0:0|0:0,0:0:0:0:
448,14,37355,6,0,P|429:74|456:138,1,127.99999609375,8|4,0:3|0:0,0:0:0:0:
98,148,37851,6,0,P|115:47|45:133,1,266.666666666667,12|0,0:3|0:0,0:0:0:0:
40,343,38347,6,0,B|149:343|88:239|249:243,1,223.999993164063,8|0,0:0|0:0,0:0:0:0:
267,162,38719,1,4,3:0:0:0:
227,243,38843,2,0,B|305:228|276:286|405:258,1,160,2|4,0:3|0:0,0:0:0:0:
152,9,39215,5,0,0:0:0:0:
181,168,39339,2,0,B|170:110|170:110|101:105,2,95.9999970703126,8|4|8,0:0|0:0|3:0,0:0:0:0:
207,338,39711,1,4,0:3:0:0:
67,270,39835,6,0,B|92:290|92:290|183:166|183:166|282:157,1,240,4|0,0:0|0:0,0:0:0:0:
411,43,40330,6,0,B|447:52|447:52|414:270,1,223.999993164063,8|0,0:0|0:0,0:0:0:0:
351,152,40661,1,4,3:0:0:0:
265,160,40744,2,0,L|162:167,1,80.0000030517579,0|0,0:0|2:0,0:0:0:0:
290,289,40992,5,4,3:0:0:0:
384,284,41074,2,0,B|412:282|412:282|433:142,1,127.99999609375,4|0,0:0|2:0,0:0:0:0:
445,55,41322,2,0,L|311:36,1,127.99999609375,8|4,0:0|0:0,0:0:0:0:
425,126,41570,1,8,0:3:0:0:
497,113,41694,1,4,0:3:0:0:
310,270,41818,6,0,B|315:290|302:317|302:317|273:319|273:319|254:327|254:327|233:316|233:316|203:315|203:315|192:294|203:269,1,200.000007629395,4|0,0:0|2:0,0:0:0:0:
260,0,42314,6,0,B|260:104|260:104|255:112|255:112|256:248,1,223.999993164063,8|8,0:0|0:3,0:0:0:0:
385,335,42686,1,4,0:3:0:0:
384,311,42810,6,0,L|386:226,1,80.0000030517579,0|0,0:0|3:0,0:0:0:0:
127,311,43058,2,0,L|123:144,1,127.99999609375,4|0,0:0|0:0,0:0:0:0:
91,46,43306,6,0,L|128:39,1,23.9999992675781,8|0,0:0|0:0,0:0:0:0:
317,16,43430,2,0,L|282:19,1,23.9999992675781,4|0,0:0|0:0,0:0:0:0:
155,12,43554,2,0,L|186:24,1,23.9999992675781,8|0,3:0|0:0,0:0:0:0:
334,49,43678,1,4,3:0:0:0:
80,35,43802,6,0,B|22:47|9:84|9:84|3:88|3:88|6:94|6:94|-9:154|60:203,1,200.000007629395,4|0,0:0|2:0,0:0:0:0:
192,325,44297,6,0,B|237:337|237:337|234:135,1,223.999993164063,8|0,0:0|0:0,0:0:0:0:
264,55,44669,2,0,P|287:85|331:105,1,55.9999982910157,8|0,3:0|0:0,0:0:0:0:
361,94,44793,6,0,P|321:109|303:151,1,80.0000030517579,4|0,3:0|2:0,0:0:0:0:
328,261,45041,2,0,P|272:232|206:219,1,127.99999609375,12|0,0:0|2:0,0:0:0:0:
28,205,45289,5,8,0:0:0:0:
264,55,45413,1,4,0:0:0:0:
71,35,45537,2,0,P|118:42|175:67,1,106.666666666667,8|0,3:0|0:0,0:0:0:0:
245,144,45785,5,12,0:0:0:0:
28,205,46033,2,0,P|28:156|45:109,1,80
71,35,46280,5,8,0:0:0:0:
209,222,46405,1,0,0:0:0:0:
129,238,46529,1,0,0:0:0:0:
226,132,46653,6,0,B|186:109|198:147|148:131,2,80,0|8|0,0:0|0:0|0:0,0:0:0:0:
414,118,47025,1,6,0:0:0:0:
424,323,47273,6,0,L|428:377,2,53.3333333333333,12|0|0,0:0|0:0|0:0,0:0:0:0:
394,216,47520,1,4,0:0:0:0:
394,216,47644,6,0,B|435:199|426:239|470:225,2,80,4|8|0,0:0|0:0|0:0,0:0:0:0:
256,194,48016,1,2,0:0:0:0:
344,32,48264,5,8,0:0:0:0:
440,43,48388,1,0,0:0:0:0:
349,146,48512,1,0,0:0:0:0:
169,137,48636,6,0,B|199:103|159:99|187:62,2,80,0|8|0,0:0|0:0|0:0,0:0:0:0:
327,247,49008,1,4,0:0:0:0:
327,247,49255,5,12,0:0:0:0:
172,226,49379,1,4,0:0:0:0:
250,205,49503,1,0,0:0:0:0:
138,295,49628,6,0,P|140:329|129:388,2,80,4|12|0,0:0|0:0|0:0,0:0:0:0:
81,105,49999,1,2,0:0:0:0:
232,283,50247,5,8,0:0:0:0:
326,171,50371,1,0,0:0:0:0:
374,311,50495,1,0,1:0:0:0:
158,331,50620,6,0,B|127:243|185:254|145:155,1,160,6|0,0:0|0:0,0:0:0:0:
81,104,50992,2,0,P|110:77|148:65,2,80,4|0|8,0:0|0:0|0:0,0:0:0:0:
106,273,51405,5,4,0:0:0:0:
106,273,51735,6,0,P|152:260|211:267,1,80,12|0,0:0|0:0,0:0:0:0:
386,297,51982,1,2,0:0:0:0:
386,297,52231,2,0,P|382:257|397:199,2,80,8|0|2,0:0|0:0|0:0,0:0:0:0:
373,86,52727,6,0,L|274:89,1,80,8|0,0:0|0:0,0:0:0:0:
114,96,52975,1,4,0:0:0:0:
452,81,53223,6,0,L|360:86,1,80,8|4,0:0|0:0,0:0:0:0:
193,94,53471,6,0,L|87:96,1,80,4|4,0:0|0:0,0:0:0:0:
59,196,53720,6,0,P|145:190|214:256,1,160,12|0,0:0|0:0,0:0:0:0:
233,290,54215,6,0,P|237:234|264:151,1,120,12|0,0:0|0:0,0:0:0:0:
287,105,54463,1,0,0:0:0:0:
217,175,54587,6,0,P|178:182|142:199,2,80,4|8|0,0:0|0:0|0:0,0:0:0:0:
416,153,54959,1,4,0:0:0:0:
416,153,55206,5,8,0:0:0:0:
461,36,55330,1,4,0:0:0:0:
342,0,55454,1,0,0:0:0:0:
162,122,55578,6,0,P|125:135|73:136,2,80,0|8|0,0:0|0:0|0:0,0:0:0:0:
352,147,55950,2,0,P|344:192|314:232,1,80,2|0,0:0|0:0,0:0:0:0:
206,289,56198,5,12,0:0:0:0:
114,287,56322,1,0,0:0:0:0:
243,268,56446,1,0,0:0:0:0:
52,225,56570,6,0,B|17:210|0:168,2,80,0|8|0,0:0|0:0|0:0,0:0:0:0:
115,94,56942,1,4,0:0:0:0:
117,170,57190,5,12,0:0:0:0:
289,147,57314,1,4,0:0:0:0:
185,128,57438,1,2,0:0:0:0:
206,52,57562,6,0,P|178:24|164:-22,2,80,0|8|0,0:0|0:0|0:0,0:0:0:0:
430,186,57934,2,0,P|428:125|446:78,1,106.666666666667,0|8,0:0|0:0,0:0:0:0:
444,83,58182,5,8,0:0:0:0:
444,83,58264,2,0,P|446:144|428:191,1,106.666666666667,0|8,0:0|0:0,0:0:0:0:
255,323,58512,1,0,0:0:0:0:
255,323,58595,5,0,0:0:0:0:
255,323,58677,2,0,L|255:235,1,53.3333333333333,10|0,0:0|0:0,0:0:0:0:
116,123,58843,5,0,0:0:0:0:
133,132,58925,2,0,L|208:175,1,53.3333333333333,8|0,0:0|0:0,0:0:0:0:
393,121,59091,5,0,0:0:0:0:
380,130,59173,2,0,L|304:174,2,53.3333333333333,8|0|0,0:0|0:0|0:0,0:0:0:0:
255,188,59421,5,8,0:0:0:0:
255,188,59504,5,8,0:0:0:0:
255,188,59587,5,8,0:0:0:0:
255,188,59669,5,12,0:0:0:0:
93,31,60165,1,4,0:0:0:0:
151,248,60661,6,0,L|141:328,1,80,12|0,0:0|2:0,0:0:0:0:
183,25,60909,1,12,0:0:0:0:
212,192,61157,6,0,L|300:192,1,80,2|0,2:0|2:0,0:0:0:0:
134,134,61653,6,0,L|134:74,1,40,14|0,0:1|0:0,0:0:0:0:
134,134,61901,2,0,L|134:74,1,40,2|0,0:0|0:0,0:0:0:0:
371,308,62149,6,0,L|418:313,1,47.9999985351563,10|0,0:1|0:0,0:0:0:0:
197,298,62520,1,0,0:0:0:0:
204,297,62644,6,0,P|250:189|232:52,1,238.00000453949,4|0,1:0|0:0,0:0:0:0:
166,42,62892,1,4,0:1:0:0:
334,84,63016,5,6,0:1:0:0:
166,42,63140,2,0,P|216:171|187:334,1,266.666666666667,8|0,0:1|0:0,0:0:0:0:
465,218,63512,2,0,P|461:243|454:255,1,40,2|0,0:0|0:0,0:0:0:0:
454,255,63636,6,0,P|391:154|416:278,2,320,14|0|0,0:1|0:0|0:0,0:0:0:0:
118,84,64380,1,2,0:0:0:0:
118,84,64628,6,0,L|401:91,1,251.999992309571,4|0,0:1|0:0,0:0:0:0:
405,91,64876,1,6,0:1:0:0:
82,83,65124,6,0,L|136:84,1,35.9999989013672
405,91,65289,2,0,L|349:90,1,47.9999985351563,2|0,0:1|0:0,0:0:0:0:
314,331,65620,6,0,B|269:326|269:326|336:174|336:174|447:251,2,320,4|2|8,0:1|0:0|0:1,0:0:0:0:
193,221,66363,2,0,B|349:240|349:240|478:115,2,320,2|0|4,1:0|0:0|0:1,0:0:0:0:
197,10,67107,6,0,P|157:85|80:162,1,160,8|4,0:1|0:1,0:0:0:0:
363,153,67354,1,0,0:0:0:0:
363,153,67479,2,0,P|332:183|286:209,1,80
155,241,67603,6,0,P|133:248|109:248,1,47.9999985351563,4|0,0:1|0:0,0:0:0:0:
124,139,68099,2,0,B|99:123|73:136|73:136|104:50|228:19|303:157|226:262|129:236,1,420.000016021729,8|0,0:1|0:0,0:0:0:0:
154,240,68346,5,0,1:0:0:0:
429,194,68595,6,0,L|442:51,1,143.999995605469
420,346,68843,2,0,L|418:376,1,23.9999992675781,4|0,0:1|0:0,0:0:0:0:
442,51,69090,5,8,0:1:0:0:
427,271,69255,1,4,0:1:0:0:
93,80,69587,6,0,B|214:53|257:152|257:152|321:280|497:152,2,400,6|0|8,0:1|0:0|0:1,0:0:0:0:
252,194,70330,2,0,L|255:230,1,23.9999992675781
372,336,70578,6,0,P|356:160|420:68,1,280,6|0,0:1|0:0,0:0:0:0:
196,129,70826,2,0,L|168:116,1,23.9999992675781,4|0,0:1|0:0,0:0:0:0:
82,47,71074,6,0,P|166:67|193:154,1,160,8|0,0:1|0:1,0:0:0:0:
104,138,71239,1,6,0:1:0:0:
284,112,71322,2,0,L|303:98,1,23.9999992675781,0|0,0:0|1:0,0:0:0:0:
90,304,71570,6,0,B|211:331|254:232|254:232|318:104|497:233,2,400,6|0|8,0:1|0:0|0:1,0:0:0:0:
426,189,72314,2,0,B|320:275|256:147|256:147|213:48|104:72,1,400,2|6,0:1|0:1,0:0:0:0:
143,176,72810,2,0,P|60:148|105:73,1,200,2|4,0:0|0:1,0:0:0:0:
244,86,73058,6,0,P|175:65|104:72,1,143.999995605469,2|0,0:1|0:0,0:0:0:0:
352,106,73306,6,0,L|346:151,2,23.9999992675781,4|0|2,0:1|0:0|0:1,0:0:0:0:
82,297,73802,6,0,P|238:255|433:240,1,350,2|0,0:0|0:0,0:0:0:0:
427,240,74049,2,0,P|220:237|76:183,1,350,2|0,0:0|0:0,0:0:0:0:
16,144,74297,6,0,L|23:113,1,23.9999992675781,2|0,0:1|0:0,0:0:0:0:
148,92,74545,2,0,B|122:147|122:147|133:200,1,112
240,237,74793,6,0,B|220:157|220:157|271:29,2,160,4|0|2,0:1|0:0|0:0,0:0:0:0:
29,16,75206,1,4,0:1:0:0:
29,16,75289,1,8,0:1:0:0:
78,258,75454,5,2,0:0:0:0:
78,258,75537,2,0,P|42:299|15:367,2,106.666666666667,12|0|0,0:1|0:0|0:0,0:0:0:0:
225,128,75785,6,0,P|333:102|436:167,2,213.333333333333,2|0|0,0:0|0:0|0:0,0:0:0:0:
326,77,76198,1,0,0:0:0:0:
251,60,76281,1,4,0:1:0:0:
362,16,76529,6,0,P|308:181|329:354,1,350,4|0,0:1|0:0,0:0:0:0:
169,339,76777,2,0,P|223:173|202:1,1,350,4|0,0:1|0:0,0:0:0:0:
112,215,77025,6,0,B|188:215|188:215|216:263|216:263|284:111|284:111|320:163|320:163|460:163,1,480.000018310548,10|0,0:1|2:0,0:0:0:0:
15,303,77521,6,0,B|57:316|57:316|63:156,1,160,4|0,0:0|0:0,0:0:0:0:
253,39,78016,2,0,B|216:21|216:21|235:145,1,160,8|0,0:0|0:0,0:0:0:0:
101,166,78512,6,0,L|41:154,2,53.3333333333333
308,193,78760,1,4,0:0:0:0:
321,185,79008,5,8,0:0:0:0:
110,256,79173,5,4,0:0:0:0:
193,272,79256,1,0,0:0:0:0:
248,159,79421,5,0,3:0:0:0:
341,152,79504,2,0,L|512:142,1,160,4|0,0:0|0:0,0:0:0:0:
194,87,80000,2,0,L|7:73,1,160,8|0,0:0|0:0,0:0:0:0:
270,52,80413,5,0,3:0:0:0:
270,52,80496,2,0,L|262:-8,2,53.3333333333333
281,135,80744,1,4,0:0:0:0:
287,127,80992,5,8,0:0:0:0:
172,297,81157,2,0,B|155:306|155:306|150:192,1,106.666666666667,4|0,0:0|0:0,0:0:0:0:
134,108,81405,5,0,3:0:0:0:
134,108,81487,2,0,P|57:149|3:198,1,160,4|0,0:0|0:0,0:0:0:0:
316,51,81983,2,0,P|245:24|157:16,1,160,8|0,0:0|0:0,0:0:0:0:
333,136,82397,5,0,3:0:0:0:
333,136,82479,2,0,P|361:145|397:149,2,53.3333333333333
383,232,82727,6,0,P|447:236|531:222,1,106.666666666667,4|0,0:0|0:0,0:0:0:0:
489,231,82975,1,8,0:0:0:0:
214,186,83140,5,4,0:0:0:0:
214,186,83223,1,0,0:0:0:0:
483,320,83388,5,0,3:0:0:0:
483,320,83471,2,0,P|398:320|302:290,1,160,4|0,0:0|0:0,0:0:0:0:
245,262,83843,1,0,0:0:0:0:
307,367,83967,6,0,P|345:351|385:345,2,80,8|0|0,0:0|0:0|0:0,0:0:0:0:
428,243,84339,1,0,3:0:0:0:
418,143,84463,6,0,P|362:173|333:219,1,106.666666666667,4|0,0:0|0:0,0:0:0:0:
160,64,84711,1,4,0:0:0:0:
160,64,84958,6,0,P|178:121|176:181,1,106.666666666667,8|4,0:0|0:0,0:0:0:0:
124,335,85206,1,0,0:0:0:0:
307,51,85454,5,4,3:0:0:0:
390,84,86693,5,4,0:0:0:0:
390,84,87065,1,8,0:0:0:0:
100,295,87438,6,0,P|140:306|184:308,2,80.0000030517579,4|0|0,0:0|0:0|2:0,0:0:0:0:
181,201,87934,2,0,P|271:182|342:102,1,191.999994140625,8|0,0:0|0:0,0:0:0:0:
228,93,88264,1,0,0:0:0:0:
228,93,88347,6,0,P|237:50|240:3,1,80,2|0,2:0|0:0,0:0:0:0:
240,14,88677,1,4,0:0:0:0:
368,326,88925,5,8,0:0:0:0:
383,205,89049,1,4,0:0:0:0:
360,326,89173,6,0,L|325:327,1,26.6666666666667,2|0,0:2|0:0,0:0:0:0:
462,52,89421,6,0,P|413:71|386:116,1,106.666666666667,4|0,0:0|2:0,0:0:0:0:
321,192,89669,2,0,P|370:154|389:107,1,106.666666666667
321,192,89917,6,0,P|271:210|219:209,1,106.666666666667,8|0,0:0|2:0,0:0:0:0:
218,208,90165,2,0,P|165:213|119:238,1,106.666666666667,0|0,0:0|2:0,0:0:0:0:
118,238,90413,6,0,P|156:244|191:231,1,70,4|0,0:0|0:0,0:0:0:0:
185,234,90661,2,0,B|203:191|194:131|194:131|161:109,1,127.99999609375,0|0,0:3|2:0,0:0:0:0:
306,156,90909,1,8,0:0:0:0:
89,101,91033,5,0,0:0:0:0:
390,147,91157,2,0,P|382:187|340:228,1,80
270,311,91405,6,0,P|231:297|195:263,1,80
91,335,91653,2,0,P|132:321|181:269,1,88.000002685547
240,231,91901,6,0,P|207:205|182:156,1,95.9999970703126
93,251,92149,2,0,P|132:222|152:165,1,103.999995239258
222,148,92397,6,0,P|195:84|194:11,1,111.999996582031
190,26,92644,2,0,B|195:17|179:7|167:42|174:87,1,60.0000022888184,4|0,0:0|0:0,0:0:0:0:
83,85,92892,6,0,P|88:145|80:193,1,95.9999970703126,8|4,0:0|0:0,0:0:0:0:
83,180,93388,6,0,P|110:230|73:193,1,160,12|0,0:3|0:0,0:0:0:0:
216,201,93760,1,0,0:0:0:0:
104,311,93884,6,0,B|172:322|148:261|243:277,1,111.999996582031,8|0,0:0|0:0,0:0:0:0:
292,154,94132,2,0,B|332:197|267:206|308:257,1,111.999996582031,0|4,0:0|3:0,0:0:0:0:
286,73,94380,2,0,B|206:80|250:127|119:136,1,160,2|4,0:3|0:0,0:0:0:0:
152,375,94752,5,0,0:0:0:0:
181,216,94876,2,0,B|170:274|170:274|105:278,2,95.9999970703126,8|4|8,0:0|0:0|3:0,0:0:0:0:
207,46,95248,1,4,0:3:0:0:
60,136,95372,6,0,B|122:138|122:138|183:218|183:218|286:216,1,240,4|0,0:0|0:0,0:0:0:0:
427,208,95868,6,0,B|464:211|464:211|453:66|453:66|412:89,1,223.999993164063,8|0,0:0|0:0,0:0:0:0:
431,296,96198,1,4,3:0:0:0:
345,288,96281,2,0,L|279:286,1,40.000001525879,0|0,0:0|2:0,0:0:0:0:
208,182,96529,5,4,3:0:0:0:
302,187,96611,2,0,B|330:189|330:189|351:329,1,127.99999609375,4|0,0:0|2:0,0:0:0:0:
344,287,96859,2,0,L|212:281,1,127.99999609375,8|4,0:0|0:0,0:0:0:0:
216,281,97107,1,8,0:3:0:0:
406,124,97231,5,4,0:3:0:0:
239,120,97355,2,0,B|223:120|223:120|203:198,1,80,4|0,0:0|2:0,0:0:0:0:
140,101,97603,2,0,B|124:101|124:101|104:23,1,80,0|0,0:0|2:0,0:0:0:0:
106,321,97851,6,0,B|118:311|118:311|110:214,1,80,8|0,0:0|0:0,0:0:0:0:
58,172,98099,1,8,0:3:0:0:
198,197,98223,1,4,0:3:0:0:
356,69,98347,6,0,L|358:142,1,60.0000022888184,0|0,0:0|3:0,0:0:0:0:
129,57,98595,2,0,L|124:205,1,95.9999970703126,4|0,0:0|0:0,0:0:0:0:
291,270,98843,6,0,L|289:311,1,23.9999992675781,8|0,0:0|0:0,0:0:0:0:
391,229,98967,2,0,L|390:255,1,23.9999992675781,4|0,0:0|0:0,0:0:0:0:
182,204,99091,6,0,L|181:235,1,23.9999992675781,8|0,3:0|0:0,0:0:0:0:
91,182,99215,2,0,L|90:213,1,23.9999992675781,4|0,3:0|0:0,0:0:0:0:
322,138,99339,6,0,L|406:152,1,80
291,270,99587,2,0,L|409:259,1,88.000002685547
155,104,99835,6,0,L|270:77,1,95.9999970703126
134,315,100082,2,0,L|262:331,1,103.999995239258
91,35,100330,6,0,P|60:24|77:52,1,80.0000030517579,4|0,3:0|2:0,0:0:0:0:
125,114,100578,2,0,P|135:176|127:242,1,127.99999609375,4|0,0:0|2:0,0:0:0:0:
28,179,100826,5,8,0:0:0:0:
264,329,100950,1,4,0:0:0:0:
71,349,101074,1,8,3:0:0:0:
245,240,101198,1,0,0:0:0:0:
135,271,101322,5,12,0:0:0:0:
137,75,105454,5,8,0:0:0:0:
137,75,105785,5,8,0:0:0:0:
221,100,105971,1,0,0:0:0:0:
221,100,106033,2,0,L|359:106,1,106.666666666667,4|0,0:0|0:0,0:0:0:0:
340,185,106281,2,0,L|429:204,2,80,0|0|4,0:0|0:0|0:0,0:0:0:0:
256,192,106653,5,0,0:0:0:0:
256,192,106715,1,0,0:0:0:0:
256,192,106777,1,8,0:0:0:0:
299,116,106901,5,0,0:0:0:0:
220,268,107025,2,0,L|180:364,2,80,4|0|0,0:0|0:0|0:0,0:0:0:0:
299,264,107397,2,0,L|347:364,1,80
210,119,107644,5,0,0:0:0:0:
210,119,107768,2,0,L|169:45,1,80,8|0,0:0|0:0,0:0:0:0:
176,192,108016,6,0,L|97:192,1,80
332,189,108264,2,0,L|553:190,1,160,0|4,0:0|0:0,0:0:0:0:
256,192,108636,5,0,0:0:0:0:
256,192,108760,1,8,0:0:0:0:
256,192,109008,1,4,0:0:0:0:
196,95,109256,5,0,0:0:0:0:
32,158,109421,1,8,0:0:0:0:
32,158,109504,2,0,L|74:54,1,106.666666666667
78,295,109752,2,0,L|145:126,1,160,8|4,0:0|0:0,0:0:0:0:
309,152,110165,5,8,0:0:0:0:
309,152,110248,2,0,L|341:259,2,106.666666666667,0|8|0,0:0|0:0|0:0,0:0:0:0:
372,85,110661,5,0,0:0:0:0:
372,85,110744,2,0,L|439:168,2,80,8|0|4,0:0|0:0|0:0,0:0:0:0:
235,198,111157,6,0,L|237:313,1,106.666666666667,8|0,0:0|0:0,0:0:0:0:
149,233,111363,2,0,L|113:327,2,80,8|0|0,0:0|0:0|0:0,0:0:0:0:
309,152,111735,1,8,0:0:0:0:
372,85,111859,2,0,L|402:181,2,80,0|4|8,0:0|0:0|0:0,0:0:0:0:
85,153,112231,6,0,L|3:322,2,160,4|4|8,0:0|0:0|0:0,0:0:0:0:
140,37,112892,1,0,0:0:0:0:
150,37,112975,1,4,0:0:0:0:
190,303,113140,5,8,0:0:0:0:
200,304,113223,2,0,L|329:306,2,106.666666666667,4|8|0,0:0|0:0|0:0,0:0:0:0:
174,178,113636,5,0,0:0:0:0:
185,178,113719,2,0,L|296:180,2,106.666666666667,8|4|0,0:0|0:0|0:0,0:0:0:0:
150,37,114132,5,8,0:0:0:0:
174,38,114215,2,0,L|288:40,1,106.666666666667,0|8,0:0|0:0,0:0:0:0:
77,252,114463,6,0,L|203:253,1,106.666666666667,4|0,0:0|0:0,0:0:0:0:
236,112,114711,2,0,L|408:114,1,160,8|4,0:0|0:0,0:0:0:0:
375,308,115124,5,8,0:0:0:0:
375,308,115207,2,0,L|354:182,1,106.666666666667,4|8,0:0|0:0,0:0:0:0:
492,324,115454,2,0,L|442:220,1,106.666666666667,4|0,0:0|0:0,0:0:0:0:
280,272,115702,2,0,L|284:97,1,160,8|8,0:0|0:0,0:0:0:0:
181,122,116116,5,8,0:0:0:0:
181,122,116198,2,0,L|231:8,1,106.666666666667
99,253,116446,1,4,0:0:0:0:
99,253,116529,6,0,L|80:83,1,160.000006103516,0|4,0:0|0:0,0:0:0:0:
51,328,116859,1,4,0:0:0:0:
321,156,117190,6,0,P|392:122|432:54,1,160,4|0,0:0|0:0,0:0:0:0:
392,221,117562,1,0,0:0:0:0:
299,245,117686,2,0,P|216:247|132:208,2,160,8|0|0,0:0|0:0|0:0,0:0:0:0:
333,320,118264,5,0,0:0:0:0:
347,318,118347,1,0,0:0:0:0:
353,312,118429,1,4,0:0:0:0:
424,23,118677,5,8,0:0:0:0:
412,382,118842,5,4,0:0:0:0:
412,382,118925,1,0,0:0:0:0:
471,136,119090,5,0,3:0:0:0:
471,136,119173,2,0,L|307:149,1,160,4|0,0:0|0:0,0:0:0:0:
66,153,119545,5,0,0:0:0:0:
138,121,119669,2,0,L|220:92,2,80,8|0|0,0:0|0:0|0:0,0:0:0:0:
0,111,120041,1,0,3:0:0:0:
340,198,120165,5,0,0:0:0:0:
314,206,120248,1,0,0:0:0:0:
325,221,120331,1,0,0:0:0:0:
337,216,120413,1,4,0:0:0:0:
253,161,120537,5,0,0:0:0:0:
243,107,120661,2,0,L|274:-6,2,106.666666666667,8|4|0,0:0|0:0|0:0,0:0:0:0:
73,306,121074,5,0,3:0:0:0:
73,306,121157,2,0,P|126:258|209:235,1,160,4|0,0:0|0:0,0:0:0:0:
512,191,121529,1,0,0:0:0:0:
463,127,121653,2,0,P|386:97|300:87,1,160,8|0,0:0|0:0,0:0:0:0:
204,87,122066,5,0,3:0:0:0:
204,87,122148,2,0,P|174:112|168:135,2,53.3333333333333
248,160,122396,1,4,0:0:0:0:
91,112,122521,5,0,0:0:0:0:
91,112,122644,2,0,P|85:169|114:238,2,106.666666666667,8|4|0,0:0|0:0|0:0,0:0:0:0:
271,158,123057,1,0,3:0:0:0:
271,158,123140,6,0,P|319:151|369:178,1,80,4|0,0:0|0:0,0:0:0:0:
306,360,123388,2,0,P|333:331|346:294,1,80
512,233,123636,2,0,P|473:241|434:234,2,80,8|0|0,0:0|0:0|0:0,0:0:0:0:
476,149,124008,1,0,3:0:0:0:
271,158,124132,6,0,P|278:97|307:50,1,106.666666666667,4|0,0:0|0:0,0:0:0:0:
358,2,124380,1,4,0:0:0:0:
188,140,124627,6,0,P|144:180|116:233,1,106.666666666667,8|4,0:0|0:0,0:0:0:0:
97,292,124875,1,0,0:0:0:0:
299,65,125123,5,4,3:0:0:0:
75,82,125372,1,0,0:0:0:0:
308,65,125620,2,0,L|297:256,1,160,8|0,0:0|0:0,0:0:0:0:
226,277,126033,5,0,3:0:0:0:
226,277,126116,2,0,L|234:345,2,53.3333333333333
84,292,126364,1,4,0:0:0:0:
166,169,126611,5,8,0:0:0:0:
341,151,126777,1,4,0:0:0:0:
309,156,126859,1,0,0:0:0:0:
157,370,127025,5,0,0:0:0:0:
230,358,127107,2,0,B|322:345|263:301|369:281,1,160,4|0,0:0|0:0,0:0:0:0:
442,226,127603,2,0,P|465:145|412:54,1,160,8|0,0:0|0:0,0:0:0:0:
341,35,128016,5,0,0:0:0:0:
341,35,128099,2,0,P|329:67|306:95,2,53.3333333333333
253,33,128347,1,4,0:0:0:0:
47,156,128595,6,0,B|80:154|80:154|91:253,1,106.666666666667,8|4,0:0|0:0,0:0:0:0:
95,311,128843,1,0,0:0:0:0:
346,126,129008,5,0,0:0:0:0:
346,126,129091,6,0,P|305:131|268:124,1,80,4|0,0:0|0:0,0:0:0:0:
435,83,129339,2,0,P|452:42|476:15,1,80
423,195,129587,2,0,P|449:224|462:262,2,80,8|0|0,0:0|0:0|0:0,0:0:0:0:
235,255,129959,1,0,3:0:0:0:
336,280,130083,6,0,P|334:233|310:178,1,80,4|0,0:0|0:0,0:0:0:0:
178,107,130331,1,4,0:0:0:0:
346,118,130454,1,0,0:0:0:0:
115,178,130578,6,0,P|73:215|46:260,1,80,8|4,0:0|0:0,0:0:0:0:
235,255,130826,1,0,0:0:0:0:
87,95,130950,1,0,0:0:0:0:
210,22,131074,6,0,P|252:59|279:104,1,80,8|4,0:0|0:0,0:0:0:0:
123,306,131322,1,0,0:0:0:0:
234,254,131446,2,0,P|233:215|221:176,1,80,8|4,0:3|0:0,0:0:0:0:
291,45,131735,5,0,0:0:0:0:
291,45,131818,1,8,0:3:0:0:
199,325,131983,1,0,0:0:0:0:
199,325,132066,1,8,0:3:0:0:
312,234,132479,5,0,3:0:0:0:
278,149,132727,1,0,0:0:0:0:
278,149,132810,1,8,0:3:0:0:
231,236,133058,5,12,0:0:0:0:
390,169,133306,2,0,P|414:200|423:238,1,80
344,235,133553,5,8,0:0:0:0:
456,111,133678,1,0,0:0:0:0:
382,316,133802,1,0,0:0:0:0:
305,166,133926,6,0,B|265:189|277:151|227:167,2,80,0|8|0,0:0|0:0|0:0,0:0:0:0:
470,185,134298,1,6,0:0:0:0:
344,99,134546,6,0,L|348:45,2,53.3333333333333,12|0|0,0:0|0:0|0:0,0:0:0:0:
344,235,134793,1,4,0:0:0:0:
263,241,134917,6,0,B|222:224|231:264|187:250,2,80,4|8|0,0:0|0:0|0:0,0:0:0:0:
438,227,135289,1,2,0:0:0:0:
281,213,135537,5,8,0:0:0:0:
264,318,135661,1,0,0:0:0:0:
293,135,135785,1,0,0:0:0:0:
171,276,135909,6,0,B|201:310|161:314|189:351,2,80,0|8|0,0:0|0:0|0:0,0:0:0:0:
352,200,136281,1,4,0:0:0:0:
203,235,136528,5,12,0:0:0:0:
361,272,136652,1,4,0:0:0:0:
125,212,136776,1,0,0:0:0:0:
418,222,136901,6,0,P|449:209|498:174,2,80,4|12|0,0:0|0:0|0:0,0:0:0:0:
89,280,137272,1,2,0:0:0:0:
42,217,137520,5,8,0:0:0:0:
125,212,137644,1,0,0:0:0:0:
89,280,137768,1,0,1:0:0:0:
208,256,137893,6,0,B|240:176|182:187|213:99,1,160,6|0,0:0|0:0,0:0:0:0:
146,49,138265,2,0,P|175:22|213:10,2,80,4|0|8,0:0|0:0|0:0,0:0:0:0:
97,126,138678,5,4,0:0:0:0:
387,116,139008,6,0,P|341:129|282:122,1,80,12|0,0:0|0:0,0:0:0:0:
223,93,139256,1,2,0:0:0:0:
466,163,139504,2,0,P|432:185|394:197,2,80,8|0|2,0:0|0:0|0:0,0:0:0:0:
419,286,140000,6,0,P|380:284|326:261,1,80,8|0,0:0|0:0,0:0:0:0:
241,214,140248,1,4,0:0:0:0:
241,214,140496,6,0,L|246:122,1,80,8|4,0:0|0:0,0:0:0:0:
365,144,140744,6,0,L|367:38,1,80,4|4,0:0|0:0,0:0:0:0:
290,300,140993,6,0,P|204:306|139:237,1,160,12|0,0:0|0:0,0:0:0:0:
307,63,141488,5,12,0:0:0:0:
294,138,141612,1,0,0:0:0:0:
340,41,141736,1,0,0:0:0:0:
263,159,141860,6,0,P|263:184|284:255,2,80,4|8|0,0:0|0:0|0:0,0:0:0:0:
195,19,142232,1,4,0:0:0:0:
201,247,142479,5,4,0:0:0:0:
294,138,142603,1,0,0:0:0:0:
198,258,142727,1,8,0:0:0:0:
276,115,142851,6,0,L|187:97,2,80,0|8|0,0:0|0:0|0:0,0:0:0:0:
412,190,143223,1,2,0:0:0:0:
440,17,143471,5,12,0:0:0:0:
348,19,143595,1,0,0:0:0:0:
477,38,143719,1,0,0:0:0:0:
267,44,143843,6,0,B|232:59|215:101,2,80,0|8|0,0:0|0:0|0:0,0:0:0:0:
355,255,144215,1,4,0:0:0:0:
355,255,144463,5,12,0:0:0:0:
347,175,144587,1,4,0:0:0:0:
424,202,144711,1,2,0:0:0:0:
272,225,144835,6,0,P|244:253|230:299,2,80,0|8|0,0:0|0:0|0:0,0:0:0:0:
162,342,145207,2,0,P|145:291|148:238,1,106.666666666667,0|8,0:0|0:0,0:0:0:0:
59,212,145455,5,8,0:0:0:0:
59,212,145537,2,0,P|80:164|118:126,1,106.666666666667,0|8,0:0|0:0,0:0:0:0:
97,44,145785,1,0,0:0:0:0:
127,33,145868,5,0,0:0:0:0:
141,32,145950,2,0,P|179:42|206:63,1,53.3333333333333,10|0,0:0|0:0,0:0:0:0:
251,126,146116,5,0,0:0:0:0:
251,126,146198,2,0,L|273:216,1,53.3333333333333,8|0,0:0|0:0,0:0:0:0:
222,239,146364,5,0,0:0:0:0:
222,239,146446,2,0,L|241:320,2,53.3333333333333,8|0|0,0:0|0:0|0:0,0:0:0:0:
348,149,146694,5,8,0:0:0:0:
348,149,146777,5,8,0:0:0:0:
348,149,146860,5,8,0:0:0:0:
348,149,146942,5,12,0:0:0:0:
74,91,147438,1,4,0:0:0:0:
312,69,147934,6,0,L|392:59,1,80,12|0,0:0|2:0,0:0:0:0:
40,164,148182,1,12,0:0:0:0:
232,62,148430,6,0,L|317:69,1,79.9999975585938,2|0,2:0|2:0,0:0:0:0:
327,332,148925,6,0,B|291:137|490:254|457:-2,2,320,14|0|0,0:1|0:0|0:0,0:0:0:0:
59,256,149669,1,0,0:0:0:0:
111,314,149793,1,0,0:0:0:0:
198,315,149917,6,0,P|242:195|169:114,1,238.00000453949,4|0,1:0|0:0,0:0:0:0:
108,85,150164,1,4,0:1:0:0:
172,32,150288,5,6,0:1:0:0:
115,177,150413,2,0,P|229:244|360:168,1,266.666666666667,8|0,0:1|0:0,0:0:0:0:
337,69,150785,2,0,B|346:28,1,40,2|0,0:0|0:0,0:0:0:0:
439,24,150909,6,0,B|443:196|294:124|337:311,2,320,14|0|0,0:1|0:0|0:0,0:0:0:0:
449,257,151652,1,2,0:0:0:0:
109,117,151901,6,0,B|256:104|186:234|352:232,1,251.999992309571,4|0,0:1|0:0,0:0:0:0:
449,257,152148,1,6,0:1:0:0:
65,231,152397,6,0,L|59:185,1,35.9999989013672
283,27,152552,2,0,L|288:75,1,35.9999989013672,2|0,0:1|0:0,0:0:0:0:
99,308,152892,6,0,B|109:79|109:79|186:54,2,287.999991210938,4|2|8,0:1|0:0|0:1,0:0:0:0:
114,199,153636,2,0,B|340:183|340:183|294:283,2,320,2|0|4,1:0|0:0|0:1,0:0:0:0:
80,43,154380,6,0,L|81:224,1,160,8|4,0:1|0:1,0:0:0:0:
191,70,154628,1,0,0:0:0:0:
191,70,154752,2,0,L|190:165,1,80
280,191,154876,6,0,P|269:212|252:229,1,47.9999985351563,4|0,0:1|0:0,0:0:0:0:
183,238,155372,2,0,B|205:232|205:232|166:149|239:49|386:74|394:216|334:251|334:251|382:273,1,420.000016021729,8|0,0:1|0:0,0:0:0:0:
280,191,155620,5,0,1:0:0:0:
119,38,155868,6,0,L|116:160,1,95.9999970703126
434,59,156116,2,0,L|434:88,1,23.9999992675781,4|0,0:1|0:0,0:0:0:0:
232,22,156362,5,8,0:1:0:0:
472,173,156529,1,4,0:1:0:0:
251,9,156859,6,0,B|181:111|256:188|256:188|350:295|167:410,2,400,6|0|8,0:1|0:0|0:1,0:0:0:0:
422,92,157603,2,0,L|450:116,1,23.9999992675781
440,157,157851,6,0,P|328:100|410:8,1,280,6|0,0:1|0:0,0:0:0:0:
314,14,158099,2,0,L|279:22,1,35.9999989013672,4|0,0:1|0:0,0:0:0:0:
90,176,158347,6,0,P|44:102|87:22,1,160,8|0,0:1|0:1,0:0:0:0:
138,96,158511,1,6,0:1:0:0:
5,159,158595,2,0,L|1:183,1,23.9999992675781,0|0,0:0|1:0,0:0:0:0:
276,361,158843,6,0,B|336:253|254:183|254:183|150:84|326:-48,2,400,6|0|8,0:1|0:0|0:1,0:0:0:0:
392,264,159587,2,0,B|392:148|257:148|257:148|116:148|116:284,1,400,2|6,0:1|0:1,0:0:0:0:
226,270,160082,2,0,P|160:329|117:253,1,200,2|4,0:0|0:1,0:0:0:0:
103,113,160330,6,0,P|123:182|116:256,1,133.333333333333,2|0,0:1|0:0,0:0:0:0:
164,49,160578,6,0,L|191:12,2,23.9999992675781,4|0|2,0:1|0:0|0:1,0:0:0:0:
455,309,161074,6,0,B|385:173|374:94|374:94|440:93|451:149|413:188,1,350,2|0,0:0|0:0,0:0:0:0:
425,178,161322,2,0,B|253:137|253:137|65:193,1,350,2|0,0:0|0:0,0:0:0:0:
37,127,161570,6,0,L|62:107,1,23.9999992675781,2|0,0:1|0:0,0:0:0:0:
144,105,161818,2,0,P|199:101|268:110,1,112
308,346,162066,6,0,P|197:354|105:274,2,213.333333333333,4|0|2,0:1|0:0|0:0,0:0:0:0:
381,293,162479,1,4,0:1:0:0:
396,210,162562,1,8,0:1:0:0:
376,179,162727,5,2,0:0:0:0:
362,169,162810,2,0,P|321:122|310:49,2,106.666666666667,12|0|0,0:1|0:0|0:0,0:0:0:0:
201,156,163058,6,0,P|296:98|322:-21,2,213.333333333333,2|0|0,0:0|0:0|0:0,0:0:0:0:
127,177,163470,1,0,0:0:0:0:
179,232,163553,1,4,0:1:0:0:
407,345,163802,6,0,L|246:21,1,350,4|0,0:1|0:0,0:0:0:0:
252,32,164049,2,0,L|100:352,1,350,4|0,0:1|0:0,0:0:0:0:
96,240,164297,6,0,P|276:34|97:245,1,960.000036621095,10|0,0:1|2:0,0:0:0:0:
372,32,180661,6,0,L|356:208,1,160,8|0,0:0|0:0,0:0:0:0:
284,72,181157,2,0,L|268:248,1,160,8|0,0:0|0:0,0:0:0:0:
180,56,181529,5,0,0:0:0:0:
180,56,181653,2,0,L|164:232,1,160,8|0,0:0|0:0,0:0:0:0:
76,24,182149,2,0,L|60:200,1,160,8|0,0:0|0:0,0:0:0:0:
76,24,182644,6,0,L|60:200,1,160,8|0,0:0|0:0,0:0:0:0:
180,56,183140,2,0,L|164:232,1,160,8|0,0:0|0:0,0:0:0:0:
284,72,183636,2,0,L|268:248,1,160,8|0,0:0|0:0,0:0:0:0:
372,32,184132,2,0,L|356:208,1,160,8|0,0:0|0:0,0:0:0:0:
452,352,184628,6,0,L|436:176,1,160,8|0,0:0|0:0,0:0:0:0:
364,312,185124,2,0,L|348:136,1,160,8|0,0:0|0:0,0:0:0:0:
260,328,185496,5,0,0:0:0:0:
260,328,185620,2,0,L|244:152,1,160,8|0,0:0|0:0,0:0:0:0:
156,360,186116,2,0,L|140:184,1,160,8|0,0:0|0:0,0:0:0:0:
156,360,186611,6,0,L|140:184,1,160,8|0,0:0|0:0,0:0:0:0:
260,328,187107,2,0,L|244:152,1,160,8|0,0:0|0:0,0:0:0:0:
364,312,187603,2,0,L|348:136,1,160,8|0,0:0|0:0,0:0:0:0:
452,352,188099,2,0,L|436:176,1,160,8|0,0:0|0:0,0:0:0:0:
256,164,188595,6,0,L|256:-8,1,160,8|0,0:0|0:0,0:0:0:0:
228,168,189091,6,0,L|133:38,1,160,8|0,0:0|0:0,0:0:0:0:
232,200,189463,1,0,0:0:0:0:
232,200,189587,2,0,L|79:249,1,160,8|0,0:0|0:0,0:0:0:0:
256,220,190082,2,0,L|256:380,1,160,8|0,0:0|0:0,0:0:0:0:
280,200,190578,6,0,L|432:249,1,160,8|0,0:0|0:0,0:0:0:0:
284,168,191074,2,0,L|378:38,1,160,8|0,0:0|0:0,0:0:0:0:
280,200,191570,2,0,L|432:249,1,160,8|0,0:0|0:0,0:0:0:0:
256,220,192066,2,0,L|256:380,1,160,8|0,0:0|0:0,0:0:0:0:
232,200,192562,6,0,L|79:249,1,160,8|0,0:0|0:0,0:0:0:0:
228,168,192934,1,0,0:0:0:0:
228,168,193058,2,0,L|133:38,1,160,8|0,0:0|0:0,0:0:0:0:
256,164,193430,1,0,0:0:0:0:
256,164,193554,6,0,L|256:48,1,80,10|0,0:0|0:0,0:0:0:0:
284,168,193802,2,0,L|348:76,1,80,6|0,0:0|0:0,0:0:0:0:
280,200,194049,2,0,L|368:232,1,80,14|0,0:0|0:0,0:0:0:0:
256,220,194297,2,0,L|256:324,1,80,6|0,0:0|0:0,0:0:0:0:
384,252,194545,5,6,0:0:0:0:
172,168,195041,5,6,0:0:0:0:
308,136,195537,5,14,0:0:0:0:
68,48,195785,5,14,0:0:0:0:
320,32,196033,6,0,L|228:48,1,89.9999972534181,2|0,2:0|2:0,0:0:0:0:
128,140,196529,6,0,B|200:128|200:128|332:256|332:256|448:252,2,320,14|0|0,0:1|0:0|0:0,0:0:0:0:
56,92,197272,1,0,0:0:0:0:
51,169,197396,1,0,0:0:0:0:
112,232,197520,6,0,P|227:178|233:69,1,238.00000453949,4|0,1:0|0:0,0:0:0:0:
200,8,197767,1,4,0:1:0:0:
282,16,197891,5,6,0:1:0:0:
140,78,198016,2,0,P|173:206|319:245,1,266.666666666667,8|0,0:1|0:0,0:0:0:0:
468,120,198388,1,2,0:0:0:0:
477,199,198512,6,0,B|358:324|304:167|202:330,2,320,14|0|0,0:1|0:0|0:0,0:0:0:0:
319,371,199255,1,2,0:0:0:0:
178,32,199504,6,0,B|291:126|149:169|268:285,1,251.999992309571,4|0,0:1|0:0,0:0:0:0:
319,371,199751,1,6,0:1:0:0:
435,58,200000,6,0,B|283:118|395:179|238:264,1,287.999991210938
137,114,200496,6,0,B|317:182|257:6|472:65,2,320,4|2|8,0:1|0:0|0:1,0:0:0:0:
484,160,201239,2,0,P|340:176|307:334,2,320,2|0|4,1:0|0:0|0:1,0:0:0:0:
40,96,201983,6,0,L|248:88,1,160,8|4,0:1|0:1,0:0:0:0:
227,169,202231,1,0,0:0:0:0:
227,169,202355,2,0,L|131:193,1,80
152,264,202479,6,0,P|129:271|105:271,1,47.9999985351563,4|0,0:1|0:0,0:0:0:0:
143,150,202975,6,0,B|174:63|296:44|382:166|287:262|219:242|219:242|219:330,1,420.000016021729,8|0,0:1|0:0,0:0:0:0:
219,372,203223,1,0,1:0:0:0:
412,68,203471,6,0,L|418:232,1,143.999995605469
332,51,203719,2,0,L|332:76,1,23.9999992675781,4|0,0:1|0:0,0:0:0:0:
180,232,203967,5,8,0:1:0:0:
464,160,204132,1,4,0:1:0:0:
332,51,204463,6,0,B|210:73|208:181|208:181|199:323|-10:275,2,400,6|0|8,0:1|0:0|0:1,0:0:0:0:
88,108,205206,2,0,L|90:144,1,23.9999992675781
408,164,205454,6,0,P|292:168|368:264,1,280,6|0,0:1|0:0,0:0:0:0:
144,284,205702,2,0,L|113:264,1,35.9999989013672,4|0,0:1|0:0,0:0:0:0:
64,160,205950,6,0,P|136:136|170:48,1,160,8|0,0:1|0:1,0:0:0:0:
164,28,206116,1,6,0:1:0:0:
0,48,206198,2,0,L|8:72,1,23.9999992675781,0|0,0:0|1:0,0:0:0:0:
123,322,206446,6,0,B|242:288|234:181|234:181|230:37|448:68,2,400,6|0|8,0:1|0:0|0:1,0:0:0:0:
366,63,207190,2,0,B|470:59|470:59|366:279|366:279|466:279,1,400,2|6,0:1|0:1,0:0:0:0:
364,280,207686,2,0,B|272:244|272:244|156:288,1,200,2|4,0:0|0:1,0:0:0:0:
136,216,207933,6,0,P|101:153|44:105,1,133.333333333333,2|0,0:1|0:0,0:0:0:0:
420,164,208182,6,0,L|465:156,2,23.9999992675781,4|0|2,0:1|0:0|0:1,0:0:0:0:
236,352,208677,6,0,B|188:192|188:192|244:-8,1,350,2|0,0:0|0:0,0:0:0:0:
288,16,208925,2,0,B|320:196|320:196|252:368,1,350,2|0,0:0|0:0,0:0:0:0:
236,88,209173,6,0,L|267:91,1,29.9999990844727,2|0,0:1|0:0,0:0:0:0:
344,112,209421,2,0,P|385:148|428:203,1,112
312,220,209669,6,0,P|206:185|112:230,2,213.333333333333,4|0|2,0:1|0:0|0:0,0:0:0:0:
246,348,210082,1,4,0:1:0:0:
315,300,210165,1,8,0:1:0:0:
323,264,210330,5,2,0:0:0:0:
320,247,210413,2,0,P|324:185|368:126,2,106.666666666667,12|0|0,0:1|0:0|0:0,0:0:0:0:
220,96,210661,6,0,B|336:120|336:120|430:56,2,213.333333333333,2|0|0,0:0|0:0|0:0,0:0:0:0:
148,87,211073,1,0,0:0:0:0:
192,24,211156,1,4,0:1:0:0:
284,40,211405,6,0,L|399:382,1,350,4|0,0:1|0:0,0:0:0:0:
395,371,211653,2,0,L|416:17,1,350,4|0,0:1|0:0,0:0:0:0:
452,160,211901,6,0,L|272:192,1,160,10|0,0:1|2:0,0:0:0:0:
71,71,212397,6,0,B|162:75|123:141|224:151,1,160,4|0,0:0|0:0,0:0:0:0:
434,224,212892,2,0,B|429:206|429:206|251:246,1,160,8|0,0:0|0:0,0:0:0:0:
96,310,213264,1,0,0:0:0:0:
73,234,213388,2,0,P|100:189|121:127,1,106.666666666667
135,124,213636,1,4,0:0:0:0:
343,192,213884,5,8,0:0:0:0:
29,81,214049,5,4,0:0:0:0:
29,81,214132,1,0,0:0:0:0:
264,272,214297,5,0,3:0:0:0:
264,272,214380,2,0,L|259:67,1,160,4|0,0:0|0:0,0:0:0:0:
416,15,214876,2,0,B|394:25|394:25|381:179,1,160,8|0,0:0|0:0,0:0:0:0:
188,131,215289,5,0,3:0:0:0:
188,131,215372,2,0,L|220:2,1,106.666666666667
257,229,215620,1,4,0:0:0:0:
257,229,215868,2,0,L|180:357,1,106.666666666667,8|4,0:0|0:0,0:0:0:0:
412,164,216116,1,0,0:0:0:0:
100,293,216281,5,0,3:0:0:0:
177,241,216363,2,0,P|246:214|339:202,1,160,4|0,0:0|0:0,0:0:0:0:
244,176,216859,2,0,P|158:152|74:147,1,160,8|0,0:0|0:0,0:0:0:0:
232,64,217273,5,0,3:0:0:0:
307,47,217355,2,0,B|332:43|332:43|341:145,1,106.666666666667
353,269,217603,1,4,0:0:0:0:
44,48,217851,5,8,0:0:0:0:
232,116,218016,1,4,0:0:0:0:
180,108,218099,1,0,0:0:0:0:
416,44,218264,1,0,3:0:0:0:
393,32,218347,6,0,L|407:210,1,160,4|0,0:0|0:0,0:0:0:0:
232,116,218843,2,0,L|218:294,1,160,8|0,0:0|0:0,0:0:0:0:
296,48,219256,1,0,3:0:0:0:
296,48,219339,1,0,0:0:0:0:
144,212,219504,1,0,0:0:0:0:
144,212,219587,1,4,0:0:0:0:
136,98,219835,6,0,B|152:120|152:120|250:114,2,106.666666666667,8|4|0,0:0|0:0|0:0,0:0:0:0:
408,368,220248,5,0,3:0:0:0:
407,280,220330,2,0,L|402:87,1,160,4|0,0:0|0:0,0:0:0:0:
324,360,220826,2,0,L|319:167,1,160,8|0,0:0|0:0,0:0:0:0:
264,128,221239,6,0,P|283:114|313:106,3,53.3333333333333
396,104,221570,1,4,0:0:0:0:
156,174,221818,5,8,0:0:0:0:
464,156,221983,1,4,0:0:0:0:
464,156,222066,1,0,0:0:0:0:
316,8,222231,5,0,3:0:0:0:
248,64,222314,2,0,L|238:235,1,160,4|0,0:0|0:0,0:0:0:0:
156,174,222810,2,0,L|167:362,1,160,8|0,0:0|0:0,0:0:0:0:
380,273,223223,5,0,3:0:0:0:
380,273,223306,2,0,P|368:305|345:333,2,53.3333333333333
296,260,223554,1,4,0:0:0:0:
512,197,223801,5,8,0:0:0:0:
168,280,223967,1,4,0:0:0:0:
168,280,224049,1,0,0:0:0:0:
486,315,224215,5,0,0:0:0:0:
474,243,224297,2,0,B|452:60,1,160,4|0,0:0|0:0,0:0:0:0:
367,0,224793,2,0,B|341:3|318:23|318:23|311:72|344:177,1,160,8|0,0:0|0:0,0:0:0:0:
258,316,225206,5,0,0:0:0:0:
338,308,225289,2,0,P|370:296|398:273,2,53.3333333333333
286,240,225537,1,4,0:0:0:0:
172,120,225785,6,0,B|139:118|139:118|128:217,1,106.666666666667,8|4,0:0|0:0,0:0:0:0:
124,275,226033,1,0,0:0:0:0:
184,40,226198,5,0,0:0:0:0:
276,42,226281,2,0,B|319:44|319:44|310:179,1,160,4|0,0:0|0:0,0:0:0:0:
148,368,226777,2,0,P|126:292|55:254,1,160,8|0,0:0|0:0,0:0:0:0:
371,226,227190,5,0,0:0:0:0:
286,241,227272,2,0,B|249:250|249:250|259:326,1,106.666666666667
233,122,227520,1,4,0:0:0:0:
414,329,227768,5,8,0:0:0:0:
167,140,228264,6,0,L|-24:190,1,160,4|0,0:0|0:0,0:0:0:0:
336,63,228760,2,0,L|156:47,1,160,8|0,0:0|0:0,0:0:0:0:
439,95,229173,1,0,0:0:0:0:
439,95,229255,2,0,L|379:137,2,53.3333333333333
511,39,229503,1,4,0:0:0:0:
381,217,229751,5,8,0:0:0:0:
389,12,229916,5,4,0:0:0:0:
389,12,229999,1,0,0:0:0:0:
357,314,230164,5,0,3:0:0:0:
357,314,230248,2,0,P|308:257|291:159,1,160,4|0,0:0|0:0,0:0:0:0:
153,140,230744,2,0,P|209:92|255:5,1,160,8|0,0:0|0:0,0:0:0:0:
335,107,231156,5,0,3:0:0:0:
250,100,231239,2,0,P|202:112|139:150,1,106.666666666667
408,164,231487,1,4,0:0:0:0:
268,306,231735,2,0,B|234:315|234:315|228:229,1,106.666666666667,8|4,0:0|0:0,0:0:0:0:
301,5,231983,1,0,0:0:0:0:
366,335,232148,5,0,3:0:0:0:
366,335,232231,2,0,P|338:266|326:173,1,160,4|0,0:0|0:0,0:0:0:0:
163,21,232727,2,0,P|138:107|133:191,1,160,8|0,0:0|0:0,0:0:0:0:
368,196,233140,5,0,3:0:0:0:
368,196,233222,2,0,B|440:180,2,53.3333333333333
492,136,233470,1,4,0:0:0:0:
272,312,233718,5,8,0:0:0:0:
417,125,233883,1,4,0:0:0:0:
417,125,233966,1,0,0:0:0:0:
316,371,234131,1,0,3:0:0:0:
316,371,234215,6,0,L|295:196,1,160,4|0,0:0|0:0,0:0:0:0:
512,32,234711,2,0,L|497:205,1,160,8|0,0:0|0:0,0:0:0:0:
413,101,235123,1,0,3:0:0:0:
413,101,235206,1,0,0:0:0:0:
465,266,235371,1,0,0:0:0:0:
485,268,235454,1,4,0:0:0:0:
282,283,235702,6,0,B|304:267|304:267|298:169,2,106.666666666667,8|4|0,0:0|0:0|0:0,0:0:0:0:
224,80,236115,5,0,3:0:0:0:
159,23,236198,2,0,L|-34:28,1,160,4|0,0:0|0:0,0:0:0:0:
404,152,236694,2,0,L|210:157,1,160,8|0,0:0|0:0,0:0:0:0:
82,267,237107,6,0,P|68:248|60:218,3,53.3333333333333
155,217,237437,1,4,0:0:0:0:
213,305,237685,5,8,0:0:0:0:
269,0,237850,1,4,0:0:0:0:
237,4,237933,1,0,0:0:0:0:
67,93,238098,5,0,3:0:0:0:
147,78,238182,2,0,L|318:88,1,160,4|0,0:0|0:0,0:0:0:0:
248,228,238512,5,0,2:0:0:0:
230,305,238677,2,0,L|418:294,1,160,8|0,0:0|0:0,0:0:0:0:
140,208,239091,5,0,3:0:0:0:
140,208,239173,2,0,L|84:216,3,53.3333333333333,8|0|0|0,0:0|3:0|3:0|0:0,0:0:0:0:
428,180,239587,5,4,0:3:0:0:
428,180,239669,1,8,0:0:0:0:
272,192,239917,1,4,0:0:0:0:
