osu file format v14

[General]
AudioFilename: audio.mp3
AudioLeadIn: 0
PreviewTime: -1
Countdown: 0
SampleSet: Soft
StackLeniency: 0.7
Mode: 0
LetterboxInBreaks: 0
WidescreenStoryboard: 0

[Editor]
Bookmarks: 18016,25950,45785,61653,77521,85454,87438,93388,101322,109256,117190,125124,133058,140992,146942,148925,164793,180661,196529,212397,224297,228264,236198
DistanceSpacing: 1.4
BeatDivisor: 4
GridSize: 4
TimelineZoom: 2.2

[Metadata]
Title:LOSER
TitleUnicode:LOSER
Artist:Kenshi Yonezu
ArtistUnicode:米津玄師
Creator:TT Mouse
Version:Hard
Source:
Tags:pdc pdc2018 Pending Cup 2018
BeatmapID:1781984
BeatmapSetID:852562

[Difficulty]
HPDrainRate:5
CircleSize:3.4
OverallDifficulty:8
ApproachRate:9
SliderMultiplier:1.6
SliderTickRate:1

[Events]
//Background and Video events
0,0,"63114307_p0.jpg",0,0
//Break Periods
2,101521,115846
//Storyboard Layer 0 (Background)
//Storyboard Layer 1 (Fail)
//Storyboard Layer 2 (Pass)
//Storyboard Layer 3 (Foreground)
//Storyboard Sound Samples

[TimingPoints]
10083,495.867768595041,4,2,1,70,1,0
10206,-100,4,2,1,10,0,0
10289,-100,4,2,1,70,0,0
10454,-100,4,2,1,10,0,0
10537,-100,4,2,1,70,0,0
10702,-100,4,2,1,10,0,0
10785,-100,4,2,1,70,0,0
10950,-100,4,2,1,10,0,0
11033,-100,4,2,1,70,0,0
11322,-71.4285714285714,4,2,1,70,0,0
11983,-100,4,2,1,70,0,0
12190,-100,4,2,1,10,0,0
12273,-100,4,2,1,70,0,0
12438,-100,4,2,1,10,0,0
12521,-100,4,2,1,70,0,0
12686,-100,4,2,1,10,0,0
12768,-100,4,2,1,70,0,0
12934,-100,4,2,1,10,0,0
13016,-100,4,2,1,70,0,0
13306,-71.4285714285714,4,2,1,70,0,0
13967,-100,4,2,1,70,0,0
14173,-100,4,2,1,10,0,0
14256,-100,4,2,1,70,0,0
14421,-100,4,2,1,10,0,0
14504,-100,4,2,1,70,0,0
14669,-100,4,2,1,10,0,0
14752,-100,4,2,1,70,0,0
14917,-100,4,2,1,10,0,0
15000,-100,4,2,1,70,0,0
15289,-71.4285714285714,4,2,1,70,0,0
15950,-100,4,2,1,70,0,0
16157,-100,4,2,1,10,0,0
16240,-100,4,2,1,70,0,0
16405,-100,4,2,1,10,0,0
16487,-100,4,2,1,70,0,0
16653,-100,4,2,1,10,0,0
16735,-100,4,2,1,70,0,0
16901,-100,4,2,1,10,0,0
16983,-100,4,2,1,70,0,0
17149,-100,4,2,1,10,0,0
17231,-100,4,2,1,70,0,0
17397,-100,4,2,1,10,0,0
17479,-100,4,2,1,70,0,0
17686,-71.4285714285714,4,2,1,70,0,0
18016,-83.3333333333333,4,2,1,70,0,0
18140,-83.3333333333333,4,2,1,10,0,0
18223,-83.3333333333333,4,2,1,70,0,0
18388,-83.3333333333333,4,2,1,10,0,0
18471,-83.3333333333333,4,2,1,70,0,0
18636,-83.3333333333333,4,2,1,10,0,0
18719,-83.3333333333333,4,2,1,70,0,0
18884,-83.3333333333333,4,2,1,10,0,0
18967,-83.3333333333333,4,2,1,70,0,0
19256,-71.4285714285714,4,2,1,70,0,0
20000,-83.3333333333333,4,2,1,70,0,0
20124,-83.3333333333333,4,2,1,10,0,0
20206,-83.3333333333333,4,2,1,70,0,0
20372,-83.3333333333333,4,2,1,10,0,0
20454,-83.3333333333333,4,2,1,70,0,0
20620,-83.3333333333333,4,2,1,10,0,0
20702,-83.3333333333333,4,2,1,70,0,0
20868,-83.3333333333333,4,2,1,10,0,0
20950,-83.3333333333333,4,2,1,70,0,0
21240,-71.4285714285714,4,2,1,70,0,0
21983,-83.3333333333333,4,2,1,70,0,0
22107,-83.3333333333333,4,2,1,10,0,0
22190,-83.3333333333333,4,2,1,70,0,0
22355,-83.3333333333333,4,2,1,10,0,0
22438,-83.3333333333333,4,2,1,70,0,0
22603,-83.3333333333333,4,2,1,10,0,0
22686,-83.3333333333333,4,2,1,70,0,0
22851,-83.3333333333333,4,2,1,10,0,0
22934,-83.3333333333333,4,2,1,70,0,0
23223,-71.4285714285714,4,2,1,70,0,0
23967,-83.3333333333333,4,2,1,70,0,0
24091,-83.3333333333333,4,2,1,10,0,0
24173,-83.3333333333333,4,2,1,70,0,0
24339,-83.3333333333333,4,2,1,10,0,0
24421,-83.3333333333333,4,2,1,70,0,0
24587,-83.3333333333333,4,2,1,10,0,0
24669,-83.3333333333333,4,2,1,70,0,0
24835,-83.3333333333333,4,2,1,10,0,0
24917,-83.3333333333333,4,2,1,70,0,0
29669,-50,4,2,1,70,0,0
29917,-83.3333333333333,4,2,1,70,0,0
31901,-83.3333333333333,4,2,1,70,0,0
61157,-181.818181818181,4,2,1,70,0,0
61405,-181.818181818181,4,2,1,10,0,0
61653,-83.3333333333333,4,2,1,70,0,1
77273,-83.3333333333333,4,2,1,15,0,0
77521,-83.3333333333333,4,2,1,70,0,0
77644,-83.3333333333333,4,2,1,10,0,0
77727,-83.3333333333333,4,2,1,70,0,0
77892,-83.3333333333333,4,2,1,10,0,0
77975,-83.3333333333333,4,2,1,70,0,0
78140,-83.3333333333333,4,2,1,10,0,0
78223,-83.3333333333333,4,2,1,70,0,0
78388,-83.3333333333333,4,2,1,10,0,0
78471,-83.3333333333333,4,2,1,70,0,0
78760,-71.4285714285714,4,2,1,70,0,0
79504,-83.3333333333333,4,2,1,70,0,0
79628,-83.3333333333333,4,2,1,10,0,0
79711,-83.3333333333333,4,2,1,70,0,0
79876,-83.3333333333333,4,2,1,10,0,0
79959,-83.3333333333333,4,2,1,70,0,0
80124,-83.3333333333333,4,2,1,10,0,0
80206,-83.3333333333333,4,2,1,70,0,0
80372,-83.3333333333333,4,2,1,10,0,0
80454,-83.3333333333333,4,2,1,70,0,0
80744,-71.4285714285714,4,2,1,70,0,0
81487,-83.3333333333333,4,2,1,70,0,0
81611,-83.3333333333333,4,2,1,10,0,0
81694,-83.3333333333333,4,2,1,70,0,0
81859,-83.3333333333333,4,2,1,10,0,0
81942,-83.3333333333333,4,2,1,70,0,0
82107,-83.3333333333333,4,2,1,10,0,0
82190,-83.3333333333333,4,2,1,70,0,0
82355,-83.3333333333333,4,2,1,10,0,0
82438,-83.3333333333333,4,2,1,70,0,0
82727,-71.4285714285714,4,2,1,70,0,0
83471,-83.3333333333333,4,2,1,70,0,0
83595,-83.3333333333333,4,2,1,10,0,0
83678,-83.3333333333333,4,2,1,70,0,0
83843,-83.3333333333333,4,2,1,10,0,0
83925,-83.3333333333333,4,2,1,70,0,0
84091,-83.3333333333333,4,2,1,10,0,0
84173,-83.3333333333333,4,2,1,70,0,0
84339,-83.3333333333333,4,2,1,10,0,0
84421,-83.3333333333333,4,2,1,70,0,0
117190,-55.5555555555556,4,2,1,70,0,0
117562,-83.3333333333333,4,2,1,70,0,0
119173,-55.5555555555556,4,2,1,70,0,0
119545,-83.3333333333333,4,2,1,70,0,0
121157,-55.5555555555556,4,2,1,70,0,0
121529,-83.3333333333333,4,2,1,70,0,0
148678,-83.3333333333333,4,2,1,10,0,0
148925,-83.3333333333333,4,2,1,70,0,1
164545,-83.3333333333333,4,2,1,10,0,0
164793,-66.6666666666667,4,2,2,50,0,0
180661,-100,4,2,1,70,0,0
196281,-100,4,2,1,10,0,0
196529,-83.3333333333333,4,2,1,70,0,1
228264,-83.3333333333333,4,2,1,70,0,1
228388,-83.3333333333333,4,2,1,10,0,0
228471,-83.3333333333333,4,2,1,70,0,0
228636,-83.3333333333333,4,2,1,10,0,0
228719,-83.3333333333333,4,2,1,70,0,0
228884,-83.3333333333333,4,2,1,10,0,0
228967,-83.3333333333333,4,2,1,70,0,0
229132,-83.3333333333333,4,2,1,10,0,0
229215,-83.3333333333333,4,2,1,70,0,0
229504,-71.4285714285714,4,2,1,70,0,0
230248,-83.3333333333333,4,2,1,70,0,0
230372,-83.3333333333333,4,2,1,10,0,0
230454,-83.3333333333333,4,2,1,70,0,0
230620,-83.3333333333333,4,2,1,10,0,0
230702,-83.3333333333333,4,2,1,70,0,0
230868,-83.3333333333333,4,2,1,10,0,0
230950,-83.3333333333333,4,2,1,70,0,0
231116,-83.3333333333333,4,2,1,10,0,0
231198,-83.3333333333333,4,2,1,70,0,0
231487,-71.4285714285714,4,2,1,70,0,0
232231,-83.3333333333333,4,2,1,70,0,0
232355,-83.3333333333333,4,2,1,10,0,0
232438,-83.3333333333333,4,2,1,70,0,0
232603,-83.3333333333333,4,2,1,10,0,0
232686,-83.3333333333333,4,2,1,70,0,0
232851,-83.3333333333333,4,2,1,10,0,0
232934,-83.3333333333333,4,2,1,70,0,0
233099,-83.3333333333333,4,2,1,10,0,0
233182,-83.3333333333333,4,2,1,70,0,0
233471,-71.4285714285714,4,2,1,70,0,0
234215,-83.3333333333333,4,2,1,70,0,0
234339,-83.3333333333333,4,2,1,10,0,0
234421,-83.3333333333333,4,2,1,70,0,0
234587,-83.3333333333333,4,2,1,10,0,0
234669,-83.3333333333333,4,2,1,70,0,0
234835,-83.3333333333333,4,2,1,10,0,0
234917,-83.3333333333333,4,2,1,70,0,0
235082,-83.3333333333333,4,2,1,10,0,0
235165,-83.3333333333333,4,2,1,70,0,0

[HitObjects]
24,209,10083,6,0,P|50:206|74:214,1,53.3333333333333,12|0,0:0|0:0,0:0:0:0:
78,242,10330,2,0,P|99:259|111:283,1,53.3333333333333,0|0,1:0|0:0,0:0:0:0:
186,226,10578,2,0,P|165:209|153:185,1,53.3333333333333,2|0,0:2|0:0,0:0:0:0:
134,175,10826,2,0,P|132:149|143:121,1,53.3333333333333,0|0,1:0|0:0,0:0:0:0:
295,184,11074,5,0,0:0:0:0:
304,174,11157,1,0,0:0:0:0:
314,166,11240,1,0,0:0:0:0:
324,157,11322,2,0,P|276:136|214:179,1,111.999996582031,8|2,0:0|0:0,0:0:0:0:
243,297,11735,2,0,L|250:346,1,37.3333321940105,8|2,0:0|1:0,0:0:0:0:
432,236,12066,6,0,P|411:219|399:195,1,53.3333333333333,8|0,0:0|0:0,0:0:0:0:
357,293,12313,2,0,P|345:269|324:252,1,53.3333333333333,0|0,1:0|0:0,0:0:0:0:
487,268,12561,2,0,P|460:271|436:263,1,53.3333333333333,2|0,0:0|0:0,0:0:0:0:
369,354,12810,2,0,P|378:329|367:291,1,53.3333333333333,0|0,1:0|0:0,0:0:0:0:
352,106,13058,5,0,0:0:0:0:
341,97,13141,1,0,0:0:0:0:
332,88,13224,1,0,0:0:0:0:
323,78,13306,2,0,P|302:127|344:186,1,111.999996582031,8|2,0:0|0:0,0:0:0:0:
428,168,13719,2,0,L|448:130,1,37.3333321940105,8|2,1:2|1:0,0:0:0:0:
309,22,14049,6,0,P|280:37|243:34,1,53.3333333333333,8|0,0:0|0:0,0:0:0:0:
238,52,14297,2,0,P|211:57|168:43,1,53.3333333333333,0|0,1:0|0:0,0:0:0:0:
30,104,14545,2,0,P|53:118|80:121,1,53.3333333333333,2|0,0:0|0:0,0:0:0:0:
101,135,14793,2,0,P|128:140|153:134,1,53.3333333333333,0|0,1:0|0:0,0:0:0:0:
220,265,15041,1,0,0:0:0:0:
207,269,15124,1,0,0:0:0:0:
196,276,15207,1,0,0:0:0:0:
184,282,15289,2,0,P|181:229|243:187,1,111.999996582031,8|2,0:0|0:0,0:0:0:0:
315,229,15702,2,0,L|324:278,1,37.3333321940105,8|2,0:0|1:0,0:0:0:0:
130,359,16033,6,0,P|115:333|115:303,1,53.3333333333333,8|0,0:0|0:0,0:0:0:0:
73,251,16281,2,0,P|78:221|97:197,1,53.3333333333333,0|0,1:0|0:0,0:0:0:0:
223,169,16529,2,0,P|237:142|238:112,1,53.3333333333333,2|0,0:0|0:0,0:0:0:0:
280,60,16777,2,0,P|274:30|255:6,1,53.3333333333333,0|0,1:0|0:0,0:0:0:0:
182,38,17025,6,0,L|120:27,1,53.3333333333333
76,90,17273,2,0,L|24:81,1,53.3333333333333,0|0,1:0|0:0,0:0:0:0:
0,159,17521,1,2,0:0:0:0:
62,308,17686,2,0,B|90:308|112:293|112:293|131:266|132:238,1,111.999996582031,8|0,0:0|0:0,0:0:0:0:
170,373,18016,6,0,P|201:375|230:363,1,63.9999980468751,12|0,0:0|0:0,0:0:0:0:
240,345,18264,2,0,P|269:333|300:335,1,63.9999980468751,0|0,1:0|0:0,0:0:0:0:
423,271,18512,2,0,P|387:273|353:254,1,63.9999980468751,2|0,0:0|0:0,0:0:0:0:
353,242,18760,2,0,P|323:230|292:232,1,63.9999980468751,0|0,1:0|0:0,0:0:0:0:
188,134,19008,5,0,0:0:0:0:
194,122,19091,1,0,0:0:0:0:
197,109,19174,1,0,0:0:0:0:
202,96,19256,2,0,P|240:132|225:205,1,111.999996582031,8|2,0:0|0:0,0:0:0:0:
118,217,19669,2,0,L|55:205,1,37.3333321940105,8|2,0:0|1:0,0:0:0:0:
40,44,20000,6,0,P|63:78|50:125,1,63.9999980468751,8|0,0:0|0:0,0:0:0:0:
72,118,20247,2,0,P|98:135|139:127,1,63.9999980468751,0|0,1:0|0:0,0:0:0:0:
237,85,20496,2,0,P|274:68|318:89,1,63.9999980468751,2|0,0:0|0:0,0:0:0:0:
315,66,20743,2,0,P|336:43|335:1,1,63.9999980468751,0|0,1:0|0:0,0:0:0:0:
351,156,20992,5,0,0:0:0:0:
357,168,21075,1,0,0:0:0:0:
360,181,21158,1,0,0:0:0:0:
365,193,21240,2,0,P|404:155|401:101,1,111.999996582031,8|2,0:0|0:0,0:0:0:0:
275,185,21653,2,0,L|291:234,1,37.3333321940105,8|2,0:0|1:0,0:0:0:0:
328,371,21983,6,0,P|294:379|255:358,1,63.9999980468751,8|0,0:0|0:0,0:0:0:0:
262,350,22231,2,0,P|255:315|220:288,1,63.9999980468751,0|0,1:0|0:0,0:0:0:0:
133,339,22479,2,0,P|104:360|52:358,1,63.9999980468751,2|0,0:0|0:0,0:0:0:0:
58,376,22727,2,0,P|33:350|27:298,1,63.9999980468751,0|0,1:0|0:0,0:0:0:0:
138,225,22975,5,0,0:0:0:0:
132,213,23058,1,0,0:0:0:0:
127,200,23141,1,0,0:0:0:0:
120,186,23223,2,0,P|82:222|97:295,1,111.999996582031,8|2,0:0|0:0,0:0:0:0:
229,227,23636,2,0,L|222:172,1,37.3333321940105,8|2,0:0|1:0,0:0:0:0:
170,53,23967,6,0,P|193:86|239:98,1,63.9999980468751,8|0,0:0|0:0,0:0:0:0:
315,51,24215,2,0,P|355:47|388:13,1,63.9999980468751,0|0,1:0|0:0,0:0:0:0:
305,137,24463,2,0,P|328:170|374:182,1,63.9999980468751,2|0,0:0|0:0,0:0:0:0:
450,135,24711,2,0,P|490:131|523:97,1,63.9999980468751,0|0,1:0|0:0,0:0:0:0:
389,291,24959,5,0,0:0:0:0:
397,281,25042,1,0,0:0:0:0:
406,272,25125,1,0,0:0:0:0:
414,262,25206,2,0,L|416:182,1,63.9999980468751,8|0,0:0|0:0,0:0:0:0:
449,344,25454,2,0,P|424:368|385:371,1,63.9999980468751,2|8,0:0|0:0,0:0:0:0:
303,379,25702,2,0,L|308:304,1,63.9999980468751,2|0,0:0|0:0,0:0:0:0:
307,315,25950,5,2,2:3:0:0:
282,168,26074,2,0,L|187:184,1,95.9999970703126,0|0,3:0|0:0,0:0:0:0:
83,171,26446,2,0,P|70:119|86:73,1,95.9999970703126,8|0,1:0|0:0,0:0:0:0:
149,21,26818,1,0,3:0:0:0:
146,252,27066,1,0,0:0:0:0:
147,265,27190,1,0,3:0:0:0:
344,142,27438,1,8,1:0:0:0:
171,112,27686,2,0,L|180:159,1,47.9999985351563
352,113,27934,6,0,L|371:18,1,95.9999970703126,8|0,0:3|0:0,0:0:0:0:
423,155,28306,2,0,L|438:262,1,95.9999970703126,8|0,0:3|0:0,0:0:0:0:
335,106,28678,2,0,L|344:58,1,47.9999985351563,0|0,0:0|3:0,0:0:0:0:
443,170,28925,2,0,L|458:277,1,95.9999970703126,2|0,0:3|0:0,0:0:0:0:
338,222,29297,2,0,L|240:201,1,95.9999970703126,2|0,0:3|0:0,0:0:0:0:
177,275,29669,2,0,L|269:295,1,80,2|0,0:3|3:0,0:0:0:0:
367,363,29917,1,8,0:0:0:0:
296,293,31157,6,0,B|336:306|336:306|373:292|373:292|408:314|461:307,1,159.999995117188,8|8,0:0|0:0,0:0:0:0:
62,349,31818,5,0,0:0:0:0:
62,349,31901,2,0,P|118:361|161:331,1,95.9999970703126,12|0,0:0|0:0,0:0:0:0:
90,75,32397,2,0,L|102:203,1,95.9999970703126,2|0,0:0|0:0,0:0:0:0:
175,278,32810,2,0,P|216:250|216:179,1,95.9999970703126
221,181,33140,1,8,0:0:0:0:
324,375,33388,1,2,0:0:0:0:
417,354,33513,2,0,L|464:343,1,47.9999985351563,8|0,0:0|0:0,0:0:0:0:
461,119,33884,6,0,P|443:163|448:210,1,95.9999970703126,8|0,0:0|0:0,0:0:0:0:
195,61,34380,2,0,L|375:45,1,143.999995605469,2|0,0:0|0:0,0:0:0:0:
350,75,34876,2,0,P|331:111|270:133,1,95.9999970703126,0|8,0:0|0:0,0:0:0:0:
46,310,35372,1,2,0:0:0:0:
137,298,35497,2,0,L|184:292,1,47.9999985351563,8|0,0:0|0:0,0:0:0:0:
454,357,35868,6,0,P|405:337|396:275,1,95.9999970703126,8|0,0:0|0:0,0:0:0:0:
484,105,36363,2,0,L|358:128,1,95.9999970703126,2|0,0:0|0:0,0:0:0:0:
208,299,36859,2,0,L|334:322,1,95.9999970703126,0|8,0:0|0:0,0:0:0:0:
417,14,37355,1,2,0:0:0:0:
340,57,37479,2,0,P|340:85|357:121,1,47.9999985351563,8|0,0:0|0:0,0:0:0:0:
167,199,37851,6,0,L|84:209,1,47.9999985351563,8|0,0:0|3:0,0:0:0:0:
30,219,38099,1,0,0:0:0:0:
258,369,38347,2,0,P|277:320|255:246,1,95.9999970703126,2|0,0:0|0:0,0:0:0:0:
278,180,38760,2,0,P|261:117|286:63,1,95.9999970703126,0|0,3:0|0:0,0:0:0:0:
289,70,39091,1,8,0:0:0:0:
458,238,39339,2,0,L|385:248,1,63.9999980468751,2|8,0:0|0:0,0:0:0:0:
172,189,39752,5,0,0:0:0:0:
143,175,39835,2,0,L|128:94,1,47.9999985351563,8|0,0:0|3:0,0:0:0:0:
119,42,40082,1,0,0:0:0:0:
54,285,40330,2,0,P|100:295|162:269,1,95.9999970703126,2|0,0:0|0:0,0:0:0:0:
243,234,40744,2,0,P|284:231|340:262,1,95.9999970703126,0|0,3:0|0:0,0:0:0:0:
339,289,41074,1,8,0:0:0:0:
472,92,41322,2,0,L|401:110,1,63.9999980468751,2|8,0:0|0:0,0:0:0:0:
384,114,41570,1,0,0:0:0:0:
262,40,41735,5,0,0:0:0:0:
248,57,41818,2,0,L|264:136,1,47.9999985351563,8|0,0:0|3:0,0:0:0:0:
424,205,42314,2,0,L|415:313,1,95.9999970703126,2|0,0:0|0:0,0:0:0:0:
289,369,42727,2,0,P|236:373|191:338,1,95.9999970703126,0|0,3:0|0:0,0:0:0:0:
197,329,43058,1,8,0:0:0:0:
47,185,43306,1,2,0:0:0:0:
70,171,43430,2,0,L|80:75,1,95.9999970703126,8|0,0:0|0:0,0:0:0:0:
190,37,43802,5,8,0:0:0:0:
183,134,43925,2,0,L|178:182,1,47.9999985351563,0|0,3:0|0:0,0:0:0:0:
406,153,44297,2,0,L|416:58,1,95.9999970703126,2|0,0:0|0:0,0:0:0:0:
327,107,44669,2,0,L|317:202,1,95.9999970703126
310,289,45041,1,8,0:0:0:0:
15,261,45289,2,0,P|62:238|91:246,1,47.9999985351563,2|8,0:0|0:0,0:0:0:0:
135,260,45537,1,0,0:0:0:0:
211,351,45702,5,0,0:0:0:0:
227,372,45785,2,0,P|280:377|412:340,1,191.999994140625,12|2,0:0|0:0,0:0:0:0:
424,239,46405,2,0,L|406:182,1,47.9999985351563
310,182,46653,2,0,P|306:233|321:292,1,95.9999970703126
158,261,47025,2,0,P|181:259|204:252,1,47.9999985351563,8|0,0:0|0:0,0:0:0:0:
93,172,47273,2,0,P|103:137|133:98,1,47.9999985351563,2|0,0:0|0:0,0:0:0:0:
129,123,47438,2,0,P|176:124|245:87,1,95.9999970703126,8|0,0:0|0:0,0:0:0:0:
247,35,47768,6,0,P|240:87|272:221,1,191.999994140625,8|2,0:0|0:0,0:0:0:0:
373,236,48388,2,0,L|430:220,1,47.9999985351563
433,124,48636,2,0,P|385:113|324:119,1,95.9999970703126
272,220,49008,2,0,P|272:247|291:286,1,47.9999985351563,8|0,0:0|0:0,0:0:0:0:
326,349,49256,2,0,P|306:368|269:380,1,47.9999985351563,2|0,0:0|0:0,0:0:0:0:
274,373,49421,2,0,P|233:341|179:337,1,95.9999970703126,8|0,0:0|0:0,0:0:0:0:
124,368,49752,6,0,P|135:315|114:179,1,191.999994140625,8|2,0:0|0:0,0:0:0:0:
26,127,50372,2,0,L|43:82,1,47.9999985351563
135,27,50620,2,0,P|176:53|215:100,1,95.9999970703126
252,170,50992,2,0,P|225:179|168:172,1,47.9999985351563,8|0,0:0|0:0,0:0:0:0:
335,76,51240,2,0,P|355:98|372:140,1,47.9999985351563,2|0,0:0|0:0,0:0:0:0:
361,129,51405,2,0,P|336:173|328:236,1,95.9999970703126,8|0,0:0|0:0,0:0:0:0:
395,272,51735,6,0,P|299:264|208:291,1,191.999994140625,8|2,0:0|0:0,0:0:0:0:
35,359,52479,1,0,0:0:0:0:
35,359,52603,1,0,0:0:0:0:
117,337,52727,2,0,P|127:312|127:290,1,47.9999985351563
94,216,52975,1,8,0:0:0:0:
255,143,53223,2,0,P|252:118|240:97,1,47.9999985351563,2|0,0:0|0:0,0:0:0:0:
235,83,53388,2,0,P|250:40|290:-2,1,95.9999970703126,8|0,0:0|0:0,0:0:0:0:
363,19,53719,6,0,P|367:114|337:204,1,191.999994140625,8|2,0:0|0:0,0:0:0:0:
456,270,54339,2,0,L|446:211,1,47.9999985351563
361,327,54587,2,0,P|319:306|267:305,1,95.9999970703126
149,351,54959,2,0,P|175:352|198:361,1,47.9999985351563,8|0,0:0|0:0,0:0:0:0:
119,248,55207,2,0,P|90:250|49:266,1,47.9999985351563,2|0,0:0|0:0,0:0:0:0:
59,265,55372,2,0,P|50:224|62:165,1,95.9999970703126,8|0,0:0|0:0,0:0:0:0:
109,107,55702,6,0,P|162:112|294:75,1,191.999994140625,8|2,0:0|0:0,0:0:0:0:
377,175,56322,2,0,L|367:116,1,47.9999985351563
291,186,56570,2,0,P|279:229|278:294,1,95.9999970703126
319,352,56942,2,0,P|340:346|367:345,1,47.9999985351563,8|0,0:0|0:0,0:0:0:0:
230,368,57190,2,0,P|209:374|182:375,1,47.9999985351563,2|0,0:0|0:0,0:0:0:0:
166,367,57355,2,0,P|169:317|153:270,1,95.9999970703126,8|0,0:0|0:0,0:0:0:0:
54,267,57686,6,0,P|68:211|32:112,2,143.999995605469,8|8|8,0:3|0:3|0:3,0:0:0:0:
160,187,58554,1,0,0:0:0:0:
180,174,58678,2,0,L|242:184,1,47.9999985351563
297,113,58925,2,0,L|359:123,1,47.9999985351563
441,44,59173,1,2,0:0:0:0:
481,163,59297,1,8,0:0:0:0:
230,30,59669,5,8,0:0:0:0:
478,268,60165,1,8,0:0:0:0:
149,361,60661,1,8,0:0:0:0:
214,266,60909,1,8,0:0:0:0:
414,257,61157,2,0,P|451:263|483:283,1,66.0000020141602
447,349,61653,6,0,P|413:332|344:359,1,95.9999970703126,12|0,0:0|0:0,0:0:0:0:
195,328,62149,2,0,P|158:285|162:238,1,95.9999970703126,2|0,0:0|0:0,0:0:0:0:
327,170,62562,1,0,0:0:0:0:
335,189,62644,2,0,B|354:225|354:225|328:293,1,95.9999970703126,0|8,2:0|0:0,0:0:0:0:
247,185,63016,2,0,L|248:130,1,47.9999985351563,0|2,0:0|0:0,0:0:0:0:
385,65,63306,2,0,P|336:41|295:52,1,95.9999970703126,8|0,0:0|0:0,0:0:0:0:
286,56,63636,6,0,P|297:78|333:104,1,47.9999985351563,8|0,0:0|0:0,0:0:0:0:
151,37,63884,2,0,P|127:37|99:28,1,47.9999985351563
247,137,64132,2,0,P|258:159|293:185,1,47.9999985351563,2|0,0:0|0:0,0:0:0:0:
112,118,64380,2,0,P|88:118|60:110,1,47.9999985351563
202,226,64628,2,0,L|190:346,1,95.9999970703126,0|8,0:0|0:0,0:0:0:0:
253,367,65000,1,0,0:0:0:0:
263,353,65124,1,2,0:0:0:0:
425,93,65289,2,0,L|450:206,1,111.999996582031,8|0,0:0|3:0,0:0:0:0:
459,235,65620,6,0,B|443:254|414:250,1,47.9999985351563,8|0,0:1|0:0,0:0:0:0:
327,188,65868,2,0,B|318:164|335:142,1,47.9999985351563,8|0,0:1|0:0,0:0:0:0:
425,93,66116,6,0,B|449:97|460:123,1,47.9999985351563,2|0,0:0|0:0,0:0:0:0:
325,300,66363,6,0,B|309:319|280:315,1,47.9999985351563,8|0,0:1|0:0,0:0:0:0:
193,253,66611,2,0,B|184:229|201:207,1,47.9999985351563,8|0,0:1|0:0,0:0:0:0:
291,158,66859,6,0,B|315:162|326:188,1,47.9999985351563,8|0,0:0|0:0,0:0:0:0:
201,207,67107,1,2,0:0:0:0:
93,106,67273,2,0,L|108:0,1,95.9999970703126,8|0,0:0|0:0,0:0:0:0:
200,0,67603,6,0,P|256:5|297:47,1,95.9999970703126
479,197,68099,2,0,P|432:205|395:264,1,95.9999970703126,2|0,0:0|0:0,0:0:0:0:
245,318,68512,1,0,0:0:0:0:
251,340,68595,2,0,L|266:233,1,95.9999970703126,0|8,0:0|0:0,0:0:0:0:
58,149,69091,1,2,0:0:0:0:
195,127,69256,2,0,L|254:120,1,31.9999990234375,8|0,0:0|0:0,0:0:0:0:
425,51,69587,6,0,P|391:34|322:61,1,95.9999970703126,12|0,0:0|0:0,0:0:0:0:
139,252,70082,2,0,P|157:200|133:152,1,95.9999970703126,2|0,0:0|0:0,0:0:0:0:
62,313,70496,1,0,0:0:0:0:
77,324,70578,2,0,B|110:347|110:347|163:335,1,95.9999970703126,0|8,2:0|0:0,0:0:0:0:
279,293,70950,2,0,L|327:309,1,47.9999985351563,0|2,0:0|0:0,0:0:0:0:
453,361,71240,2,0,P|444:308|459:251,1,95.9999970703126,8|0,0:0|0:0,0:0:0:0:
461,257,71570,6,0,P|455:227|425:199,1,47.9999985351563,8|0,0:0|0:0,0:0:0:0:
407,81,71818,2,0,P|414:55|445:25,1,47.9999985351563
279,198,72066,2,0,P|254:211|205:210,1,47.9999985351563,2|0,0:0|0:0,0:0:0:0:
178,33,72314,2,0,P|203:20|252:21,1,47.9999985351563
234,213,72562,2,0,L|244:118,1,95.9999970703126,0|8,0:0|0:0,0:0:0:0:
320,84,72934,1,0,0:0:0:0:
327,102,73058,1,2,0:0:0:0:
345,262,73223,2,0,L|356:357,1,95.9999970703126,8|0,0:0|0:0,0:0:0:0:
145,368,73554,6,0,P|92:367|53:328,1,95.9999970703126,8|0,0:0|0:0,0:0:0:0:
133,109,74049,2,0,P|150:155|115:221,1,95.9999970703126,2|0,0:0|0:0,0:0:0:0:
52,209,74421,1,0,0:0:0:0:
46,194,74545,1,0,0:0:0:0:
171,277,74793,2,0,L|224:279,2,47.9999985351563,8|0|2,0:0|0:0|0:0,0:0:0:0:
236,128,75206,2,0,L|216:10,1,95.9999970703126,8|0,0:0|0:0,0:0:0:0:
214,14,75537,5,8,0:0:0:0:
338,200,75785,2,0,L|326:264,1,47.9999985351563
288,347,76033,2,0,P|241:367|192:352,1,95.9999970703126,2|0,0:0|0:0,0:0:0:0:
389,321,76446,1,0,3:0:0:0:
409,312,76529,2,0,L|429:218,1,95.9999970703126,8|8,0:0|0:0,0:0:0:0:
233,69,77025,2,0,B|276:44|276:44|416:55,1,143.999995605469,2|0,0:0|0:0,0:0:0:0:
220,143,77521,6,0,P|190:142|158:120,1,63.9999980468751,12|0,0:0|0:0,0:0:0:0:
159,110,77768,2,0,P|155:86|126:53,1,63.9999980468751,0|0,1:0|0:0,0:0:0:0:
61,133,78016,2,0,P|71:159|61:194,1,63.9999980468751,2|0,0:0|0:0,0:0:0:0:
62,205,78264,2,0,P|74:236|101:251,1,63.9999980468751,0|0,1:0|0:0,0:0:0:0:
220,305,78512,5,0,0:0:0:0:
209,312,78595,1,0,0:0:0:0:
198,320,78678,1,0,0:0:0:0:
189,329,78760,2,0,P|173:278|221:223,1,111.999996582031,8|2,0:0|0:0,0:0:0:0:
303,323,79173,2,0,L|296:363,1,37.3333321940105,8|2,0:0|1:0,0:0:0:0:
451,223,79504,6,0,P|461:199|445:156,1,63.9999980468751,8|0,0:0|0:0,0:0:0:0:
470,157,79752,2,0,P|457:127|416:104,1,63.9999980468751,0|0,1:0|0:0,0:0:0:0:
343,233,80000,2,0,P|333:209|347:165,1,63.9999980468751,2|0,0:0|0:0,0:0:0:0:
321,162,80248,2,0,P|334:132|373:110,1,63.9999980468751,0|0,1:0|0:0,0:0:0:0:
213,69,80496,5,0,0:0:0:0:
209,83,80579,1,0,0:0:0:0:
207,96,80662,1,0,0:0:0:0:
204,109,80744,2,0,P|255:96|277:27,1,111.999996582031,8|2,0:0|0:0,0:0:0:0:
106,32,81157,2,0,L|115:78,1,37.3333321940105,8|2,0:0|1:0,0:0:0:0:
156,212,81487,6,0,P|154:241|134:269,1,63.9999980468751,8|0,0:0|0:0,0:0:0:0:
119,271,81735,2,0,P|98:247|89:215,1,63.9999980468751,0|0,1:0|0:0,0:0:0:0:
207,314,81983,2,0,P|188:339|186:371,1,63.9999980468751,2|0,0:0|0:0,0:0:0:0:
222,311,82231,2,0,P|242:335|252:366,1,63.9999980468751,0|0,1:0|0:0,0:0:0:0:
342,234,82479,5,0,0:0:0:0:
356,233,82562,1,0,0:0:0:0:
369,234,82645,1,0,0:0:0:0:
382,234,82727,2,0,P|357:281|285:287,1,111.999996582031,8|2,0:0|0:0,0:0:0:0:
207,218,83140,2,0,L|204:172,1,37.3333321940105,8|2,0:0|1:0,0:0:0:0:
205,39,83471,6,0,P|239:29|274:40,1,63.9999980468751,8|0,0:0|0:0,0:0:0:0:
348,47,83719,2,0,P|316:42|278:59,1,63.9999980468751,0|0,1:0|0:0,0:0:0:0:
396,170,83967,2,0,P|388:139|396:108,1,63.9999980468751,2|0,0:0|0:0,0:0:0:0:
420,19,84215,2,0,P|427:49|419:80,1,63.9999980468751,0|0,1:0|0:0,0:0:0:0:
366,253,84463,5,0,0:0:0:0:
373,265,84545,1,0,0:0:0:0:
381,278,84628,1,0,0:0:0:0:
389,293,84711,2,0,L|459:251,1,63.9999980468751,8|0,0:0|0:0,0:0:0:0:
445,353,84959,2,0,P|410:372|360:364,1,63.9999980468751,2|8,0:0|0:0,0:0:0:0:
307,357,85207,2,0,L|294:288,1,63.9999980468751,2|0,0:0|0:0,0:0:0:0:
295,294,85454,1,8,0:0:0:0:
215,99,86694,6,0,B|175:112|175:112|138:98|138:98|103:120|50:113,1,159.999995117188,8|8,0:0|0:0,0:0:0:0:
271,36,87355,5,0,0:0:0:0:
270,35,87438,2,0,P|313:16|359:30,1,95.9999970703126,12|0,0:0|0:0,0:0:0:0:
450,229,87934,2,0,L|429:322,1,95.9999970703126,2|0,0:0|0:0,0:0:0:0:
182,272,88347,2,0,P|174:225|200:186,1,95.9999970703126
223,172,88677,1,8,0:0:0:0:
72,350,88925,1,2,0:0:0:0:
59,263,89050,2,0,L|53:200,1,47.9999985351563,8|0,0:0|0:0,0:0:0:0:
145,23,89421,6,0,P|150:71|133:115,1,95.9999970703126,8|0,0:0|0:0,0:0:0:0:
431,93,89917,2,0,L|251:109,1,143.999995605469,2|0,0:0|0:0,0:0:0:0:
276,79,90413,2,0,P|295:43|356:21,1,95.9999970703126,0|8,0:0|0:0,0:0:0:0:
388,207,90909,1,2,0:0:0:0:
302,219,91034,2,0,L|255:225,1,47.9999985351563,8|0,0:0|0:0,0:0:0:0:
448,306,91405,6,0,P|497:286|506:224,1,95.9999970703126,8|0,0:0|0:0,0:0:0:0:
201,286,91901,2,0,P|184:329|204:371,1,95.9999970703126,2|0,0:0|0:0,0:0:0:0:
299,99,92396,2,0,L|173:76,1,95.9999970703126,0|8,0:0|0:0,0:0:0:0:
31,232,92892,1,2,0:0:0:0:
108,189,93016,2,0,P|108:161|91:125,1,47.9999985351563,8|0,0:0|0:0,0:0:0:0:
289,351,93388,6,0,L|372:341,1,47.9999985351563,12|0,0:0|3:0,0:0:0:0:
426,331,93636,1,0,0:0:0:0:
262,123,93884,2,0,P|258:75|276:31,1,95.9999970703126,2|0,0:0|0:0,0:0:0:0:
382,37,94297,2,0,P|399:100|374:154,1,95.9999970703126,0|0,3:0|0:0,0:0:0:0:
375,147,94628,1,8,0:0:0:0:
180,226,94876,2,0,L|116:218,1,63.9999980468751,2|8,0:0|0:0,0:0:0:0:
278,315,95289,5,0,0:0:0:0:
302,335,95372,2,0,L|381:314,1,47.9999985351563,8|0,0:0|3:0,0:0:0:0:
433,300,95619,1,0,0:0:0:0:
184,355,95868,2,0,P|175:314|198:255,1,95.9999970703126,2|0,0:0|0:0,0:0:0:0:
265,195,96281,2,0,P|306:198|362:167,1,95.9999970703126,0|0,3:0|0:0,0:0:0:0:
368,150,96611,1,8,0:0:0:0:
167,171,96859,2,0,L|106:155,1,63.9999980468751,2|8,0:0|0:0,0:0:0:0:
75,146,97107,1,0,0:0:0:0:
245,358,97272,1,0,0:0:0:0:
259,341,97355,6,0,L|244:256,1,63.9999980468751,8|0,0:0|3:0,0:0:0:0:
83,193,97851,2,0,L|92:85,1,95.9999970703126,2|0,0:0|0:0,0:0:0:0:
218,29,98264,2,0,P|271:25|316:60,1,95.9999970703126,0|0,3:0|0:0,0:0:0:0:
310,69,98595,1,8,0:0:0:0:
460,213,98843,1,2,0:0:0:0:
437,227,98967,2,0,L|427:323,1,95.9999970703126,8|0,0:0|0:0,0:0:0:0:
325,352,99339,6,0,L|215:331,1,95.9999970703126,8|0,0:3|0:0,0:0:0:0:
132,275,99711,2,0,L|256:247,1,95.9999970703126,8|0,0:3|0:0,0:0:0:0:
326,336,100082,2,0,L|244:320,1,47.9999985351563
133,259,100330,2,0,L|257:231,1,95.9999970703126,2|8,0:3|0:0,0:0:0:0:
322,149,100702,1,2,0:3:0:0:
322,149,100826,2,0,L|246:127,1,47.9999985351563,0|8,0:0|0:0,0:0:0:0:
211,78,101074,2,0,L|146:91,2,47.9999985351563,2|0|4,0:3|0:0|0:0,0:0:0:0:
81,339,116446,5,8,0:0:0:0:
308,312,116694,1,2,0:0:0:0:
278,231,116818,2,0,L|295:106,1,95.9999970703126,8|0,0:0|0:0,0:0:0:0:
365,151,117190,6,0,P|424:149|388:125,1,143.999995605469,12|0,0:0|0:0,0:0:0:0:
393,124,117562,1,0,0:0:0:0:
393,124,117686,1,2,0:0:0:0:
162,35,117934,1,0,3:0:0:0:
84,110,118099,2,0,P|82:162|122:206,1,95.9999970703126,0|0,3:0|0:0,0:0:0:0:
127,203,118430,1,8,0:0:0:0:
351,102,118678,1,2,0:0:0:0:
337,182,118802,2,0,L|321:291,1,95.9999970703126,8|0,0:0|0:0,0:0:0:0:
258,315,119173,6,0,P|199:313|235:289,1,143.999995605469,12|0,0:0|0:0,0:0:0:0:
229,288,119545,1,0,0:0:0:0:
229,288,119669,1,2,0:0:0:0:
508,295,119917,1,0,3:0:0:0:
409,366,120082,2,0,P|367:334|356:266,1,95.9999970703126,0|0,3:0|0:0,0:0:0:0:
364,271,120413,1,8,0:0:0:0:
459,39,120661,1,2,0:0:0:0:
440,117,120785,2,0,L|419:229,1,95.9999970703126,8|0,0:0|0:0,0:0:0:0:
317,140,121157,6,0,P|312:198|336:151,1,143.999995605469,12|0,0:0|0:0,0:0:0:0:
341,165,121529,1,0,0:0:0:0:
341,165,121653,1,2,0:0:0:0:
136,33,121901,1,0,3:0:0:0:
201,129,122066,2,0,P|147:133|109:167,1,95.9999970703126,0|0,3:0|0:0,0:0:0:0:
108,192,122397,1,8,0:0:0:0:
144,383,122644,1,2,0:0:0:0:
163,300,122768,2,0,L|185:185,1,95.9999970703126,8|0,0:0|0:0,0:0:0:0:
252,111,123140,6,0,P|252:153|284:186,1,63.9999980468751,8|0,0:0|0:0,0:0:0:0:
281,177,123388,2,0,L|356:190,1,63.9999980468751
424,244,123636,2,0,P|424:286|392:319,1,63.9999980468751,2|0,0:0|0:0,0:0:0:0:
395,310,123884,2,0,L|320:323,1,63.9999980468751,0|0,3:0|3:0,0:0:0:0:
251,362,124132,2,0,P|213:331|210:285,1,95.9999970703126,0|8,0:0|0:0,0:0:0:0:
270,44,124628,1,2,0:0:0:0:
280,128,124752,2,0,L|295:232,1,95.9999970703126,8|0,0:0|0:0,0:0:0:0:
358,78,125124,5,8,0:0:0:0:
358,78,125620,2,0,B|325:41|325:41|258:45,1,95.9999970703126,2|0,0:0|0:0,0:0:0:0:
129,51,126033,1,0,0:0:0:0:
133,62,126116,2,0,L|152:105,1,47.9999985351563
97,189,126363,2,0,L|112:307,1,95.9999970703126,8|2,0:0|0:0,0:0:0:0:
312,264,126777,2,0,L|286:368,1,95.9999970703126,8|0,0:0|0:0,0:0:0:0:
276,377,127107,6,0,P|243:379|209:364,1,63.9999980468751,8|0,3:2|3:0,0:0:0:0:
203,355,127355,2,0,P|201:314|219:283,1,63.9999980468751
221,284,127603,2,0,B|259:274|259:274|326:310,1,95.9999970703126,2|0,0:0|3:0,0:0:0:0:
481,226,128016,2,0,B|443:216|443:216|376:252,1,95.9999970703126,0|0,3:0|0:0,0:0:0:0:
382,254,128347,2,0,L|374:156,1,95.9999970703126,8|2,0:0|0:0,0:0:0:0:
196,190,128760,2,0,L|212:83,1,95.9999970703126,8|0,0:0|0:0,0:0:0:0:
213,79,129091,6,0,P|157:63|127:110,1,63.9999980468751,0|0,3:0|3:0,0:0:0:0:
213,79,129339,2,0,P|160:58|119:95,1,63.9999980468751,0|0,3:0|3:0,0:0:0:0:
213,79,129587,2,0,P|166:53|116:78,1,63.9999980468751,2|0,0:0|3:0,0:0:0:0:
213,79,129835,2,0,P|173:49|119:60,1,63.9999980468751,0|0,3:0|3:0,0:0:0:0:
213,79,130082,2,0,P|183:46|127:43,1,63.9999980468751,0|0,3:0|3:0,0:0:0:0:
213,79,130330,2,0,P|194:44|141:27,1,63.9999980468751,8|0,0:0|3:0,0:0:0:0:
213,79,130578,2,0,P|206:45|159:15,1,63.9999980468751,2|8,0:0|3:2,0:0:0:0:
170,145,130826,2,0,P|156:173|159:205,1,63.9999980468751,0|0,3:0|0:0,0:0:0:0:
183,282,131074,6,0,L|206:387,1,95.9999970703126,8|0,0:3|0:0,0:0:0:0:
268,248,131446,1,8,0:3:0:0:
268,248,131570,2,0,L|294:155,1,95.9999970703126,2|8,0:0|0:3,0:0:0:0:
491,243,132066,2,0,L|468:348,1,95.9999970703126,2|0,0:3|0:0,0:0:0:0:
406,209,132438,1,2,0:3:0:0:
406,209,132562,2,0,L|379:116,1,95.9999970703126,0|2,0:0|0:3,0:0:0:0:
195,31,133058,5,12,0:0:0:0:
123,169,133306,2,0,P|76:163|46:116,1,95.9999970703126,0|2,0:0|0:0,0:0:0:0:
116,96,133678,1,0,0:0:0:0:
210,229,133925,1,0,3:0:0:0:
221,310,134049,2,0,L|192:374,1,63.9999980468751
190,379,134297,1,8,0:0:0:0:
351,368,134545,2,0,L|381:328,1,31.9999990234375,2|0,0:0|0:0,0:0:0:0:
440,298,134711,2,0,P|445:246|414:182,1,95.9999970703126,8|0,0:0|0:0,0:0:0:0:
411,184,135041,5,8,0:0:0:0:
220,310,135289,2,0,P|178:341|127:333,1,95.9999970703126,0|2,0:0|0:0,0:0:0:0:
75,278,135661,1,0,3:0:0:0:
153,248,135785,2,0,L|144:158,1,63.9999980468751
145,168,136033,1,0,0:0:0:0:
232,69,136198,1,0,0:0:0:0:
234,83,136281,2,0,L|246:195,1,95.9999970703126,8|2,0:0|0:0,0:0:0:0:
320,232,136694,2,0,P|372:229|431:190,1,95.9999970703126,8|0,0:0|0:0,0:0:0:0:
428,188,137024,5,8,0:0:0:0:
306,25,137273,2,0,P|252:37|230:81,1,95.9999970703126,0|2,0:0|0:0,0:0:0:0:
307,104,137644,1,0,3:0:0:0:
453,97,137768,2,0,L|432:29,1,63.9999980468751
424,15,138016,1,0,0:0:0:0:
241,150,138182,1,0,0:0:0:0:
226,163,138264,2,0,L|130:155,1,95.9999970703126,8|2,0:0|0:0,0:0:0:0:
57,304,138678,2,0,P|109:301|168:262,1,95.9999970703126,8|0,0:0|0:0,0:0:0:0:
165,260,139008,5,8,0:0:0:0:
390,305,139256,2,0,P|312:289|288:308,1,95.9999970703126,0|2,0:0|0:0,0:0:0:0:
339,364,139628,1,0,3:0:0:0:
251,369,139752,2,0,B|224:340|224:340|221:301,1,63.9999980468751
224,301,140000,1,0,0:0:0:0:
290,177,140165,1,0,0:0:0:0:
289,164,140248,2,0,L|285:68,1,95.9999970703126,8|2,0:0|0:0,0:0:0:0:
390,30,140661,2,0,P|440:24|492:58,1,95.9999970703126,8|0,0:0|0:0,0:0:0:0:
487,65,140992,5,12,0:0:0:0:
404,211,141240,2,0,P|390:256|415:304,1,95.9999970703126,0|2,0:0|0:0,0:0:0:0:
466,248,141612,1,0,3:0:0:0:
336,133,141859,1,0,0:0:0:0:
273,194,141983,2,0,L|290:263,1,63.9999980468751
295,274,142231,1,8,0:0:0:0:
189,170,142479,2,0,L|202:116,1,31.9999990234375,2|0,0:0|0:0,0:0:0:0:
270,92,142645,2,0,P|245:45|185:8,1,95.9999970703126,8|0,0:0|0:0,0:0:0:0:
198,13,142975,5,8,0:0:0:0:
44,202,143223,2,0,P|86:233|137:225,1,95.9999970703126,0|2,0:0|0:0,0:0:0:0:
105,153,143595,1,0,3:0:0:0:
50,94,143719,2,0,L|52:30,1,63.9999980468751
55,14,143967,1,0,0:0:0:0:
189,172,144132,1,0,0:0:0:0:
191,187,144215,2,0,L|203:299,1,95.9999970703126,8|2,0:0|0:0,0:0:0:0:
302,353,144628,2,0,P|354:350|413:311,1,95.9999970703126,8|0,0:0|0:0,0:0:0:0:
425,262,144959,6,0,L|326:231,1,95.9999970703126,8|0,0:3|0:0,0:0:0:0:
405,179,145330,2,0,L|313:150,1,95.9999970703126,8|0,0:3|0:0,0:0:0:0:
292,68,145702,2,0,L|365:90,1,47.9999985351563,8|0,0:3|0:0,0:0:0:0:
377,234,145950,2,0,L|476:203,1,95.9999970703126,2|8,0:3|0:0,0:0:0:0:
397,151,146322,2,0,L|488:122,1,95.9999970703126,2|8,0:3|0:0,0:0:0:0:
510,40,146694,2,0,L|437:62,1,47.9999985351563,2|0,0:3|0:0,0:0:0:0:
254,27,146942,5,8,0:0:0:0:
89,343,147438,1,8,0:0:0:0:
419,328,147934,1,8,0:0:0:0:
325,219,148182,1,8,0:0:0:0:
391,96,148430,2,0,P|443:85|406:137,1,143.999995605469
286,114,148925,6,0,P|232:109|182:134,1,95.9999970703126,12|0,0:0|0:0,0:0:0:0:
327,338,149421,2,0,P|381:343|431:318,1,95.9999970703126,2|0,0:0|0:0,0:0:0:0:
341,177,149834,1,0,0:0:0:0:
359,172,149917,2,0,B|378:208|378:208|352:276,1,95.9999970703126,0|8,2:0|0:0,0:0:0:0:
200,234,150289,2,0,L|166:179,1,47.9999985351563,0|2,0:0|0:0,0:0:0:0:
42,272,150578,2,0,P|93:254|132:270,1,95.9999970703126,8|0,0:0|0:0,0:0:0:0:
139,294,150909,6,0,P|150:316|188:342,1,47.9999985351563,8|0,0:0|0:0,0:0:0:0:
312,298,151157,2,0,P|334:287|360:249,1,47.9999985351563
288,188,151405,2,0,P|266:200|220:201,1,47.9999985351563,2|0,0:0|0:0,0:0:0:0:
113,144,151654,2,0,P|94:129|75:87,1,47.9999985351563
204,25,151901,2,0,L|317:46,1,95.9999970703126,0|8,0:0|0:0,0:0:0:0:
364,107,152272,1,0,0:0:0:0:
346,115,152396,1,2,0:0:0:0:
477,72,152562,2,0,B|501:118|501:118|475:197,1,95.9999970703126,8|0,0:0|0:0,0:0:0:0:
479,179,152892,6,0,B|461:196|432:189,1,47.9999985351563,8|0,0:1|0:0,0:0:0:0:
334,202,153140,2,0,B|358:206|369:232,1,47.9999985351563,8|0,0:1|0:0,0:0:0:0:
427,321,153388,6,0,B|418:297|435:275,1,47.9999985351563,2|0,0:0|0:0,0:0:0:0:
334,202,153636,6,0,B|319:222|290:220,1,47.9999985351563,8|0,0:1|0:0,0:0:0:0:
176,144,153884,2,0,B|200:143|215:167,1,47.9999985351563,8|0,0:1|0:0,0:0:0:0:
214,311,154132,6,0,B|200:288|213:264,1,47.9999985351563,8|0,0:0|0:0,0:0:0:0:
291,220,154379,1,2,0:0:0:0:
309,116,154545,2,0,L|324:10,1,95.9999970703126,8|0,0:0|0:0,0:0:0:0:
405,35,154876,6,0,P|408:91|373:138,1,95.9999970703126,0|0,2:0|2:0,2:0:0:0:
170,89,155372,2,0,P|166:32|201:-15,1,95.9999970703126,2|0,2:0|2:0,2:0:0:0:
217,176,155784,1,0,0:0:0:0:
196,188,155868,2,0,L|93:177,1,95.9999970703126,0|8,0:0|0:0,0:0:0:0:
292,364,156363,1,2,0:0:0:0:
376,337,156529,2,0,L|426:322,1,31.9999990234375,8|0,0:0|0:0,0:0:0:0:
244,41,156859,6,0,P|261:80|239:144,1,95.9999970703126,4|0,0:0|0:0,0:0:0:0:
157,361,157355,2,0,P|145:315|163:271,1,95.9999970703126,2|0,0:0|0:0,0:0:0:0:
309,183,157768,1,0,0:0:0:0:
295,200,157851,2,0,B|328:223|328:223|381:211,1,95.9999970703126,0|8,2:0|0:0,0:0:0:0:
459,116,158223,2,0,L|452:66,1,47.9999985351563,0|2,0:0|0:0,0:0:0:0:
468,354,158512,2,0,P|459:301|486:250,1,95.9999970703126,8|0,0:0|0:0,0:0:0:0:
496,247,158843,6,0,P|490:217|460:189,1,47.9999985351563,8|0,0:0|0:0,0:0:0:0:
381,60,159091,2,0,P|388:34|419:4,1,47.9999985351563
287,161,159339,2,0,P|262:174|213:173,1,47.9999985351563,2|0,0:0|0:0,0:0:0:0:
75,223,159587,2,0,P|51:207|29:163,1,47.9999985351563
210,358,159834,2,0,L|313:345,1,95.9999970703126,0|8,0:0|0:0,0:0:0:0:
385,362,160206,1,0,0:0:0:0:
401,342,160330,1,2,0:0:0:0:
189,171,160496,2,0,B|177:222|177:222|200:268,1,95.9999970703126,8|0,0:0|0:0,0:0:0:0:
206,274,160826,6,0,P|256:256|281:207,1,95.9999970703126,8|0,2:0|2:0,2:0:0:0:
116,21,161322,2,0,P|133:67|98:133,1,95.9999970703126,2|0,0:0|0:0,0:0:0:0:
44,156,161693,1,0,0:0:0:0:
35,132,161817,1,0,0:0:0:0:
142,321,162066,2,0,L|130:368,2,47.9999985351563,8|0|2,0:0|0:0|0:0,0:0:0:0:
217,210,162479,2,0,L|197:92,1,95.9999970703126,8|0,0:0|0:0,0:0:0:0:
195,83,162809,5,8,0:0:0:0:
378,198,163058,2,0,L|366:262,1,47.9999985351563
418,324,163306,2,0,P|371:344|322:329,1,95.9999970703126,2|0,0:0|0:0,0:0:0:0:
471,236,163718,1,0,0:0:0:0:
474,220,163801,2,0,L|494:126,1,95.9999970703126,8|8,0:0|0:0,0:0:0:0:
244,45,164297,2,0,B|283:14|283:14|362:14|362:14|402:28,1,159.999995117188,2|0,0:0|0:0,0:0:0:0:
424,38,164793,5,6,0:0:0:0:
447,60,165289,1,2,0:0:0:0:
447,60,165661,1,0,0:0:0:0:
447,60,165785,1,2,0:0:0:0:
447,60,166033,1,0,0:0:0:0:
447,60,166281,1,2,0:0:0:0:
447,60,166529,1,0,0:0:0:0:
187,85,166777,6,0,B|183:64|153:36|101:45|84:90|107:153|135:189|191:207,1,240.000009155274,2|2,0:0|0:0,0:0:0:0:
187,85,167768,2,0,B|191:64|221:36|273:45|290:90|267:153|239:189|183:207,1,240.000009155274,2|2,0:0|0:0,0:0:0:0:
416,132,168760,5,2,0:0:0:0:
434,150,169256,1,2,0:0:0:0:
434,150,169628,1,0,0:0:0:0:
434,150,169752,1,2,0:0:0:0:
434,150,170000,1,0,0:0:0:0:
434,150,170248,1,2,0:0:0:0:
434,150,170496,1,0,0:0:0:0:
147,87,170744,6,0,B|135:68|97:53|52:80|52:128|96:179|135:202|194:199,1,240.000009155274,2|2,0:0|0:0,0:0:0:0:
237,92,171735,2,0,B|251:76|291:67|331:102|322:149|270:191|228:207|170:194,1,240.000009155274,2|2,0:0|0:0,0:0:0:0:
385,222,172727,5,2,0:0:0:0:
409,245,173223,1,2,0:0:0:0:
409,245,173595,1,0,0:0:0:0:
409,245,173719,1,2,0:0:0:0:
409,245,173967,1,0,0:0:0:0:
409,245,174215,1,2,0:0:0:0:
409,245,174463,1,0,0:0:0:0:
76,136,174711,6,0,B|57:130|18:145|4:196|37:231|103:238|148:228|175:198,1,240.000009155274,2|2,0:0|0:0,0:0:0:0:
295,147,175702,2,0,B|314:144|350:163|358:215|321:246|254:244|211:230|188:197,1,240.000009155274,2|2,0:0|0:0,0:0:0:0:
360,320,176694,5,2,0:0:0:0:
383,342,177190,1,2,0:0:0:0:
383,342,177562,1,0,0:0:0:0:
383,342,177686,1,2,0:0:0:0:
383,342,177934,1,0,0:0:0:0:
383,342,178182,1,2,0:0:0:0:
383,342,178430,1,0,0:0:0:0:
71,254,178678,6,0,B|57:267|50:308|87:346|134:335|173:280|187:237|175:199,1,240.000009155274,2|2,0:0|0:0,0:0:0:0:
283,268,179669,2,0,B|294:283|294:324|252:356|208:338|177:278|170:233|188:197,1,240.000009155274,2|2,0:0|0:0,0:0:0:0:
503,86,180661,6,0,L|343:68,1,160,12|8,0:0|0:0,0:0:0:0:
58,180,181529,1,0,0:0:0:0:
95,252,181653,2,0,L|72:346,1,80,8|0,0:0|0:0,0:0:0:0:
184,208,182149,2,0,L|169:107,1,80,8|0,0:0|0:0,0:0:0:0:
118,63,182521,1,0,0:0:0:0:
118,63,182644,6,0,L|72:81,3,40,8|0|0|0,0:0|0:0|0:0|0:0,0:0:0:0:
172,128,183140,2,0,L|154:191,1,40,8|0,0:0|0:0,0:0:0:0:
181,277,183388,2,0,L|199:214,1,40
95,252,183636,2,0,L|68:358,1,80,8|0,0:0|0:0,0:0:0:0:
157,361,184008,1,0,0:0:0:0:
157,361,184132,2,0,L|236:355,1,80,8|0,0:0|0:0,0:0:0:0:
503,86,184628,6,0,L|343:68,1,160,8|8,0:0|0:0,0:0:0:0:
225,331,185496,1,0,0:0:0:0:
202,246,185620,2,0,L|221:168,1,80,8|0,0:0|0:0,0:0:0:0:
54,271,186116,2,0,L|58:350,1,80,8|0,0:0|0:0,0:0:0:0:
143,361,186488,1,0,0:0:0:0:
143,361,186611,6,0,L|185:390,3,40,8|0|0|0,0:0|0:0|0:0|0:0,0:0:0:0:
121,229,187107,2,0,L|132:191,3,40,8|0|0|0,0:0|0:0|0:0|0:0,0:0:0:0:
214,165,187603,2,0,L|209:86,1,80,8|0,0:0|0:0,0:0:0:0:
131,36,187975,1,0,0:0:0:0:
131,36,188099,2,0,P|82:32|33:52,1,80,8|0,0:0|0:0,0:0:0:0:
503,86,188595,6,0,L|343:68,1,160,8|8,0:0|0:0,0:0:0:0:
108,161,189463,1,0,0:0:0:0:
166,234,189587,2,0,L|250:228,1,80,8|0,0:0|0:0,0:0:0:0:
30,203,190083,2,0,B|12:163|12:163|38:106,1,80,8|0,0:0|0:0,0:0:0:0:
92,77,190455,1,0,0:0:0:0:
92,77,190578,6,0,L|84:22,3,40,8|0|0|0,0:0|0:0|0:0|0:0,0:0:0:0:
176,195,191074,2,0,L|158:258,3,40,8|0|0|0,0:0|0:0|0:0|0:0,0:0:0:0:
208,325,191570,2,0,B|166:339|166:339|112:321,1,80,8|0,0:0|0:0,0:0:0:0:
54,267,191942,1,0,0:0:0:0:
49,285,192066,2,0,L|15:391,1,80,8|0,0:0|0:0,0:0:0:0:
330,344,192562,6,0,L|322:250,1,80,8|0,0:0|0:0,0:0:0:0:
317,188,192934,1,8,0:3:0:0:
317,188,193058,1,8,0:0:0:0:
486,285,193306,1,8,0:3:0:0:
459,33,193554,2,0,L|444:125,1,80,8|0,0:0|0:0,0:0:0:0:
239,126,193926,1,2,0:3:0:0:
240,97,194050,2,0,B|274:72|274:72|324:71,1,80,8|2,0:0|0:3,0:0:0:0:
366,296,194545,5,8,0:0:0:0:
31,349,195041,1,8,0:0:0:0:
306,358,195537,1,8,0:0:0:0:
262,230,195785,1,8,0:0:0:0:
388,334,196033,2,0,P|445:301|533:308,1,120
485,188,196529,6,0,P|451:171|382:198,1,95.9999970703126,12|0,0:0|0:0,0:0:0:0:
116,118,197025,2,0,P|150:135|219:108,1,95.9999970703126,2|0,0:0|0:0,0:0:0:0:
367,81,197438,1,0,0:0:0:0:
385,95,197520,2,0,B|404:59|404:59|378:-9,1,95.9999970703126,0|8,2:0|0:0,0:0:0:0:
293,181,197892,2,0,L|306:227,1,47.9999985351563,0|2,0:0|0:0,0:0:0:0:
461,335,198182,2,0,P|412:311|371:322,1,95.9999970703126,8|0,0:0|0:0,0:0:0:0:
280,320,198512,6,0,P|291:342|329:368,1,47.9999985351563,8|0,0:0|0:0,0:0:0:0:
423,225,198760,2,0,P|429:201|427:177,1,47.9999985351563
232,236,199008,2,0,P|208:242|185:240,1,47.9999985351563,2|0,0:0|0:0,0:0:0:0:
191,74,199256,2,0,P|175:55|167:9,1,47.9999985351563
91,193,199504,2,0,L|102:317,1,95.9999970703126,0|8,0:0|0:0,0:0:0:0:
147,362,199876,1,0,0:0:0:0:
134,372,200000,1,2,0:0:0:0:
278,141,200165,2,0,B|315:127|315:127|385:151,1,95.9999970703126,8|0,0:0|0:0,0:0:0:0:
395,157,200496,6,0,B|397:181|373:199,1,47.9999985351563,8|0,0:1|0:0,0:0:0:0:
320,275,200744,2,0,B|303:297|312:321,1,47.9999985351563,8|0,0:1|0:0,0:0:0:0:
406,366,200992,6,0,B|432:374|452:358,1,47.9999985351563,2|0,0:0|0:0,0:0:0:0:
320,275,201239,6,0,B|292:271|276:290,1,47.9999985351563,8|0,0:1|0:0,0:0:0:0:
167,369,201487,2,0,B|142:377|121:360,1,47.9999985351563,8|0,0:1|0:0,0:0:0:0:
26,299,201735,6,0,B|5:284|6:256,1,47.9999985351563,8|0,0:0|0:0,0:0:0:0:
174,227,201983,1,2,0:0:0:0:
69,134,202149,2,0,L|84:28,1,95.9999970703126,8|0,0:0|0:0,0:0:0:0:
89,15,202479,6,0,P|136:10|177:33,1,95.9999970703126,8|0,0:0|0:0,0:0:0:0:
466,62,202975,2,0,P|419:70|382:129,1,95.9999970703126,2|0,0:0|0:0,0:0:0:0:
234,191,203388,1,0,0:0:0:0:
237,173,203471,2,0,L|252:66,1,95.9999970703126,0|8,0:0|0:0,0:0:0:0:
217,308,203967,1,2,0:0:0:0:
352,358,204132,2,0,L|411:350,1,31.9999990234375,8|0,0:0|0:0,0:0:0:0:
138,356,204463,6,0,P|121:321|149:253,1,95.9999970703126,12|0,0:0|0:0,0:0:0:0:
383,216,204958,2,0,P|401:164|377:116,1,95.9999970703126,2|0,0:0|0:0,0:0:0:0:
172,135,205372,1,0,0:0:0:0:
172,154,205454,2,0,B|220:167|220:167|276:141,1,95.9999970703126,0|8,0:0|0:0,0:0:0:0:
97,73,205826,2,0,L|51:96,1,47.9999985351563,0|2,0:0|0:0,0:0:0:0:
236,28,206116,2,0,P|282:21|325:41,1,95.9999970703126,8|0,0:0|0:0,0:0:0:0:
364,41,206446,6,0,P|376:61|379:84,1,47.9999985351563,8|0,0:0|0:0,0:0:0:0:
317,261,206694,2,0,P|324:235|355:205,1,47.9999985351563
485,124,206942,2,0,P|460:137|411:136,1,47.9999985351563,2|0,0:0|0:0,0:0:0:0:
251,156,207190,2,0,P|276:143|325:144,1,47.9999985351563
419,350,207438,2,0,L|288:339,1,95.9999970703126,0|8,0:0|0:0,0:0:0:0:
243,346,207810,1,0,0:0:0:0:
240,330,207934,1,2,0:0:0:0:
92,270,208099,2,0,B|71:312|71:312|80:360,1,95.9999970703126,8|0,0:0|0:0,0:0:0:0:
95,361,208430,6,0,P|42:360|3:321,1,95.9999970703126,8|0,0:0|0:0,0:0:0:0:
193,110,208925,2,0,P|210:156|175:222,1,95.9999970703126,2|0,0:0|0:0,0:0:0:0:
117,191,209297,1,0,0:0:0:0:
111,176,209421,1,0,0:0:0:0:
258,255,209669,2,0,L|311:257,2,47.9999985351563,8|0|2,0:0|0:0|0:0,0:0:0:0:
339,115,210082,2,0,L|319:-3,1,95.9999970703126,8|0,0:0|0:0,0:0:0:0:
318,0,210413,5,8,0:0:0:0:
403,209,210661,2,0,L|391:273,1,47.9999985351563
331,334,210909,2,0,P|284:354|235:339,1,95.9999970703126,2|0,0:0|0:0,0:0:0:0:
430,354,211322,1,0,0:0:0:0:
450,345,211405,2,0,L|470:251,1,95.9999970703126,8|8,0:0|0:0,0:0:0:0:
260,193,211901,2,0,B|217:168|217:168|82:180,1,159.999995117188,2|0,0:0|0:0,0:0:0:0:
76,180,212397,6,0,P|48:142|67:72,1,95.9999970703126,12|0,0:0|0:0,0:0:0:0:
198,286,212892,2,0,P|190:333|127:369,1,95.9999970703126,2|0,0:0|0:0,0:0:0:0:
291,369,213306,1,0,0:0:0:0:
304,358,213388,2,0,L|412:378,1,95.9999970703126,0|8,0:0|0:0,0:0:0:0:
306,84,213884,1,2,0:0:0:0:
407,151,214049,2,0,B|417:202|417:202|394:246,1,95.9999970703126,8|0,0:0|0:0,0:0:0:0:
390,260,214380,6,0,P|439:246|489:269,1,95.9999970703126,8|0,0:0|0:0,0:0:0:0:
279,158,214876,2,0,P|230:172|180:149,1,95.9999970703126,2|0,0:0|0:0,0:0:0:0:
220,38,215289,1,0,0:0:0:0:
239,28,215372,2,0,L|353:38,1,95.9999970703126,0|8,0:0|0:0,0:0:0:0:
295,258,215868,1,2,0:0:0:0:
180,346,216033,2,0,L|87:322,1,95.9999970703126,8|0,0:0|0:0,0:0:0:0:
46,331,216363,6,0,P|33:283|56:237,1,95.9999970703126,8|0,0:0|0:0,0:0:0:0:
247,112,216859,2,0,P|233:159|190:187,1,95.9999970703126,2|0,0:0|0:0,0:0:0:0:
69,108,217272,1,0,0:0:0:0:
50,100,217355,2,0,L|150:92,1,95.9999970703126,0|8,0:0|0:0,0:0:0:0:
406,68,217850,1,2,0:0:0:0:
340,166,218016,2,0,L|327:261,1,95.9999970703126,8|0,0:0|0:0,0:0:0:0:
326,286,218347,6,0,P|371:300|415:285,1,95.9999970703126,8|0,0:0|0:0,0:0:0:0:
177,249,218843,2,0,P|165:294|182:338,1,95.9999970703126,2|0,0:0|0:0,0:0:0:0:
255,211,219256,1,0,0:0:0:0:
248,198,219339,2,0,B|230:154|230:154|248:77,1,95.9999970703126,0|8,0:0|0:0,0:0:0:0:
494,105,219834,1,2,0:0:0:0:
427,202,220000,2,0,L|334:178,1,95.9999970703126,8|0,0:0|0:0,0:0:0:0:
319,172,220330,6,0,P|338:125|391:104,1,95.9999970703126,12|0,0:0|0:0,0:0:0:0:
509,225,220826,2,0,P|490:272|437:293,1,95.9999970703126,2|0,0:0|0:0,0:0:0:0:
296,320,221239,1,0,0:0:0:0:
308,345,221322,2,0,L|412:359,1,95.9999970703126,0|8,0:0|0:0,0:0:0:0:
82,315,221817,1,2,0:0:0:0:
202,256,221983,2,0,B|219:212|219:212|198:147,1,95.9999970703126,8|0,0:0|0:0,0:0:0:0:
193,142,222314,6,0,P|242:128|292:151,1,95.9999970703126,8|0,0:0|0:0,0:0:0:0:
49,152,222810,2,0,P|31:104|51:52,1,95.9999970703126,2|0,0:0|0:0,0:0:0:0:
149,36,223223,1,0,0:0:0:0:
158,53,223306,2,0,B|207:62|207:62|262:41,1,95.9999970703126,0|8,0:0|0:0,0:0:0:0:
488,160,223801,1,2,0:0:0:0:
397,235,223967,2,0,L|301:224,1,95.9999970703126,8|0,0:0|0:0,0:0:0:0:
267,218,224297,6,0,P|255:170|267:122,1,95.9999970703126,8|0,0:0|0:0,0:0:0:0:
345,336,224793,1,6,0:0:0:0:
209,291,225041,2,0,P|185:263|178:232,1,63.9999980468751
181,214,225289,1,0,0:0:0:0:
330,329,225537,1,8,0:0:0:0:
156,361,225785,1,6,0:0:0:0:
267,218,225950,2,0,P|275:165|252:114,1,95.9999970703126,8|0,0:0|0:0,0:0:0:0:
151,62,226281,6,0,L|51:72,1,95.9999970703126
267,218,226777,1,6,0:0:0:0:
372,86,227025,2,0,L|386:19,1,63.9999980468751
494,76,227273,2,0,P|495:124|453:176,2,95.9999970703126,8|8|6,0:0|0:0|0:0,0:0:0:0:
225,52,228264,6,0,P|206:75|169:87,1,63.9999980468751,12|0,0:0|0:0,0:0:0:0:
161,80,228512,2,0,P|139:68|95:72,1,63.9999980468751,0|0,1:0|0:0,0:0:0:0:
117,150,228759,2,0,P|107:176|117:211,1,63.9999980468751,2|0,0:0|0:0,0:0:0:0:
116,222,229007,2,0,P|104:253|77:268,1,63.9999980468751,0|0,1:0|0:0,0:0:0:0:
253,288,229255,5,0,0:0:0:0:
265,284,229338,1,0,0:0:0:0:
278,280,229421,1,0,0:0:0:0:
288,276,229504,2,0,P|258:230|204:221,1,111.999996582031,8|2,0:0|0:0,0:0:0:0:
141,327,229917,2,0,L|134:367,1,37.3333321940105,8|2,0:0|1:0,0:0:0:0:
302,379,230248,6,0,P|327:375|356:338,1,63.9999980468751,8|0,0:0|0:0,0:0:0:0:
368,361,230496,2,0,P|387:334|386:287,1,63.9999980468751,0|0,1:0|0:0,0:0:0:0:
467,168,230744,2,0,P|452:189|408:202,1,63.9999980468751,2|0,0:0|0:0,0:0:0:0:
420,225,230992,2,0,P|387:230|347:210,1,63.9999980468751,0|0,1:0|0:0,0:0:0:0:
300,67,231239,5,0,0:0:0:0:
296,53,231322,1,0,0:0:0:0:
294,40,231405,1,0,0:0:0:0:
291,27,231487,2,0,P|342:40|364:109,1,111.999996582031,8|2,0:0|0:0,0:0:0:0:
239,149,231900,2,0,L|190:141,1,37.3333321940105,8|2,0:0|1:0,0:0:0:0:
70,214,232231,6,0,P|72:243|92:271,1,63.9999980468751,8|0,0:0|0:0,0:0:0:0:
90,284,232479,2,0,P|121:284|152:270,1,63.9999980468751,0|0,1:0|0:0,0:0:0:0:
257,354,232728,2,0,P|240:329|239:295,1,63.9999980468751,2|0,0:0|0:0,0:0:0:0:
230,286,232976,2,0,P|254:265|287:257,1,63.9999980468751,0|0,1:0|0:0,0:0:0:0:
422,314,233223,5,0,0:0:0:0:
423,327,233306,1,0,0:0:0:0:
423,340,233389,1,0,0:0:0:0:
424,353,233471,2,0,P|375:330|365:258,1,111.999996582031,8|2,0:0|0:0,0:0:0:0:
454,178,233884,2,0,L|506:188,1,37.3333321940105,8|2,0:0|1:0,0:0:0:0:
288,76,234215,6,0,P|256:69|226:79,1,63.9999980468751,8|0,0:0|0:0,0:0:0:0:
362,32,234463,2,0,P|391:21|423:26,1,63.9999980468751,0|0,1:0|0:0,0:0:0:0:
261,145,234711,2,0,P|259:176|274:204,1,63.9999980468751,2|0,0:0|0:0,0:0:0:0:
373,171,234959,2,0,P|374:139|359:111,1,63.9999980468751,0|0,1:0|0:0,0:0:0:0:
335,274,235206,5,0,0:0:0:0:
328,286,235288,1,0,0:0:0:0:
320,299,235371,1,0,0:0:0:0:
312,314,235454,2,0,L|257:281,1,63.9999980468751,8|0,0:0|0:0,0:0:0:0:
176,312,235702,2,0,P|167:342|175:373,1,63.9999980468751,2|0,0:0|0:0,0:0:0:0:
174,373,235950,2,0,L|111:377,1,63.9999980468751,2|0,0:0|0:0,0:0:0:0:
111,377,236197,5,2,0:3:0:0:
200,230,236322,2,0,L|217:119,1,95.9999970703126,0|0,3:0|0:0,0:0:0:0:
297,110,236694,2,0,P|310:58|294:12,1,95.9999970703126,8|0,0:1|0:0,0:0:0:0:
204,5,237066,1,0,3:0:0:0:
270,204,237314,1,0,0:0:0:0:
271,217,237438,1,0,3:0:0:0:
424,83,237686,1,8,0:1:0:0:
383,192,237934,2,0,L|392:239,1,47.9999985351563
446,364,238182,6,0,L|465:269,1,95.9999970703126,8|0,0:3|0:0,0:0:0:0:
374,317,238554,2,0,L|281:344,1,95.9999970703126,8|0,0:3|0:0,0:0:0:0:
197,372,238926,2,0,L|206:324,1,47.9999985351563,0|0,0:3|0:0,0:0:0:0:
247,172,239173,2,0,L|262:279,1,95.9999970703126,2|0,0:3|0:0,0:0:0:0:
169,246,239545,2,0,L|71:225,1,95.9999970703126,2|0,0:3|0:0,0:0:0:0:
110,121,239917,2,0,L|164:133,1,31.9999990234375,8|0,0:0|0:0,0:0:0:0:
