osu file format v14

[General]
AudioFilename: audio.mp3
AudioLeadIn: 0
PreviewTime: 51966
Countdown: 0
SampleSet: Soft
StackLeniency: 0.7
Mode: 0
LetterboxInBreaks: 0
WidescreenStoryboard: 1

[Editor]
Bookmarks: 9906,19318,38142,52259,75789
DistanceSpacing: 0.7
BeatDivisor: 4
GridSize: 4
TimelineZoom: 3.299999

[Metadata]
Title:KICK BACK (TV Size)
TitleUnicode:KICK BACK (TV Size)
Artist:Kenshi Yonezu
ArtistUnicode:米津玄師
Creator:moonpoint
Version:aishiteiru's Expert
Source:チェンソーマン
Tags:chainsaw man オープニング・テーマ op opening theme short version ver 常田大希 daiki tsuneda King Gnu millenium parade そうだ We're ALIVE つんく japanese anime jpop jrock j-pop j-rock pop rock fsjallink aishiteiru- gaz gazza visionary
BeatmapID:4248680
BeatmapSetID:1933015

[Difficulty]
HPDrainRate:7
CircleSize:4
OverallDifficulty:8
ApproachRate:9
SliderMultiplier:1.4
SliderTickRate:1

[Events]
//Background and Video events
0,0,"1277749.jpg",0,0
//Break Periods
2,19518,27983
//Storyboard Layer 0 (Background)
//Storyboard Layer 1 (Fail)
//Storyboard Layer 2 (Pass)
//Storyboard Layer 3 (Foreground)
//Storyboard Layer 4 (Overlay)
//Storyboard Sound Samples

[TimingPoints]
495,294.117647058824,4,2,1,80,1,0
495,-133.333333333333,4,2,1,80,0,0
9906,-57.1428571428571,4,2,1,80,0,0
10201,-57.1428571428571,4,2,2,80,0,0
10642,-57.1428571428571,4,2,1,80,0,0
10789,-57.1428571428571,4,2,2,80,0,0
11819,-57.1428571428571,4,2,1,80,0,0
11966,-57.1428571428571,4,2,2,80,0,0
12995,-57.1428571428571,4,2,1,80,0,0
13142,-57.1428571428571,4,2,2,80,0,0
14171,-57.1428571428571,4,2,1,80,0,0
14318,-57.1428571428571,4,2,2,80,0,0
15348,-57.1428571428571,4,2,1,80,0,0
15495,-57.1428571428571,4,2,2,80,0,0
16524,-57.1428571428571,4,2,1,80,0,0
16671,-57.1428571428571,4,2,2,80,0,0
17701,-57.1428571428571,4,2,1,80,0,0
17848,-57.1428571428571,4,2,2,80,0,0
18730,-57.1428571428571,4,2,1,80,0,0
19612,-57.1428571428571,4,2,2,80,0,0
20054,-57.1428571428571,4,2,1,80,0,0
20201,-57.1428571428571,4,2,2,80,0,0
21230,-57.1428571428571,4,2,1,80,0,0
21377,-57.1428571428571,4,2,2,80,0,0
22407,-57.1428571428571,4,2,1,80,0,0
22554,-57.1428571428571,4,2,2,80,0,0
22847,-57.1428571428571,4,2,1,80,0,0
23730,-57.1428571428571,4,2,2,80,0,0
24024,-57.1428571428571,4,2,1,80,0,0
24907,-57.1428571428571,4,2,2,80,0,0
25936,-57.1428571428571,4,2,1,80,0,0
26083,-57.1428571428571,4,2,2,80,0,0
27113,-57.1428571428571,4,2,1,80,0,0
27260,-57.1428571428571,4,2,2,80,0,0
27407,-57.1428571428571,4,2,1,80,0,0
28583,-80,4,2,1,80,0,0
29024,-80,4,2,2,80,0,0
29466,-80,4,2,1,80,0,0
29613,-80,4,2,2,80,0,0
30642,-80,4,2,1,80,0,0
30789,-80,4,2,2,80,0,0
31819,-80,4,2,1,80,0,0
31966,-80,4,2,2,80,0,0
32995,-80,4,2,1,80,0,0
33142,-80,4,2,2,80,0,0
33436,-500,4,2,2,80,0,0
34171,-500,4,2,1,80,0,0
34319,-500,4,2,2,80,0,0
34612,-166.666666666667,4,2,2,80,0,0
34906,-166.666666666667,4,2,1,80,0,0
35789,-166.666666666667,4,2,2,80,0,0
36524,-166.666666666667,4,2,1,80,0,0
36671,-80,4,2,2,80,0,0
37701,-80,4,2,1,80,0,0
37848,-80,4,2,2,80,0,0
38142,-200,4,2,3,80,0,0
38656,-200,4,2,3,5,0,0
38730,-200,4,2,3,80,0,0
39245,-200,4,2,3,5,0,0
39319,-200,4,2,3,80,0,0
39466,-200,4,2,1,80,0,0
39613,-200,4,2,4,80,0,0
39760,-200,4,2,2,80,0,0
39906,-200,4,2,4,80,0,0
40495,-200,4,2,3,80,0,0
41009,-200,4,2,3,5,0,0
41083,-200,4,2,3,80,0,0
41597,-200,4,2,3,5,0,0
41671,-200,4,2,3,80,0,0
41819,-200,4,2,1,80,0,0
41966,-200,4,2,4,80,0,0
42113,-200,4,2,2,80,0,0
42260,-200,4,2,4,80,0,0
42407,-200,4,2,1,80,0,0
42553,-200,4,2,4,80,0,0
42701,-200,4,2,1,80,0,0
42847,-200,4,2,3,80,0,0
43362,-200,4,2,3,5,0,0
43436,-200,4,2,3,80,0,0
43950,-200,4,2,3,5,0,0
44024,-200,4,2,3,80,0,0
44171,-200,4,2,1,80,0,0
44319,-200,4,2,4,80,0,0
44466,-200,4,2,2,80,0,0
44613,-200,4,2,4,80,0,0
44760,-200,4,2,1,80,0,0
44907,-200,4,2,4,80,0,0
45054,-200,4,2,1,80,0,0
45200,-200,4,2,3,80,0,0
45789,-133.333333333333,4,2,3,80,0,0
46524,-133.333333333333,4,2,1,80,0,0
46671,-133.333333333333,4,2,4,80,0,0
46819,-133.333333333333,4,2,2,80,0,0
46966,-133.333333333333,4,2,4,80,0,0
47113,-133.333333333333,4,2,1,80,0,0
47260,-133.333333333333,4,2,4,80,0,0
47407,-133.333333333333,4,2,1,80,0,0
47554,-133.333333333333,4,2,3,80,0,0
47701,-133.333333333333,4,2,1,80,0,0
47848,-133.333333333333,4,2,4,80,0,0
47995,-133.333333333333,4,2,2,80,0,0
48142,-133.333333333333,4,1,4,80,0,0
48289,-133.333333333333,4,1,1,80,0,0
48436,-133.333333333333,4,1,4,80,0,0
48583,-133.333333333333,4,1,1,80,0,0
49907,-133.333333333333,4,2,5,80,0,0
51965,-200,4,2,5,80,0,0
52259,-57.1428571428571,4,2,1,100,0,0
52554,-57.1428571428571,4,2,2,100,0,0
52995,-57.1428571428571,4,2,1,100,0,0
53142,-57.1428571428571,4,2,2,100,0,0
54171,-57.1428571428571,4,2,1,100,0,0
54319,-57.1428571428571,4,2,2,100,0,0
55348,-57.1428571428571,4,2,1,100,0,0
55495,-57.1428571428571,4,2,2,100,0,0
56524,-57.1428571428571,4,2,1,100,0,0
56671,-57.1428571428571,4,2,2,100,0,0
57701,-57.1428571428571,4,2,1,100,0,0
57848,-57.1428571428571,4,2,2,100,0,0
58877,-57.1428571428571,4,2,1,100,0,0
59024,-57.1428571428571,4,2,2,100,0,0
60054,-57.1428571428571,4,2,1,100,0,0
60201,-57.1428571428571,4,2,2,100,0,0
61230,-57.1428571428571,4,2,1,100,0,0
61377,-57.1428571428571,4,2,2,100,0,0
61671,-57.1428571428571,4,2,1,100,0,0
61966,-57.1428571428571,4,2,2,100,0,0
62407,-57.1428571428571,4,2,1,100,0,0
62554,-57.1428571428571,4,2,2,100,0,0
63583,-57.1428571428571,4,2,1,100,0,0
63730,-57.1428571428571,4,2,2,100,0,0
64760,-57.1428571428571,4,2,1,100,0,0
64907,-57.1428571428571,4,2,2,100,0,0
65936,-57.1428571428571,4,2,1,100,0,0
66083,-57.1428571428571,4,2,2,100,0,0
66377,-57.1428571428571,4,2,1,100,0,0
66671,-57.1428571428571,4,2,2,100,0,0
67554,-57.1428571428571,4,2,1,100,0,0
67848,-57.1428571428571,4,2,2,100,0,0
68730,-57.1428571428571,4,2,1,100,0,0
69024,-57.1428571428571,4,2,2,100,0,0
69906,-57.1428571428571,4,2,3,100,0,0
70789,-57.1428571428571,4,2,2,100,0,0
71230,-57.1428571428571,4,2,1,100,0,0
73730,-57.1428571428571,4,2,2,60,0,0
74612,-200,4,2,2,60,0,0
75789,-57.1428571428571,4,2,1,80,0,0
76083,-57.1428571428571,4,2,2,80,0,0
76524,-57.1428571428571,4,2,1,80,0,0
76671,-57.1428571428571,4,2,2,80,0,0
77701,-57.1428571428571,4,2,1,80,0,0
77848,-57.1428571428571,4,2,2,80,0,0
78877,-57.1428571428571,4,2,1,80,0,0
79024,-57.1428571428571,4,2,2,80,0,0
80054,-57.1428571428571,4,2,1,80,0,0
80201,-57.1428571428571,4,2,2,80,0,0
81230,-57.1428571428571,4,2,1,80,0,0
81377,-57.1428571428571,4,2,2,80,0,0
82407,-57.1428571428571,4,2,1,80,0,0
82554,-57.1428571428571,4,2,2,80,0,0
83583,-57.1428571428571,4,2,1,80,0,0
83877,303.030303030303,4,2,1,80,1,0
84028,303.030303030303,4,2,1,80,1,0
84103,-100,4,2,3,5,0,0
84179,-100,4,2,1,80,0,0
84406,-100,4,2,3,5,0,0
84482,-100,4,2,1,80,0,0
84709,-100,4,2,3,5,0,0
84785,-1000,4,2,1,80,0,0

[Colours]
Combo1 : 169,83,255
Combo2 : 255,94,94
Combo3 : 249,224,0
Combo4 : 100,139,255

[HitObjects]
39,349,495,5,4,1:2:0:0:
60,359,789,5,0,3:3:0:0:
22,367,936,1,0,3:3:0:0:
19,332,1083,1,0,3:3:0:0:
59,346,1230,1,0,3:3:0:0:
251,369,1524,5,0,3:3:0:0:
508,331,1818,5,0,3:3:0:0:
327,346,2112,5,0,3:3:0:0:
206,319,2406,5,0,3:3:0:0:
134,336,2553,1,0,3:3:0:0:
229,369,2700,1,0,3:3:0:0:
261,265,2847,5,0,3:3:0:0:
19,320,3142,1,0,3:3:0:0:
1,353,3289,1,0,3:3:0:0:
30,372,3436,1,0,3:3:0:0:
52,339,3583,1,0,3:3:0:0:
261,372,3877,5,0,3:3:0:0:
501,329,4171,5,0,3:3:0:0:
206,311,4465,5,0,3:3:0:0:
321,322,4612,1,0,3:3:0:0:
266,260,4759,1,0,3:3:0:0:
269,182,4906,2,2,P|273:133|273:86,1,78.7500030040742,0|0,3:3|3:0,3:1:0:0:
266,28,5200,5,0,3:3:0:0:
19,46,5495,5,0,3:3:0:0:
56,54,5642,1,0,3:3:0:0:
21,19,5789,1,0,3:3:0:0:
60,27,5936,1,0,3:3:0:0:
60,27,6230,5,0,3:3:0:0:
134,26,6524,5,0,3:3:0:0:
208,48,6818,5,0,3:3:0:0:
208,48,6892,1,0,0:0:0:0:
208,48,6965,1,0,3:3:0:0:
283,39,7112,1,0,3:3:0:0:
271,121,7259,1,0,3:3:0:0:
200,133,7406,1,0,3:3:0:0:
243,200,7553,6,0,L|241:308,1,105.000004005432,0|0,3:3|3:3,0:0:0:0:
240,378,7995,1,0,3:3:0:0:
311,344,8142,2,0,P|345:329|346:303,1,52.5000020027161,0|0,3:3|3:3,0:0:0:0:
333,245,8436,1,0,3:3:0:0:
176,163,8583,2,0,P|142:178|141:204,1,52.5000020027161,0|8,3:3|2:2,0:0:0:0:
155,211,8803,5,8,2:2:0:0:
133,222,8877,1,8,2:2:0:0:
160,237,8950,1,8,2:2:0:0:
138,248,9024,5,8,2:2:0:0:
169,317,9171,1,8,2:2:0:0:
78,358,9318,5,8,2:2:0:0:
92,316,9465,1,8,2:2:0:0:
253,273,9612,5,8,2:2:0:0:
300,363,9759,1,8,2:2:0:0:
389,298,9906,6,0,L|371:115,1,183.750001752377,4|0,1:2|0:0,0:0:0:0:
404,50,10200,2,0,L|479:24,1,61.2500005841255,8|0,3:2|0:0,0:0:0:0:
332,11,10347,2,0,P|306:7|259:31,1,61.2500005841255
215,69,10495,2,0,B|162:88|162:88|160:92|160:92|102:113,1,122.500001168251,0|0,1:1|1:1,0:0:0:0:
282,339,10789,2,0,L|294:195,1,122.500001168251,8|0,3:2|0:0,0:0:0:0:
78,272,11083,5,0,1:1:0:0:
127,287,11156,1,0,0:0:0:0:
115,239,11230,1,0,0:0:0:0:
164,254,11303,1,0,0:0:0:0:
213,195,11377,2,0,B|240:140|240:140|195:94,1,122.500001168251,8|0,3:2|0:0,0:0:0:0:
260,54,11597,1,0,0:0:0:0:
189,25,11671,2,0,L|113:20,1,61.2500005841255,0|8,1:1|3:0,0:0:0:0:
272,71,11818,2,0,B|349:72|317:105|404:119,1,122.500001168251,0|8,1:1|3:2,0:0:0:0:
454,96,12112,1,0,0:0:0:0:
294,170,12259,6,0,P|229:192|151:307,1,183.750001752377,0|0,1:1|0:0,0:0:0:0:
125,349,12553,2,0,B|102:350|106:363|65:381,2,61.2500005841255,8|0|0,3:2|0:0|0:0,0:0:0:0:
321,362,12847,2,0,P|261:337|192:344,1,122.500001168251,0|0,1:1|1:1,0:0:0:0:
79,261,13142,2,0,B|33:219|33:219|66:147,1,122.500001168251,8|0,3:2|0:0,0:0:0:0:
18,103,13362,1,0,0:0:0:0:
94,96,13436,6,0,L|86:10,2,61.2500005841255,0|0|0,1:1|0:0|0:0,0:0:0:0:
127,367,13730,1,8,3:2:0:0:
432,360,13877,5,0,0:0:0:0:
448,366,13950,1,0,0:0:0:0:
432,372,14024,1,0,1:1:0:0:
384,335,14097,1,8,3:0:0:0:
402,279,14171,1,0,1:1:0:0:
458,265,14245,1,0,0:0:0:0:
501,306,14318,2,2,B|518:280|518:280|500:238,1,61.2500005841255,8|0,3:2|0:0,1:1:0:0:
378,138,14465,2,0,B|361:164|361:164|379:206,1,61.2500005841255
482,75,14612,6,0,P|428:32|301:30,1,183.750001752377,0|0,1:0|0:0,0:0:0:0:
265,83,14906,2,0,B|239:75|239:75|232:24,1,61.2500005841255,8|0,3:2|0:0,0:0:0:0:
166,12,15053,1,0,0:0:0:0:
117,12,15127,1,0,0:0:0:0:
120,54,15200,2,0,B|75:100|75:100|109:162,1,122.500001168251,0|0,1:1|1:1,0:0:0:0:
218,321,15495,2,0,B|222:257|222:257|224:255|224:255|231:164,1,122.500001168251,8|0,3:2|0:0,0:0:0:0:
386,146,15789,5,0,1:1:0:0:
438,170,15862,1,0,0:0:0:0:
455,221,15936,1,0,0:0:0:0:
445,276,16009,1,0,0:0:0:0:
401,308,16083,2,0,P|386:339|393:372,1,61.2500005841255,8|0,3:2|0:0,0:0:0:0:
329,254,16230,2,0,P|314:251|258:267,1,61.2500005841255
211,308,16377,5,0,1:1:0:0:
136,294,16450,1,8,3:0:0:0:
74,339,16524,2,0,B|111:324|102:347|148:331,1,61.2500005841255,0|0,1:1|0:0,0:0:0:0:
236,150,16671,2,0,P|218:167|200:228,1,61.2500005841255,8|0,3:2|0:0,0:0:0:0:
279,350,16818,2,0,P|302:359|275:357,1,61.2500005841255
270,260,16965,6,0,P|333:220|464:239,1,183.750001752377,0|0,1:1|0:0,0:0:0:0:
453,228,17259,5,8,3:2:0:0:
444,233,17333,5,0,0:0:0:0:
433,228,17406,5,0,0:0:0:0:
422,239,17480,5,0,0:0:0:0:
411,225,17553,5,0,1:1:0:0:
391,248,17627,5,0,0:0:0:0:
373,222,17700,5,0,1:1:0:0:
349,255,17774,5,0,0:0:0:0:
318,220,17847,5,8,3:2:0:0:
296,263,17921,5,0,0:0:0:0:
261,219,17995,5,0,1:1:0:0:
242,263,18068,5,0,0:0:0:0:
202,226,18142,5,0,1:1:0:0:
184,259,18215,5,0,0:0:0:0:
151,235,18289,5,0,1:1:0:0:
115,256,18362,5,0,0:0:0:0:
75,252,18436,6,0,B|48:240|48:240|8:253,2,61.2500005841255,8|0|0,3:2|1:1|1:1,0:0:0:0:
287,359,18730,6,0,B|309:343|309:343|298:287,1,61.2500005841255,4|0,1:2|0:0,0:0:0:0:
158,229,18877,2,0,B|160:256|160:256|214:274,1,61.2500005841255,2|0,1:3|0:0,0:0:0:0:
361,177,19024,2,0,B|336:165|336:165|310:188,1,61.2500005841255,2|0,1:3|0:0,0:0:0:0:
266,246,19171,1,8,2:2:0:0:
266,246,19245,1,0,0:0:0:0:
266,246,19318,5,4,1:2:0:0:
331,312,28583,5,10,2:2:0:0:
221,226,28730,1,6,1:2:0:0:
90,297,28877,2,0,L|3:308,1,87.5,2|0,0:0|0:0,0:0:0:0:
163,332,29171,5,2,0:0:0:0:
293,186,29318,1,2,1:3:0:0:
415,350,29465,2,0,L|501:338,1,87.5,2|0,1:3|0:0,0:0:0:0:
181,128,29759,1,0,0:0:0:0:
138,139,29833,1,0,0:0:0:0:
95,151,29906,1,0,1:1:0:0:
53,161,29980,1,0,0:0:0:0:
10,173,30053,6,0,B|54:188|54:188|69:242,2,87.5,0|8|0,1:1|3:2|0:0,0:0:0:0:
246,361,30495,1,0,1:1:0:0:
247,313,30568,1,0,1:1:0:0:
249,267,30642,1,0,1:1:0:0:
250,220,30715,1,0,0:0:0:0:
252,173,30789,2,0,L|258:36,1,131.25,8|8,3:2|3:2,0:0:0:0:
171,10,31083,6,0,B|164:32|164:32|208:54,1,43.75,0|0,1:1|0:0,0:0:0:0:
341,47,31230,2,0,B|348:25|348:25|304:3,1,43.75
179,123,31377,2,0,L|115:139,1,43.75,8|0,3:2|0:0,0:0:0:0:
334,137,31524,2,0,L|398:153,1,43.75
278,188,31671,1,0,1:1:0:0:
233,175,31745,1,8,3:0:0:0:
241,216,31818,1,0,1:1:0:0:
275,214,31892,1,0,0:0:0:0:
261,253,31965,1,8,3:2:0:0:
254,326,32112,1,0,0:0:0:0:
333,345,32259,6,0,B|380:335|372:367|450:350,1,87.5,0|0,0:0|1:1,0:0:0:0:
178,341,32553,2,0,B|131:331|139:363|61:346,1,87.5,8|8,3:2|3:2,0:0:0:0:
65,336,32774,1,8,3:2:0:0:
39,354,32847,5,0,1:1:0:0:
170,370,32995,1,0,1:1:0:0:
351,257,33142,1,8,3:2:0:0:
334,29,33289,1,8,3:2:0:0:
263,5,33436,6,0,P|260:20|259:49,1,42,0|0,1:1|0:0,0:0:0:0:
478,354,34024,5,0,1:1:0:0:
347,370,34172,1,0,1:1:0:0:
166,257,34319,1,8,3:2:0:0:
183,29,34466,1,0,1:1:0:0:
254,5,34613,6,0,P|257:20|258:50,2,41.9999987182618,0|0|12,1:1|1:1|3:2,0:0:0:0:
116,113,35053,1,0,0:0:0:0:
280,218,35200,1,0,1:1:0:0:
276,255,35274,1,0,0:0:0:0:
271,292,35347,1,0,1:1:0:0:
267,327,35421,1,0,0:0:0:0:
264,361,35495,1,12,3:2:0:0:
191,343,35642,1,0,0:0:0:0:
117,359,35789,5,0,1:1:0:0:
343,341,35936,1,0,1:1:0:0:
505,368,36083,1,8,3:2:0:0:
427,371,36230,1,0,1:1:0:0:
427,371,36303,1,0,0:0:0:0:
427,371,36377,1,0,1:1:0:0:
219,342,36524,1,0,1:1:0:0:
219,342,36597,1,0,0:0:0:0:
219,342,36671,2,0,B|241:333|241:333|246:293,1,43.75,8|0,3:2|1:1,0:0:0:0:
265,103,36818,2,0,L|276:199,1,87.5,8|0,3:2|1:1,0:0:0:0:
334,237,37112,5,8,3:2:0:0:
87,327,37259,2,0,P|115:270|192:258,1,131.25,8|0,3:2|0:0,0:0:0:0:
244,287,37553,2,0,P|274:296|274:330,1,43.75,0|0,1:1|0:0,0:0:0:0:
347,336,37700,2,0,P|359:351|355:380,2,43.75,0|0|8,1:1|0:0|3:2,0:0:0:0:
338,258,37921,1,0,0:0:0:0:
360,202,37995,1,0,0:0:0:0:
409,164,38068,1,0,0:0:0:0:
469,157,38142,6,0,P|428:153|360:132,1,105,4|0,1:2|0:0,0:0:0:0:
189,9,38730,6,0,B|194:50|235:46|231:111,1,105,4|0,1:2|0:0,0:0:0:0:
98,341,39318,5,12,1:3:0:0:
71,280,39465,1,8,2:3:0:0:
60,205,39612,1,12,1:2:0:0:
87,116,39759,1,8,2:3:0:0:
477,287,39906,6,0,P|456:289|434:294,1,35,12|0,1:3|0:0,0:0:0:0:
202,322,40200,2,0,P|219:318|236:317,1,35,12|0,1:2|0:0,0:0:0:0:
319,150,40495,6,0,P|322:116|310:72,2,70,4|0|4,1:2|0:0|1:2,0:0:0:0:
279,213,41230,5,0,0:0:0:0:
417,280,41377,1,0,0:0:0:0:
290,373,41524,1,0,0:0:0:0:
326,302,41671,5,12,1:3:0:0:
218,331,41818,1,8,2:3:0:0:
93,283,41965,1,12,1:2:0:0:
50,140,42112,1,8,2:3:0:0:
136,2,42259,5,12,1:3:0:0:
33,157,42406,1,8,2:3:0:0:
238,256,42553,1,12,1:2:0:0:
291,159,42700,1,8,2:3:0:0:
200,161,42847,6,0,P|193:109|210:48,1,105,4|0,1:2|0:0,0:0:0:0:
454,216,43436,6,0,P|461:268|444:329,1,105,4|0,1:2|0:0,0:0:0:0:
223,237,44024,5,12,1:3:0:0:
146,248,44171,1,8,2:3:0:0:
78,289,44318,1,12,1:2:0:0:
35,356,44465,1,8,2:3:0:0:
19,42,44612,6,0,P|40:54|55:58,1,35,12|8,1:3|2:3,0:0:0:0:
193,164,44906,2,0,L|235:161,1,35,12|8,1:2|2:3,0:0:0:0:
501,157,45200,6,0,P|455:161|390:183,1,105,4|0,1:2|0:0,0:0:0:0:
240,363,45789,6,0,L|230:296,1,52.5000020027161,2|0,1:3|1:3,0:0:0:0:
242,237,46083,1,0,0:0:0:0:
127,116,46230,1,8,3:2:0:0:
202,16,46377,6,0,L|209:67,1,52.5000020027161,12|8,1:3|2:3,0:0:0:0:
103,222,46671,1,12,1:2:0:0:
306,297,46818,1,8,2:3:0:0:
84,338,46965,2,0,L|31:331,1,52.5000020027161,12|8,1:3|2:3,0:0:0:0:
241,255,47259,1,12,1:2:0:0:
165,281,47406,1,8,2:3:0:0:
182,204,47553,6,0,P|171:154|181:26,1,157.500006008148,12|8,1:3|2:3,0:0:0:0:
493,102,48142,6,0,P|505:145|493:216,1,105.000004005432,12|12,1:3|1:2,0:0:0:0:
463,238,48534,5,0,0:0:0:0:
511,257,48632,5,0,0:0:0:0:
477,283,48730,5,8,2:2:0:0:
496,362,48828,6,0,L|453:371,2,35.0000013351441,8|8|8,2:2|2:2|2:2,0:0:0:0:
392,340,49122,6,0,L|346:347,1,35.0000013351441,8|8,2:2|2:2,0:0:0:0:
288,331,49318,5,8,2:2:0:0:
288,331,49416,5,0,0:0:0:0:
256,192,49539,12,0,51818,0:0:0:0:
63,96,51965,6,0,P|42:93|56:114,1,52.5,2|0,0:0|0:0,0:0:0:0:
146,142,52259,6,0,P|153:70|105:9,1,122.500001168251,6|0,1:2|0:0,0:0:0:0:
49,114,52480,1,0,0:0:0:0:
79,191,52553,2,0,P|72:263|120:324,1,122.500001168251,8|0,3:2|0:0,0:0:0:0:
170,294,52774,1,0,0:0:0:0:
184,368,52847,2,0,L|272:376,1,61.2500005841255,0|0,1:1|0:0,0:0:0:0:
422,298,52995,2,0,B|344:288|382:321|279:323,1,122.500001168251,0|8,1:1|3:2,0:0:0:0:
223,183,53289,5,0,0:0:0:0:
254,165,53362,1,0,0:0:0:0:
269,199,53436,2,0,B|297:191|297:191|306:156,1,61.2500005841255,0|0,1:1|0:0,0:0:0:0:
193,41,53583,2,0,P|140:71|114:137,2,122.500001168251,0|8|0,1:1|3:2|0:0,0:0:0:0:
382,71,54024,1,0,1:1:0:0:
401,62,54097,1,0,1:1:0:0:
396,47,54171,1,0,1:1:0:0:
378,43,54245,1,0,0:0:0:0:
369,61,54318,2,0,L|391:217,1,122.500001168251,8|0,3:2|0:0,0:0:0:0:
317,233,54539,1,0,0:0:0:0:
399,260,54612,6,0,L|415:399,1,122.500001168251,0|0,1:1|0:0,0:0:0:0:
386,182,54906,1,8,3:2:0:0:
469,211,54979,2,0,L|483:332,1,122.500001168251
325,374,55200,2,0,L|317:302,2,61.2500005841255,0|0|0,1:1|0:0|1:1,0:0:0:0:
173,284,55495,1,8,3:2:0:0:
210,271,55568,1,0,0:0:0:0:
193,243,55642,2,0,L|203:162,1,61.2500005841255
173,112,55789,6,0,P|158:48|195:7,1,122.500001168251,0|0,1:1|1:1,0:0:0:0:
480,115,56083,2,0,B|412:119|447:140|357:160,1,122.500001168251,8|0,3:2|0:0,0:0:0:0:
301,121,56303,1,0,0:0:0:0:
301,197,56377,2,0,B|310:226|310:226|366:228,2,61.2500005841255,0|0|0,1:1|1:1|1:1,0:0:0:0:
124,83,56671,2,0,L|105:236,1,122.500001168251,8|0,3:2|0:0,0:0:0:0:
149,269,56892,1,0,0:0:0:0:
74,276,56965,6,0,L|-3:291,2,61.2500005841255,0|0|0,1:1|0:0|0:0,0:0:0:0:
263,340,57186,5,0,0:0:0:0:
330,292,57259,2,0,L|390:280,1,61.2500005841255,8|0,3:2|0:0,0:0:0:0:
208,205,57553,5,0,1:1:0:0:
284,82,57700,1,0,1:1:0:0:
159,22,57847,1,8,3:2:0:0:
77,145,57995,1,0,0:0:0:0:
77,145,58068,1,0,0:0:0:0:
77,145,58142,5,0,1:1:0:0:
150,166,58289,1,0,0:0:0:0:
192,99,58436,1,8,3:2:0:0:
119,78,58583,1,0,0:0:0:0:
77,145,58730,2,0,P|53:144|47:95,1,61.2500005841255,0|0,1:1|1:1,0:0:0:0:
79,46,58877,2,0,P|103:47|109:96,1,61.2500005841255,0|0,1:1|0:0,0:0:0:0:
40,254,59024,6,0,B|117:212|117:212|222:279,1,183.750001752377,8|0,3:2|0:0,0:0:0:0:
269,294,59318,2,0,L|397:272,1,122.500001168251,0|0,1:1|0:0,0:0:0:0:
488,94,59612,6,0,P|484:74|444:80,1,61.2500005841255,8|0,3:2|0:0,0:0:0:0:
386,42,59759,2,0,P|364:22|343:55,1,61.2500005841255
273,21,59906,2,0,P|245:11|255:50,1,61.2500005841255,0|0,1:1|0:0,0:0:0:0:
196,98,60053,2,0,L|217:301,1,183.750001752377,0|0,1:1|0:0,0:0:0:0:
177,346,60347,2,0,B|156:366|156:366|101:353,1,61.2500005841255
70,308,60495,5,0,1:1:0:0:
97,264,60568,1,0,0:0:0:0:
151,249,60642,1,0,1:1:0:0:
202,271,60715,1,0,3:1:0:0:
201,277,60789,5,8,3:2:0:0:
200,281,60862,1,0,0:0:0:0:
199,286,60936,1,0,1:1:0:0:
198,289,61009,1,0,0:0:0:0:
197,295,61083,5,0,1:1:0:0:
221,340,61156,1,0,1:1:0:0:
277,352,61230,1,0,1:1:0:0:
325,328,61303,1,0,0:0:0:0:
342,276,61377,2,0,L|333:206,1,61.2500005841255,8|0,3:2|0:0,0:0:0:0:
305,17,61524,2,0,L|312:77,1,61.2500005841255,8|8,3:2|3:2,0:0:0:0:
484,124,61671,6,0,B|415:108|451:146|334:144,1,122.500001168251,4|0,1:2|0:0,0:0:0:0:
127,107,61965,2,0,P|63:107|-25:121,1,122.500001168251,8|0,3:2|0:0,0:0:0:0:
66,148,62186,1,0,0:0:0:0:
66,66,62259,2,0,B|71:37|71:37|34:27,2,61.2500005841255,0|0|0,1:1|0:0|1:1,0:0:0:0:
185,257,62553,1,8,3:2:0:0:
218,267,62627,1,0,0:0:0:0:
221,235,62700,6,0,L|212:106,1,122.500001168251,0|0,0:0|1:1,0:0:0:0:
449,289,62995,2,0,L|444:224,1,61.2500005841255,0|0,1:0|0:0,0:0:0:0:
359,155,63142,2,0,L|350:26,1,122.500001168251,8|0,3:2|0:0,0:0:0:0:
225,353,63436,2,0,L|220:288,1,61.2500005841255,0|0,1:1|1:0,0:0:0:0:
280,237,63583,2,0,L|275:172,1,61.2500005841255,0|0,1:1|0:0,0:0:0:0:
96,192,63730,2,0,L|91:127,1,61.2500005841255,8|0,3:2|0:0,0:0:0:0:
172,0,63877,6,0,L|187:176,2,122.500001168251,0|0|0,0:0|1:1|0:0,0:0:0:0:
485,204,64318,2,0,P|420:216|355:266,1,122.500001168251,8|0,3:2|0:0,0:0:0:0:
306,220,64539,1,0,0:0:0:0:
319,297,64612,2,0,B|313:314|313:314|331:332|331:332|336:365,1,61.2500005841255,0|0,1:1|0:0,0:0:0:0:
246,270,64759,2,0,P|175:242|74:239,1,122.500001168251,0|8,1:1|3:2,0:0:0:0:
16,83,65053,1,0,0:0:0:0:
56,71,65127,1,0,0:0:0:0:
98,74,65200,6,0,L|88:155,1,61.2500005841255,0|0,1:1|0:0,0:0:0:0:
221,28,65347,2,0,L|211:109,1,61.2500005841255,0|0,1:0|0:0,0:0:0:0:
181,183,65495,2,0,L|161:337,1,122.500001168251,8|0,3:2|0:0,0:0:0:0:
316,179,65789,1,0,1:1:0:0:
365,168,65862,1,0,1:0:0:0:
408,156,65936,1,0,1:1:0:0:
453,143,66009,1,0,0:0:0:0:
501,131,66083,2,0,B|446:102|446:102|376:132,1,122.500001168251,8|0,3:2|0:0,0:0:0:0:
336,73,66303,1,0,0:0:0:0:
267,108,66377,6,0,L|115:128,1,122.500001168251,4|0,1:2|0:0,0:0:0:0:
13,197,66671,5,8,1:2:0:0:
26,273,66818,1,0,1:1:0:0:
249,349,66965,5,8,1:2:0:0:
222,275,67112,1,0,1:1:0:0:
222,275,67186,1,0,0:0:0:0:
222,275,67259,1,8,1:2:0:0:
299,285,67406,1,0,1:1:0:0:
499,197,67553,5,4,1:2:0:0:
486,273,67700,1,0,1:1:0:0:
392,118,67847,5,8,1:2:0:0:
385,194,67994,1,0,1:1:0:0:
260,65,68142,5,8,1:2:0:0:
259,141,68289,1,0,1:1:0:0:
133,109,68436,5,8,1:2:0:0:
139,185,68583,1,0,1:1:0:0:
21,154,68730,6,0,L|42:290,1,122.500001168251,4|0,1:2|0:0,0:0:0:0:
301,353,69024,5,8,1:2:0:0:
226,367,69171,1,0,1:1:0:0:
219,262,69318,5,8,1:2:0:0:
294,276,69465,1,0,1:1:0:0:
295,166,69612,5,8,1:2:0:0:
220,180,69759,1,0,1:1:0:0:
220,180,69833,1,0,0:0:0:0:
220,180,69906,6,0,P|216:111|225:46,1,122.500001168251,12|0,1:2|1:1,0:0:0:0:
301,57,70127,1,0,0:0:0:0:
301,57,70200,2,0,P|303:27|297:-14,1,61.2500005841255,8|0,1:2|0:0,0:0:0:0:
144,0,70347,2,0,P|142:30|148:71,1,61.2500005841255,0|0,1:1|0:0,0:0:0:0:
140,165,70495,6,0,P|86:189|24:237,1,122.500001168251,8|0,1:2|1:1,0:0:0:0:
87,278,70715,1,0,0:0:0:0:
18,315,70789,2,0,P|67:351|122:376,1,122.500001168251,8|8,2:2|2:2,0:0:0:0:
362,327,71083,6,0,P|408:267|347:252,1,122.500001168251,4|0,1:0|1:1,0:0:0:0:
125,132,71377,6,0,L|190:120,1,61.2500005841255,4|0,1:2|0:0,0:0:0:0:
387,248,71524,2,0,L|322:236,1,61.2500005841255,0|0,1:1|0:0,0:0:0:0:
138,243,71671,2,0,L|198:231,1,61.2500005841255,4|0,1:2|0:0,0:0:0:0:
397,143,71818,2,0,L|332:131,1,61.2500005841255,0|0,1:1|0:0,0:0:0:0:
136,143,71965,6,0,L|201:131,1,61.2500005841255,4|0,1:2|0:0,0:0:0:0:
371,235,72112,2,0,L|306:223,1,61.2500005841255,0|0,1:1|0:0,0:0:0:0:
151,229,72259,2,0,L|211:217,1,61.2500005841255,4|0,1:2|0:0,0:0:0:0:
381,153,72406,2,0,L|316:141,1,61.2500005841255,0|0,1:1|0:0,0:0:0:0:
259,172,72553,5,4,1:2:0:0:
252,178,72627,5,0,0:0:0:0:
255,185,72700,5,0,1:1:0:0:
261,186,72774,5,0,0:0:0:0:
266,185,72847,5,4,1:2:0:0:
269,182,72921,5,0,0:0:0:0:
271,177,72995,5,0,1:1:0:0:
266,172,73068,5,0,0:0:0:0:
259,172,73142,5,4,1:2:0:0:
251,176,73215,5,0,0:0:0:0:
251,183,73289,5,0,1:1:0:0:
256,189,73362,5,0,0:0:0:0:
264,190,73436,5,0,3:3:0:0:
259,326,73730,6,0,L|261:246,3,61.2500005841255,8|0|0|0,3:2|0:0|0:0|0:0,0:0:0:0:
246,93,74024,2,0,L|251:10,2,61.2500005841255,0|0|4,3:3|3:3|2:2,0:0:0:0:
280,163,74245,1,0,0:0:0:0:
221,220,74318,2,0,P|191:218|165:234,1,61.2500005841255,8|0,3:2|0:0,0:0:0:0:
92,228,74465,2,0,P|77:239|17:230,1,61.2500005841255
5,138,74612,6,0,P|24:153|1:144,3,70,4|0|0|0,2:2|0:0|0:0|0:0,0:0:0:0:
461,4,75789,6,0,P|482:72|479:203,1,183.750001752377,4|0,1:2|0:0,0:0:0:0:
440,241,76083,1,8,3:2:0:0:
510,264,76156,1,0,0:0:0:0:
461,305,76230,1,0,0:0:0:0:
496,332,76303,1,0,0:0:0:0:
488,367,76377,2,0,L|479:274,2,61.2500005841255,0|0|0,1:1|0:0|1:1,0:0:0:0:
237,230,76671,2,0,B|306:213|292:253|377:241,1,122.500001168251,8|0,3:2|0:0,0:0:0:0:
178,180,76965,6,0,P|172:145|178:96,1,61.2500005841255,0|0,1:1|0:0,0:0:0:0:
185,282,77112,2,0,P|191:317|185:366,1,61.2500005841255,0|0,1:1|0:0,0:0:0:0:
2,249,77259,2,0,P|46:231|143:251,1,122.500001168251,8|0,3:2|0:0,0:0:0:0:
281,340,77553,1,0,1:1:0:0:
321,330,77627,1,0,1:0:0:0:
329,361,77700,2,0,P|361:367|361:331,1,61.2500005841255,0|0,1:1|0:0,0:0:0:0:
389,202,77847,2,0,B|470:179|470:179|512:285,1,183.750001752377,8|0,3:2|0:0,0:0:0:0:
314,239,78142,6,0,P|309:155|315:27,1,183.750001752377,0|0,1:1|0:0,0:0:0:0:
365,2,78436,1,8,3:2:0:0:
379,12,78509,1,0,0:0:0:0:
386,33,78583,2,0,P|389:65|376:127,1,61.2500005841255
233,144,78730,2,0,P|230:112|243:50,1,61.2500005841255,0|0,1:1|0:0,0:0:0:0:
200,15,78877,1,0,1:1:0:0:
220,9,78950,1,0,0:0:0:0:
248,14,79024,2,0,P|192:3|88:14,1,122.500001168251,8|0,3:2|0:0,0:0:0:0:
1,241,79318,6,0,P|57:230|161:241,1,122.500001168251,0|0,1:1|1:1,0:0:0:0:
271,300,79612,2,0,L|408:292,1,122.500001168251,8|0,3:2|0:0,0:0:0:0:
427,275,79833,1,0,0:0:0:0:
451,306,79906,2,0,L|533:301,2,61.2500005841255,0|0|0,1:1|1:1|1:1,0:0:0:0:
219,225,80200,2,2,P|197:157|225:88,1,122.500001168251,8|0,3:2|0:0,1:1:0:0:
461,27,80495,6,0,P|496:90|447:223,1,183.750001752377,0|0,1:0|0:0,0:0:0:0:
401,219,80789,2,0,B|350:199|336:254|292:263,1,122.500001168251,8|0,3:2|0:0,0:0:0:0:
248,252,81009,1,0,0:0:0:0:
254,292,81083,2,0,P|254:328|257:370,2,61.2500005841255,0|0|0,1:1|0:0|1:1,0:0:0:0:
256,129,81377,2,0,P|268:47|259:0,1,122.500001168251,8|0,3:2|0:0,0:0:0:0:
15,167,81671,5,0,1:1:0:0:
57,162,81745,1,0,0:0:0:0:
101,175,81818,1,0,1:1:0:0:
134,203,81892,1,0,0:0:0:0:
151,241,81965,2,0,B|113:283|113:283|142:355,1,122.500001168251,8|0,3:2|0:0,0:0:0:0:
207,313,82186,1,0,0:0:0:0:
265,231,82259,2,0,B|303:273|303:273|274:345,1,122.500001168251,0|0,1:1|1:1,0:0:0:0:
199,151,82553,2,0,B|196:87|196:87|197:83|197:83|193:9,1,122.500001168251,8|0,3:2|0:0,0:0:0:0:
361,212,82847,6,0,B|418:193|418:193|494:231,1,122.500001168251,0|0,1:1|0:0,0:0:0:0:
221,282,83142,2,0,L|144:295,2,61.2500005841255,8|0|0,3:2|0:0|0:0,0:0:0:0:
340,128,83436,2,2,P|338:57|306:5,1,122.500001168251,0|0,1:1|0:0,0:1:0:0:
85,88,83730,2,0,P|56:102|44:148,1,61.2500005841255,8|0,3:2|0:0,0:0:0:0:
51,151,83877,6,2,L|92:143,1,35,12|0,1:2|0:0,0:0:0:0:
419,318,84179,6,2,L|476:308,1,35,8|0,3:2|0:0,0:0:0:0:
235,24,84482,6,2,L|292:14,1,35,8|0,3:2|0:0,0:0:0:0:
106,348,84785,6,2,L|149:340,1,42,10|0,3:2|0:0,0:0:0:0:
