osu file format v14

[General]
AudioFilename: audio.mp3
AudioLeadIn: 0
PreviewTime: 51966
Countdown: 0
SampleSet: Soft
StackLeniency: 0.4
Mode: 0
LetterboxInBreaks: 0
WidescreenStoryboard: 1

[Editor]
Bookmarks: 21818
DistanceSpacing: 0.7
BeatDivisor: 4
GridSize: 32
TimelineZoom: 3.299999

[Metadata]
Title:KICK BACK (TV Size)
TitleUnicode:KICK BACK (TV Size)
Artist:Kenshi Yonezu
ArtistUnicode:米津玄師
Creator:moonpoint
Version:Hard
Source:チェンソーマン
Tags:chainsaw man オープニング・テーマ op opening theme short version ver 常田大希 daiki tsuneda King Gnu millenium parade そうだ We're ALIVE つんく japanese anime jpop jrock j-pop j-rock pop rock fsjallink aishiteiru- gaz gazza visionary
BeatmapID:4216292
BeatmapSetID:1933015

[Difficulty]
HPDrainRate:3
CircleSize:3
OverallDifficulty:7
ApproachRate:8
SliderMultiplier:1
SliderTickRate:1

[Events]
//Background and Video events
0,0,"cropped-1920-1080-1280154.jpg",0,0
//Break Periods
2,1577,3862
2,5400,6215
//Storyboard Layer 0 (Background)
//Storyboard Layer 1 (Fail)
//Storyboard Layer 2 (Pass)
//Storyboard Layer 3 (Foreground)
//Storyboard Layer 4 (Overlay)
//Storyboard Sound Samples

[TimingPoints]
495,294.117647058824,4,2,1,80,1,0
10201,-100,4,2,2,80,0,0
10642,-100,4,2,1,80,0,0
10789,-100,4,2,2,80,0,0
11819,-100,4,2,1,80,0,0
11966,-100,4,2,2,80,0,0
12995,-100,4,2,1,80,0,0
13142,-100,4,2,2,80,0,0
14171,-100,4,2,1,80,0,0
14319,-100,4,2,2,80,0,0
15348,-100,4,2,1,80,0,0
15495,-100,4,2,2,80,0,0
16524,-100,4,2,1,80,0,0
16671,-100,4,2,2,80,0,0
17701,-100,4,2,1,80,0,0
17848,-100,4,2,2,80,0,0
18730,-100,4,2,1,80,0,0
19613,-100,4,2,2,80,0,0
20054,-100,4,2,1,80,0,0
20201,-100,4,2,2,80,0,0
21230,-100,4,2,1,80,0,0
21377,-100,4,2,2,80,0,0
22407,-100,4,2,1,80,0,0
22554,-100,4,2,2,80,0,0
22848,-100,4,2,1,80,0,0
23730,-100,4,2,2,80,0,0
24024,-100,4,2,1,80,0,0
24907,-100,4,2,2,80,0,0
25936,-100,4,2,1,80,0,0
26083,-100,4,2,2,80,0,0
27113,-100,4,2,1,80,0,0
27260,-100,4,2,2,80,0,0
27407,-100,4,2,1,80,0,0
29024,-100,4,2,2,80,0,0
29466,-100,4,2,1,80,0,0
29613,-100,4,2,2,80,0,0
30642,-100,4,2,1,80,0,0
30789,-100,4,2,2,80,0,0
31819,-100,4,2,1,80,0,0
31966,-100,4,2,2,80,0,0
32995,-100,4,2,1,80,0,0
33142,-100,4,2,2,80,0,0
34171,-100,4,2,1,80,0,0
34319,-100,4,2,2,80,0,0
34907,-100,4,2,1,80,0,0
35789,-100,4,2,2,80,0,0
36524,-100,4,2,1,80,0,0
36671,-100,4,2,2,80,0,0
37701,-100,4,2,1,80,0,0
37848,-100,4,2,2,80,0,0
38142,-100,4,2,3,80,0,0
39466,-100,4,2,1,80,0,0
39613,-100,4,2,4,80,0,0
39760,-100,4,2,2,80,0,0
39907,-100,4,2,4,80,0,0
40495,-100,4,2,3,80,0,0
41819,-100,4,2,1,80,0,0
41966,-100,4,2,4,80,0,0
42113,-100,4,2,2,80,0,0
42260,-100,4,2,4,80,0,0
42407,-100,4,2,1,80,0,0
42554,-100,4,2,4,80,0,0
42701,-100,4,2,1,80,0,0
42848,-100,4,2,3,80,0,0
44171,-100,4,2,1,80,0,0
44319,-100,4,2,4,80,0,0
44466,-100,4,2,2,80,0,0
44613,-100,4,2,4,80,0,0
44760,-100,4,2,1,80,0,0
44907,-100,4,2,4,80,0,0
45054,-100,4,2,1,80,0,0
45201,-100,4,2,3,80,0,0
46524,-100,4,2,1,80,0,0
46671,-100,4,2,4,80,0,0
46819,-100,4,2,2,80,0,0
46966,-100,4,2,4,80,0,0
47113,-100,4,2,1,80,0,0
47260,-100,4,2,4,80,0,0
47407,-100,4,2,1,80,0,0
47553,-125,4,2,3,80,0,0
47701,-125,4,2,1,80,0,0
47848,-125,4,2,4,80,0,0
47995,-125,4,2,2,80,0,0
48142,-125,4,1,4,80,0,0
48289,-125,4,1,1,80,0,0
48436,-125,4,1,4,80,0,0
48583,-125,4,1,1,80,0,0
48730,-100,4,1,1,80,0,0
49318,-900.009000090001,4,1,1,80,0,0
49907,-900.009000090001,4,2,5,80,0,0
52259,-90.9090909090909,4,2,1,100,0,0
52554,-90.9090909090909,4,2,2,100,0,0
52995,-90.9090909090909,4,2,1,100,0,0
53142,-90.9090909090909,4,2,2,100,0,0
54171,-90.9090909090909,4,2,1,100,0,0
54319,-90.9090909090909,4,2,2,100,0,0
55348,-90.9090909090909,4,2,1,100,0,0
55495,-90.9090909090909,4,2,2,100,0,0
56524,-90.9090909090909,4,2,1,100,0,0
56671,-90.9090909090909,4,2,2,100,0,0
57701,-90.9090909090909,4,2,1,100,0,0
57848,-90.9090909090909,4,2,2,100,0,0
58877,-90.9090909090909,4,2,1,100,0,0
59024,-90.9090909090909,4,2,2,100,0,0
60054,-90.9090909090909,4,2,1,100,0,0
60201,-90.9090909090909,4,2,2,100,0,0
61230,-90.9090909090909,4,2,1,100,0,0
61377,-90.9090909090909,4,2,2,100,0,0
61671,-90.9090909090909,4,2,1,100,0,0
61966,-90.9090909090909,4,2,2,100,0,0
62407,-90.9090909090909,4,2,1,100,0,0
62554,-90.9090909090909,4,2,2,100,0,0
63583,-90.9090909090909,4,2,1,100,0,0
63730,-90.9090909090909,4,2,2,100,0,0
64760,-90.9090909090909,4,2,1,100,0,0
64907,-90.9090909090909,4,2,2,100,0,0
65936,-90.9090909090909,4,2,1,100,0,0
66083,-90.9090909090909,4,2,2,100,0,0
66377,-90.9090909090909,4,2,1,100,0,0
66671,-90.9090909090909,4,2,2,100,0,0
67554,-90.9090909090909,4,2,1,100,0,0
67848,-90.9090909090909,4,2,2,100,0,0
68730,-90.9090909090909,4,2,1,100,0,0
69024,-90.9090909090909,4,2,2,100,0,0
69907,-90.9090909090909,4,2,3,100,0,0
70789,-90.9090909090909,4,2,2,100,0,0
71230,-90.9090909090909,4,2,1,100,0,0
73730,-90.9090909090909,4,2,2,60,0,0
74612,-100,4,2,2,60,0,0
75789,-100,4,2,1,80,0,0
76083,-100,4,2,2,80,0,0
76524,-100,4,2,1,80,0,0
76671,-100,4,2,2,80,0,0
77701,-100,4,2,1,80,0,0
77848,-100,4,2,2,80,0,0
78877,-100,4,2,1,80,0,0
79024,-100,4,2,2,80,0,0
80054,-100,4,2,1,80,0,0
80201,-100,4,2,2,80,0,0
81230,-100,4,2,1,80,0,0
81377,-100,4,2,2,80,0,0
82407,-100,4,2,1,80,0,0
82554,-100,4,2,2,80,0,0
83583,-100,4,2,1,80,0,0
83877,303.030303030303,4,2,1,80,1,0
84028,303.030303030303,4,2,1,80,1,0

[Colours]
Combo1 : 176,199,50
Combo2 : 201,201,90
Combo3 : 167,84,84
Combo4 : 193,132,70

[HitObjects]
263,370,495,5,4,1:2:0:0:
263,370,568,1,0,0:0:0:0:
263,370,642,1,0,3:3:0:0:
340,338,789,2,2,P|340:309|346:124,1,200,0|0,3:3|3:3,0:1:0:0:
288,44,4612,5,0,3:3:0:0:
370,32,4759,1,0,3:3:0:0:
363,117,4906,2,2,P|360:142|358:168,1,50,0|0,3:3|3:3,3:1:0:0:
445,137,5200,1,0,3:3:0:0:
204,190,6965,6,0,P|198:163|202:137,1,50,0|0,3:3|3:3,0:0:0:0:
204,190,7259,2,0,P|175:188|145:191,1,50,0|0,3:3|3:3,0:0:0:0:
256,192,7553,12,2,9318,2:2:0:0:
256,192,9906,5,4,1:2:0:0:
345,285,10200,2,0,P|344:311|344:338,1,50,8|0,3:2|0:0,0:0:0:0:
413,231,10495,2,0,P|439:235|514:235,1,100,0|8,1:1|3:2,0:0:0:0:
415,147,10936,1,0,0:0:0:0:
337,107,11083,2,0,P|327:141|327:162,1,50,0|0,1:1|0:0,0:0:0:0:
412,62,11377,2,0,P|436:53|460:42,1,50,8|0,3:2|0:0,0:0:0:0:
355,0,11671,1,0,1:1:0:0:
212,98,11965,1,8,3:2:0:0:
44,99,12259,6,0,P|36:60|34:-12,1,100,0|8,1:1|3:2,0:0:0:0:
128,90,12700,1,0,0:0:0:0:
148,175,12847,2,0,P|99:180|41:191,1,100,0|8,1:1|3:2,0:0:0:0:
156,262,13289,1,0,0:0:0:0:
229,210,13436,1,0,1:1:0:0:
301,358,13730,1,8,3:2:0:0:
453,289,14024,1,0,1:1:0:0:
301,358,14318,2,2,P|256:343|190:349,1,100,8|0,3:2|1:0,1:1:0:0:
11,231,14906,6,0,P|9:191|9:160,1,50,8|0,3:2|0:0,0:0:0:0:
99,268,15200,2,0,P|136:265|203:260,1,100,0|8,1:1|3:2,0:0:0:0:
97,359,15642,1,0,0:0:0:0:
20,313,15789,2,0,P|14:282|9:258,1,50,0|0,1:1|0:0,0:0:0:0:
99,268,16083,2,0,P|138:278|153:282,1,50,8|0,3:2|0:0,0:0:0:0:
210,213,16377,2,0,P|226:178|187:74,1,150,0|0,1:1|0:0,0:0:0:0:
109,89,16965,1,0,1:1:0:0:
109,89,17406,5,0,0:0:0:0:
27,73,17553,1,0,1:1:0:0:
27,73,17995,5,0,1:1:0:0:
89,8,18142,2,0,P|120:7|150:6,1,50,0|0,1:1|1:1,0:0:0:0:
194,84,18436,2,0,L|181:108,2,25,8|0|0,3:2|1:1|1:1,0:0:0:0:
232,9,18730,2,0,P|263:12|287:15,1,50,4|2,1:2|1:3,0:0:0:0:
296,116,19024,2,0,P|325:88|379:39,1,100,8|4,2:2|1:2,0:0:0:0:
369,47,19612,6,0,P|354:72|350:101,1,50,8|0,3:2|0:0,0:0:0:0:
389,164,19906,1,0,1:1:0:0:
471,132,20053,2,0,P|485:113|490:83,1,50,0|8,1:1|3:2,0:0:0:0:
427,28,20347,2,0,P|381:41|350:98,1,100,0|0,1:1|0:0,0:0:0:0:
376,163,20789,1,8,3:2:0:0:
463,163,20936,2,0,P|490:140|502:67,1,100,0|0,1:1|1:1,0:0:0:0:
440,21,21377,1,8,3:2:0:0:
360,51,21524,1,0,0:0:0:0:
369,175,21818,1,0,0:0:0:0:
502,197,22112,1,0,0:0:0:0:
465,278,22259,6,0,P|470:303|476:330,1,50,0|0,1:1|1:1,0:0:0:0:
407,373,22553,2,0,L|295:351,1,100,8|4,3:2|1:2,0:0:0:0:
308,353,23142,5,8,3:2:0:0:
358,283,23289,2,0,P|379:238|365:191,1,100,4|4,1:2|1:2,0:0:0:0:
268,185,23730,2,0,P|283:209|292:237,1,50,8|0,3:2|0:0,0:0:0:0:
245,301,24024,1,4,1:2:0:0:
10,303,24318,6,0,P|10:273|22:247,1,50,8|0,3:2|0:0,0:0:0:0:
94,217,24612,1,0,1:1:0:0:
147,281,24759,2,0,P|148:304|137:332,1,50,0|8,1:1|3:2,0:0:0:0:
57,348,25053,2,0,P|21:327|6:263,1,100
53,203,25495,1,8,3:2:0:0:
134,231,25642,2,0,P|149:253|133:328,1,100,0|0,0:0|1:1,0:0:0:0:
65,360,26083,1,8,3:2:0:0:
7,298,26230,2,0,P|8:276|53:208,1,100
136,224,26671,1,8,3:2:0:0:
157,316,26818,2,0,P|131:343|62:355,1,100,0|0,0:0|1:1,0:0:0:0:
5,302,27259,1,8,3:2:0:0:
40,222,27406,1,4,1:2:0:0:
175,189,27700,5,4,1:2:0:0:
307,241,27995,5,4,1:2:0:0:
425,197,28289,5,4,1:2:0:0:
307,241,28583,5,8,2:2:0:0:
291,155,28730,1,4,1:2:0:0:
218,210,28877,1,0,0:0:0:0:
320,123,29171,5,0,0:0:0:0:
304,37,29318,1,0,1:1:0:0:
231,92,29465,1,0,1:1:0:0:
67,169,29759,6,0,P|56:136|71:73,1,100,0|0,0:0|1:1,0:0:0:0:
151,42,30200,2,0,P|176:35|204:28,1,50,8|0,3:2|0:0,0:0:0:0:
147,125,30495,1,0,1:1:0:0:
71,74,30642,2,0,P|65:45|60:21,1,50,0|8,1:1|3:2,0:0:0:0:
150,3,30936,6,0,P|157:38|169:106,1,100,8|0,3:2|0:0,0:0:0:0:
237,162,31377,2,0,P|271:167|296:171,1,50,8|0,3:2|0:0,0:0:0:0:
247,81,31671,1,0,1:1:0:0:
168,101,31818,2,0,P|142:114|123:122,1,50,0|8,1:1|3:2,0:0:0:0:
68,202,32112,6,0,B|38:274|38:274|112:286,1,150,0|8,0:0|3:2,0:0:0:0:
154,210,32700,1,8,3:2:0:0:
258,243,32847,2,0,B|228:171|228:171|302:159,1,150,0|8,1:1|3:2,0:0:0:0:
346,234,33436,1,0,1:1:0:0:
346,234,34024,6,0,P|344:268|343:294,1,50,0|0,1:1|1:1,0:0:0:0:
398,348,34318,2,0,P|421:341|448:334,1,50,8|0,3:2|1:1,0:0:0:0:
477,256,34612,1,0,1:1:0:0:
460,122,34906,1,12,3:2:0:0:
318,150,35200,1,0,1:1:0:0:
376,285,35495,1,12,3:2:0:0:
400,196,35789,2,0,P|325:184|183:167,1,200,0|0,1:1|1:1,0:0:0:0:
201,168,36818,2,0,P|197:122|192:64,1,100,8|8,3:2|3:2,0:0:0:0:
269,21,37259,2,0,P|273:47|276:76,1,50,8|0,3:2|1:1,0:0:0:0:
358,89,37553,1,0,1:1:0:0:
361,117,37700,1,0,1:1:0:0:
364,142,37847,1,8,3:2:0:0:
367,170,37994,1,0,0:0:0:0:
451,197,38142,5,4,1:2:0:0:
61,187,38730,1,4,1:2:0:0:
293,229,39318,2,0,P|300:193|304:171,1,50,12|8,1:3|2:3,0:0:0:0:
219,155,39612,2,0,P|212:191|208:213,1,50,12|8,1:2|2:3,0:0:0:0:
152,267,39906,1,12,1:3:0:0:
360,117,40200,1,12,1:2:0:0:
55,199,40495,5,4,1:2:0:0:
457,185,41083,1,4,1:2:0:0:
219,229,41671,2,0,P|212:193|208:171,1,50,12|8,1:3|2:3,0:0:0:0:
293,155,41965,2,0,P|300:191|304:213,1,50,12|8,1:2|2:3,0:0:0:0:
360,267,42259,1,12,1:3:0:0:
152,117,42553,1,12,1:2:0:0:
472,196,42847,5,4,1:2:0:0:
40,188,43436,1,4,1:2:0:0:
293,229,44024,2,0,P|300:193|304:171,1,50,12|8,1:3|2:3,0:0:0:0:
219,155,44318,2,0,P|212:191|208:213,1,50,12|8,1:2|2:3,0:0:0:0:
309,200,44612,2,0,P|305:170|302:144,1,50,12|8,1:3|2:3,0:0:0:0:
203,184,44906,2,0,P|207:214|210:240,1,50,12|8,1:2|2:3,0:0:0:0:
258,309,45200,6,0,P|285:307|417:310,1,150,4|0,1:2|0:0,0:0:0:0:
407,309,45789,2,0,P|409:340|409:364,1,50,2|0,1:3|1:3,0:0:0:0:
258,309,46230,1,8,3:2:0:0:
169,272,46377,2,0,P|173:303|175:329,1,50,12|8,1:3|2:3,0:0:0:0:
94,355,46671,2,0,P|90:324|88:298,1,50,12|8,1:2|2:3,0:0:0:0:
25,246,46965,1,12,1:3:0:0:
105,216,47112,2,0,P|116:188|124:160,2,50,8|12|8,2:3|1:2|2:3,0:0:0:0:
159,280,47553,6,0,P|184:260|228:215,1,80,12|12,1:3|1:2,0:0:0:0:
203,372,48142,2,0,P|242:358|275:340,1,80,12|12,1:3|1:2,0:0:0:0:
398,142,48730,6,0,P|351:163|292:178,1,100,8|8,2:2|2:2,0:0:0:0:
463,227,49318,2,0,P|426:262|375:297,1,100,8|2,2:2|0:0,0:0:0:0:
463,227,52259,6,0,P|461:191|459:158,1,55.0000016784668,4|0,1:2|0:0,0:0:0:0:
376,168,52553,2,0,P|374:140|372:113,1,55.0000016784668,8|0,3:2|0:0,0:0:0:0:
276,131,52847,1,0,1:1:0:0:
309,53,52995,2,0,P|321:27|333:2,1,55.0000016784668,0|8,1:1|3:2,0:0:0:0:
372,113,53289,2,0,P|400:120|429:129,1,55.0000016784668,0|0,0:0|1:1,0:0:0:0:
495,79,53583,2,0,P|483:48|413:14,1,110.000003356934,0|0,1:1|0:0,0:0:0:0:
333,46,54024,1,0,1:1:0:0:
251,9,54171,1,0,1:1:0:0:
254,98,54318,1,8,3:2:0:0:
88,116,54612,5,0,1:1:0:0:
165,64,54759,1,0,0:0:0:0:
176,155,54906,2,0,P|174:199|173:267,1,110.000003356934,8|0,3:2|1:1,0:0:0:0:
90,301,55347,2,0,P|60:310|32:318,1,55.0000016784668,0|8,1:1|3:2,0:0:0:0:
84,211,55642,2,0,P|91:180|97:152,1,55.0000016784668,0|0,0:0|1:1,0:0:0:0:
165,245,55936,2,0,P|206:253|296:272,1,110.000003356934,0|0,1:1|0:0,0:0:0:0:
321,340,56377,2,0,L|304:373,2,27.5000008392334,0|0|0,1:1|1:1|1:1,0:0:0:0:
406,332,56671,1,8,3:2:0:0:
216,369,56965,5,0,1:1:0:0:
133,373,57112,1,0,0:0:0:0:
78,309,57259,1,8,3:2:0:0:
152,177,57553,2,0,P|158:147|163:111,1,55.0000016784668,0|0,1:1|1:1,0:0:0:0:
68,175,57847,2,0,P|62:206|57:236,1,55.0000016784668,8|0,3:2|0:0,0:0:0:0:
148,261,58142,2,0,P|180:259|258:254,1,110.000003356934,0|8,1:1|3:2,0:0:0:0:
319,192,58583,1,0,0:0:0:0:
253,140,58730,1,0,1:1:0:0:
71,154,59024,6,0,P|37:121|73:13,1,165.000005035401,8|0,3:2|0:0,0:0:0:0:
157,7,59612,2,0,P|179:25|195:54,1,55.0000016784668,8|0,3:2|0:0,0:0:0:0:
163,132,59906,1,0,1:1:0:0:
83,93,60053,2,0,P|73:53|81:24,1,55.0000016784668,0|8,1:1|3:2,0:0:0:0:
151,0,60347,1,0,0:0:0:0:
218,56,60495,1,0,1:1:0:0:
166,223,60789,1,8,3:2:0:0:
3,134,61083,2,0,L|0:101,2,27.5000008392334,0|0|0,1:1|1:1|1:1,0:0:0:0:
85,73,61377,2,0,P|92:111|96:141,1,55.0000016784668,8|8,3:2|3:2,0:0:0:0:
190,182,61671,6,0,P|197:149|204:119,1,55.0000016784668,4|0,1:2|0:0,0:0:0:0:
295,125,61965,2,0,P|303:92|310:68,1,55.0000016784668,8|0,3:2|0:0,0:0:0:0:
375,170,62259,1,0,1:1:0:0:
321,237,62406,2,0,P|280:228|251:221,1,55.0000016784668,0|8,1:1|3:2,0:0:0:0:
199,275,62700,2,0,P|187:302|175:328,1,55.0000016784668,0|0,0:0|1:1,0:0:0:0:
256,370,62995,2,0,P|289:367|350:309,1,110.000003356934,0|0,1:0|0:0,0:0:0:0:
301,245,63436,2,0,P|314:214|325:186,1,55.0000016784668,0|0,1:1|1:1,0:0:0:0:
218,223,63730,2,0,P|182:217|155:213,1,55.0000016784668,8|0,3:2|0:0,0:0:0:0:
209,307,64024,1,0,1:1:0:0:
412,302,64318,6,0,P|409:252|404:180,1,110.000003356934,8|0,3:2|1:1,0:0:0:0:
331,134,64759,2,0,P|304:128|267:121,1,55.0000016784668,0|8,1:1|3:2,0:0:0:0:
216,201,65053,2,0,P|243:207|280:214,1,55.0000016784668,0|0,0:0|1:1,0:0:0:0:
183,113,65347,1,0,1:0:0:0:
122,198,65495,2,0,P|127:233|132:274,1,55.0000016784668,8|0,3:2|0:0,0:0:0:0:
203,330,65789,1,0,1:1:0:0:
286,309,65936,1,0,1:1:0:0:
229,244,66083,1,8,3:2:0:0:
41,226,66377,1,4,1:2:0:0:
0,384,66671,5,8,1:2:0:0:
169,384,66965,1,8,1:2:0:0:
342,383,67259,1,8,1:2:0:0:
512,384,67553,1,4,1:2:0:0:
342,383,67847,1,8,1:2:0:0:
169,384,68141,1,8,1:2:0:0:
0,384,68435,1,8,1:2:0:0:
0,0,69024,1,8,1:2:0:0:
169,0,69318,1,8,1:2:0:0:
342,1,69612,1,8,1:2:0:0:
512,0,69906,1,12,1:2:0:0:
342,1,70200,1,8,1:2:0:0:
169,0,70494,1,8,1:2:0:0:
0,0,70788,1,8,2:2:0:0:
141,174,71377,6,0,P|140:136|139:116,1,55.0000016784668,4|0,1:2|1:1,0:0:0:0:
240,145,71671,2,0,P|241:172|241:199,1,55.0000016784668,4|0,1:2|1:1,0:0:0:0:
127,157,71965,2,0,P|123:127|119:97,1,55.0000016784668,4|0,1:2|1:1,0:0:0:0:
256,159,72259,2,0,P|259:187|262:214,1,55.0000016784668,4|0,1:2|1:1,0:0:0:0:
113,138,72553,2,0,P|104:108|96:81,1,55.0000016784668,4|0,1:2|1:1,0:0:0:0:
271,174,72847,2,0,P|279:201|286:229,1,55.0000016784668,4|0,1:2|1:1,0:0:0:0:
96,129,73142,2,0,P|81:100|67:73,1,55.0000016784668,4|0,1:2|1:1,0:0:0:0:
0,123,73436,1,0,3:3:0:0:
329,348,74612,2,0,P|384:347|452:143,1,300,4|0,2:2|0:0,0:0:0:0:
351,45,75789,5,4,1:2:0:0:
280,122,76083,2,0,P|275:96|271:69,1,50,8|0,3:2|0:0,0:0:0:0:
364,129,76377,2,0,P|398:125|473:118,1,100,0|8,1:1|3:2,0:0:0:0:
340,217,76818,1,0,0:0:0:0:
278,147,76965,2,0,P|269:122|257:95,1,50,0|0,1:1|1:1,0:0:0:0:
367,138,77259,2,0,P|397:141|423:145,1,50,8|0,3:2|0:0,0:0:0:0:
478,211,77553,1,0,1:1:0:0:
439,356,77847,1,8,3:2:0:0:
271,320,78142,6,0,P|210:325|154:330,1,100,0|8,1:1|3:2,0:0:0:0:
263,236,78583,1,0,0:0:0:0:
343,265,78730,2,0,P|349:298|360:384,1,100,0|8,1:1|3:2,0:0:0:0:
424,247,79171,1,0,0:0:0:0:
367,180,79318,1,0,1:1:0:0:
227,243,79612,1,8,3:2:0:0:
258,56,79906,1,0,1:1:0:0:
227,243,80200,1,8,3:2:0:0:
109,156,80495,1,0,1:0:0:0:
200,2,80789,6,0,P|198:34|194:61,1,50,8|0,3:2|0:0,0:0:0:0:
112,37,81083,2,0,P|76:35|6:30,1,100,0|8,1:1|3:2,0:0:0:0:
0,133,81524,1,0,0:0:0:0:
85,120,81671,2,0,P|121:116|139:114,1,50,0|0,1:1|1:1,0:0:0:0:
185,188,81965,2,0,P|174:213|165:238,1,50,8|0,3:2|0:0,0:0:0:0:
276,236,82259,1,0,1:1:0:0:
247,101,82553,1,8,3:2:0:0:
112,138,82847,1,0,1:1:0:0:
112,138,83289,5,0,0:0:0:0:
106,224,83436,2,0,P|103:254|96:340,1,100,0|8,1:1|3:2,0:0:0:0:
174,358,83877,5,14,1:2:0:0:
17,287,84179,5,10,0:0:0:0:
221,211,84482,5,10,0:0:0:0:
22,123,84785,5,10,0:0:0:0:
