osu file format v14

[General]
AudioFilename: audio.mp3
AudioLeadIn: 0
PreviewTime: 51966
Countdown: 0
SampleSet: Soft
StackLeniency: 0.6
Mode: 0
LetterboxInBreaks: 0
WidescreenStoryboard: 1

[Editor]
Bookmarks: 9906,19612,38142,51965
DistanceSpacing: 0.7
BeatDivisor: 4
GridSize: 4
TimelineZoom: 2

[Metadata]
Title:KICK BACK (TV Size)
TitleUnicode:KICK BACK (TV Size)
Artist:Kenshi Yonezu
ArtistUnicode:米津玄師
Creator:moonpoint
Version:Gaz's Easy
Source:チェンソーマン
Tags:chainsaw man オープニング・テーマ op opening theme short version ver 常田大希 daiki tsuneda King Gnu millenium parade そうだ We're ALIVE つんく japanese anime jpop jrock j-pop j-rock pop rock fsjallink aishiteiru- gaz gazza visionary
BeatmapID:4225509
BeatmapSetID:1933015

[Difficulty]
HPDrainRate:2
CircleSize:2
OverallDifficulty:3
ApproachRate:4.5
SliderMultiplier:0.8
SliderTickRate:1

[Events]
//Background and Video events
0,0,"cropped-1920-1080-1280154.jpg",0,0
//Break Periods
//Storyboard Layer 0 (Background)
//Storyboard Layer 1 (Fail)
//Storyboard Layer 2 (Pass)
//Storyboard Layer 3 (Foreground)
//Storyboard Layer 4 (Overlay)
//Storyboard Sound Samples

[TimingPoints]
495,294.117647058824,4,2,1,80,1,0
10201,-100,4,2,2,80,0,0
10642,-100,4,2,1,80,0,0
10789,-100,4,2,2,80,0,0
11819,-100,4,2,1,80,0,0
11966,-100,4,2,2,80,0,0
12995,-100,4,2,1,80,0,0
13142,-100,4,2,2,80,0,0
14171,-100,4,2,1,80,0,0
14318,-100,4,2,2,80,0,0
15348,-100,4,2,1,80,0,0
15495,-100,4,2,2,80,0,0
16524,-100,4,2,1,80,0,0
16671,-100,4,2,2,80,0,0
17701,-100,4,2,1,80,0,0
17848,-100,4,2,2,80,0,0
18730,-100,4,2,1,80,0,0
19612,-100,4,2,2,80,0,0
20054,-100,4,2,1,80,0,0
20201,-100,4,2,2,80,0,0
21230,-100,4,2,1,80,0,0
21377,-100,4,2,2,80,0,0
22407,-100,4,2,1,80,0,0
22554,-100,4,2,2,80,0,0
22847,-100,4,2,1,80,0,0
23730,-100,4,2,2,80,0,0
24024,-100,4,2,1,80,0,0
24907,-100,4,2,2,80,0,0
25936,-100,4,2,1,80,0,0
26083,-100,4,2,2,80,0,0
27113,-100,4,2,1,80,0,0
27260,-100,4,2,2,80,0,0
27407,-100,4,2,1,80,0,0
29024,-100,4,2,2,80,0,0
29466,-100,4,2,1,80,0,0
29613,-100,4,2,2,80,0,0
30642,-100,4,2,1,80,0,0
30789,-100,4,2,2,80,0,0
31819,-100,4,2,1,80,0,0
31966,-100,4,2,2,80,0,0
32995,-100,4,2,1,80,0,0
33142,-100,4,2,2,80,0,0
34171,-100,4,2,1,80,0,0
34319,-100,4,2,2,80,0,0
34906,-100,4,2,1,80,0,0
35789,-100,4,2,2,80,0,0
36524,-100,4,2,1,80,0,0
36671,-100,4,2,2,80,0,0
37701,-100,4,2,1,80,0,0
37848,-100,4,2,2,80,0,0
38142,-100,4,2,3,80,0,0
38656,-100,4,2,3,5,0,0
38730,-100,4,2,3,80,0,0
39245,-100,4,2,3,5,0,0
39319,-100,4,2,3,80,0,0
39466,-100,4,2,1,80,0,0
39613,-100,4,2,4,80,0,0
39760,-100,4,2,2,80,0,0
39906,-100,4,2,4,80,0,0
40495,-100,4,2,3,80,0,0
41009,-100,4,2,3,5,0,0
41083,-100,4,2,3,80,0,0
41597,-100,4,2,3,5,0,0
41671,-100,4,2,3,80,0,0
41819,-100,4,2,1,80,0,0
41966,-100,4,2,4,80,0,0
42113,-100,4,2,2,80,0,0
42260,-100,4,2,4,80,0,0
42407,-100,4,2,1,80,0,0
42553,-100,4,2,4,80,0,0
42701,-100,4,2,1,80,0,0
42847,-100,4,2,3,80,0,0
43362,-100,4,2,3,5,0,0
43436,-100,4,2,3,80,0,0
43950,-100,4,2,3,5,0,0
44024,-100,4,2,3,80,0,0
44171,-100,4,2,1,80,0,0
44319,-100,4,2,4,80,0,0
44466,-100,4,2,2,80,0,0
44613,-100,4,2,4,80,0,0
44760,-100,4,2,1,80,0,0
44907,-100,4,2,4,80,0,0
45054,-100,4,2,1,80,0,0
45200,-100,4,2,3,80,0,0
46524,-100,4,2,1,80,0,0
46671,-100,4,2,4,80,0,0
46819,-100,4,2,2,80,0,0
46966,-100,4,2,4,80,0,0
47113,-100,4,2,1,80,0,0
47260,-100,4,2,4,80,0,0
47407,-100,4,2,1,80,0,0
47554,-100,4,2,3,80,0,0
47701,-100,4,2,1,80,0,0
47848,-100,4,2,4,80,0,0
47995,-100,4,2,2,80,0,0
48142,-100,4,1,4,80,0,0
48289,-100,4,1,1,80,0,0
48436,-100,4,1,4,80,0,0
48583,-100,4,1,1,80,0,0
49907,-100,4,2,5,80,0,0
52259,-100,4,2,1,100,0,0
52554,-100,4,2,2,100,0,0
52995,-100,4,2,1,100,0,0
53142,-100,4,2,2,100,0,0
54171,-100,4,2,1,100,0,0
54319,-100,4,2,2,100,0,0
55348,-100,4,2,1,100,0,0
55495,-100,4,2,2,100,0,0
56524,-100,4,2,1,100,0,0
56671,-100,4,2,2,100,0,0
57701,-100,4,2,1,100,0,0
57848,-100,4,2,2,100,0,0
58877,-100,4,2,1,100,0,0
59024,-100,4,2,2,100,0,0
60054,-100,4,2,1,100,0,0
60201,-100,4,2,2,100,0,0
61230,-100,4,2,1,100,0,0
61377,-100,4,2,2,100,0,0
61671,-100,4,2,1,100,0,0
61966,-100,4,2,2,100,0,0
62407,-100,4,2,1,100,0,0
62554,-100,4,2,2,100,0,0
63583,-100,4,2,1,100,0,0
63730,-100,4,2,2,100,0,0
64760,-100,4,2,1,100,0,0
64907,-100,4,2,2,100,0,0
65936,-100,4,2,1,100,0,0
66083,-100,4,2,2,100,0,0
66377,-100,4,2,1,100,0,0
66671,-100,4,2,2,100,0,0
67554,-100,4,2,1,100,0,0
67848,-100,4,2,2,100,0,0
68730,-100,4,2,1,100,0,0
69024,-100,4,2,2,100,0,0
69906,-100,4,2,3,100,0,0
70789,-100,4,2,2,100,0,0
71230,-100,4,2,1,100,0,0
73730,-100,4,2,2,60,0,0
75789,-100,4,2,1,80,0,0
76083,-100,4,2,2,80,0,0
76524,-100,4,2,1,80,0,0
76671,-100,4,2,2,80,0,0
77701,-100,4,2,1,80,0,0
77848,-100,4,2,2,80,0,0
78877,-100,4,2,1,80,0,0
79024,-100,4,2,2,80,0,0
80054,-100,4,2,1,80,0,0
80201,-100,4,2,2,80,0,0
81230,-100,4,2,1,80,0,0
81377,-100,4,2,2,80,0,0
82407,-100,4,2,1,80,0,0
82554,-100,4,2,2,80,0,0
83583,-100,4,2,1,80,0,0
83877,303.030303030303,4,2,1,80,1,0
84028,303.030303030303,4,2,1,80,1,0
84103,-100,4,2,3,5,0,0
84179,-100,4,2,1,80,0,0
84406,-100,4,2,3,5,0,0
84482,-100,4,2,1,80,0,0
84709,-100,4,2,3,5,0,0
84785,-100,4,2,1,80,0,0

[Colours]
Combo1 : 176,199,50
Combo2 : 201,201,90
Combo3 : 167,84,84
Combo4 : 193,132,70

[HitObjects]
461,296,9906,6,0,B|417:286|388:305|393:311|366:340|311:331,1,160,4|0,1:2|1:1,0:0:0:0:
140,377,11083,1,0,1:1:0:0:
83,309,11377,1,8,3:2:0:0:
139,241,11671,1,0,1:1:0:0:
86,70,12259,6,0,P|153:106|225:76,1,160,0|0,1:1|1:1,0:0:0:0:
390,138,13436,2,0,L|469:144,2,80,0|8|0,1:1|3:2|1:1,0:0:0:0:
242,236,14612,6,0,P|232:148|225:60,1,160,0|0,1:0|1:1,0:0:0:0:
59,22,15789,1,0,1:1:0:0:
68,109,16083,1,8,3:2:0:0:
79,196,16377,2,0,P|89:284|96:372,1,160,0|0,1:1|1:1,0:0:0:0:
256,288,17553,5,0,1:1:0:0:
418,355,18142,1,0,1:1:0:0:
426,267,18436,1,8,3:2:0:0:
435,179,18730,2,0,L|443:92,1,80,4|10,1:2|0:0,0:0:0:0:
282,26,19612,6,0,P|250:75|249:135,1,120,8|0,3:2|1:1,0:0:0:0:
211,214,20347,2,0,B|254:199|287:214|281:227|315:250|363:231,1,160,0|0,1:1|1:1,0:0:0:0:
449,213,21230,1,0,1:1:0:0:
494,288,21524,1,0,0:0:0:0:
432,350,21818,1,0,0:0:0:0:
344,355,22112,6,0,B|278:341|293:372|224:361,1,120,0|8,0:0|3:2,0:0:0:0:
140,340,22847,2,0,L|136:261,1,80,4|8,1:2|3:2,0:0:0:0:
63,209,23436,1,0,0:0:0:0:
49,33,24024,1,4,1:2:0:0:
136,20,24318,5,8,3:2:0:0:
224,8,24612,2,0,P|266:47|325:47,1,120,0|0,1:1|0:0,0:0:0:0:
408,16,25347,2,0,P|478:46|488:121,1,160,0|0,0:0|1:1,0:0:0:0:
432,189,26230,2,0,B|388:173|355:198|359:206|329:231|281:220,2,160,0|0|4,0:0|0:0|1:2,0:0:0:0:
508,296,27847,1,8,3:2:0:0:
467,374,28142,1,0,1:1:0:0:
292,353,28730,6,0,P|252:358|212:357,1,80,6|0,1:2|0:0,0:0:0:0:
131,323,29318,1,2,1:3:0:0:
160,194,29759,2,0,P|174:137|158:80,1,120,0|8,0:0|3:2,0:0:0:0:
83,32,30495,1,0,1:1:0:0:
11,83,30789,1,8,3:2:0:0:
18,172,31083,6,0,P|24:209|25:254,1,80,0|8,1:1|3:2,0:0:0:0:
104,290,31671,2,0,P|104:329|111:369,2,80,0|8|0,1:1|3:2|0:0,0:0:0:0:
183,133,32847,1,0,1:1:0:0:
271,125,33142,1,8,3:2:0:0:
358,115,33436,1,0,1:1:0:0:
455,261,34024,5,0,1:1:0:0:
367,269,34319,1,8,3:2:0:0:
279,273,34612,2,0,P|284:316|288:365,2,80,0|12|0,1:1|3:2|1:1,0:0:0:0:
266,185,35495,1,12,3:2:0:0:
137,63,36083,6,0,P|199:17|286:11,1,160,8|8,3:2|3:2,0:0:0:0:
355,53,36965,2,0,P|360:92|383:124,1,80,0|8,1:1|3:2,0:0:0:0:
456,173,37553,1,0,1:1:0:0:
370,326,38142,5,4,1:2:0:0:
256,192,38730,1,4,1:2:0:0:
142,326,39318,1,12,1:3:0:0:
142,326,40495,5,4,1:2:0:0:
256,192,41083,1,4,1:2:0:0:
370,326,41671,1,12,1:3:0:0:
370,326,42847,5,4,1:2:0:0:
256,192,43436,1,4,1:2:0:0:
142,58,44024,1,12,1:3:0:0:
142,57,45200,6,0,P|181:63|214:85,1,80,4|0,1:2|0:0,0:0:0:0:
256,164,45789,2,0,L|256:244,1,80,2|0,1:3|0:0,0:0:0:0:
256,332,46377,1,12,1:3:0:0:
91,269,46965,1,12,1:3:0:0:
27,105,47553,6,0,B|59:111|92:96|92:96|112:68|112:68|136:54|168:51,1,160,12|12,1:3|1:3,0:0:0:0:
344,51,48730,2,0,B|376:54|400:68|400:68|420:96|420:96|453:111|485:105,1,160,12|12,1:3|1:3,0:0:0:0:
256,192,51965,5,2,0:0:0:0:
314,257,52259,2,0,P|349:275|388:269,1,80,6|8,1:2|3:2,0:0:0:0:
473,248,52847,2,0,L|477:200,1,40,0|0,1:1|1:1,0:0:0:0:
483,120,53289,1,0,0:0:0:0:
418,59,53583,2,0,B|381:47|358:54|363:65|336:74|300:65,1,120,0|0,1:1|1:1,0:0:0:0:
218,34,54318,5,8,3:2:0:0:
165,104,54612,2,0,L|174:199,1,80,0|8,1:1|3:2,0:0:0:0:
243,236,55200,2,0,L|238:299,1,40,0|0,1:1|1:1,0:0:0:0:
231,363,55642,1,0,0:0:0:0:
143,369,55936,2,0,P|84:371|38:334,1,120,0|0,1:1|1:1,0:0:0:0:
25,247,56671,1,8,3:2:0:0:
96,196,56965,6,0,L|145:226,2,40,0|0|8,1:1|0:0|3:2,0:0:0:0:
39,128,57553,2,0,P|40:88|60:54,1,80,0|8,1:1|3:2,0:0:0:0:
140,17,58142,2,0,B|186:1|221:25|212:36|245:56|292:41,1,160,0|0,1:1|1:1,0:0:0:0:
376,20,59024,2,0,P|433:57|418:155,1,160,8|8,3:2|3:2,0:0:0:0:
366,203,59906,1,0,1:1:0:0:
413,277,60200,1,8,3:2:0:0:
345,334,60495,2,0,L|249:342,1,80,0|8,1:1|3:2,0:0:0:0:
177,345,61083,1,0,1:1:0:0:
54,219,61671,6,0,P|69:182|65:143,1,80,4|8,1:2|3:2,0:0:0:0:
55,55,62259,2,0,L|118:49,1,40,0|0,1:1|1:1,0:0:0:0:
182,45,62700,1,0,0:0:0:0:
222,123,62995,2,0,P|221:181|258:228,1,120,0|0,1:0|1:1,0:0:0:0:
339,262,63730,1,8,3:2:0:0:
401,200,64024,2,0,P|440:195|476:212,1,80,0|8,1:1|3:2,0:0:0:0:
507,293,64612,6,0,L|503:360,1,40,0|0,1:1|1:1,0:0:0:0:
428,376,65053,2,0,P|371:358|312:365,1,120,0|8,0:0|3:2,0:0:0:0:
223,360,65789,2,0,L|219:293,1,40,0|0,1:1|1:1,0:0:0:0:
4,279,66671,5,8,1:2:0:0:
7,191,66965,1,8,1:2:0:0:
87,155,67259,1,8,1:2:0:0:
157,208,67553,2,0,P|195:202|224:174,1,80,4|8,1:2|1:2,0:0:0:0:
256,92,68142,1,0,0:0:0:0:
256,4,68436,1,0,0:0:0:0:
431,7,69024,5,8,1:2:0:0:
409,92,69318,1,8,1:2:0:0:
485,135,69612,1,8,1:2:0:0:
463,220,69906,2,0,P|429:241|409:279,1,80,12|8,1:2|1:2,0:0:0:0:
395,362,70495,1,0,0:0:0:0:
309,382,70789,1,0,0:0:0:0:
164,283,71377,5,4,1:2:0:0:
141,197,71671,1,4,1:2:0:0:
172,115,71965,1,4,1:2:0:0:
256,80,72259,1,4,1:2:0:0:
340,115,72553,1,4,1:2:0:0:
371,197,72847,1,4,1:2:0:0:
348,283,73142,1,4,1:2:0:0:
256,344,74612,6,0,B|280:272|280:272|232:200|232:200|256:112,1,240,4|0,2:2|0:0,0:0:0:0:
273,39,75789,6,0,B|229:29|197:48|201:54|178:83|123:74,1,160,4|0,1:2|1:1,0:0:0:0:
10,209,76965,1,0,1:1:0:0:
17,295,77259,1,8,3:2:0:0:
25,382,77553,1,0,1:1:0:0:
199,357,78142,6,0,P|247:297|324:294,1,160,0|0,1:1|1:1,0:0:0:0:
431,154,79318,2,0,L|518:161,2,80,0|8|0,1:1|3:2|1:1,0:0:0:0:
285,53,80495,6,0,P|258:127|262:206,1,160,0|0,1:0|1:1,0:0:0:0:
343,362,81671,1,0,1:1:0:0:
256,381,81965,1,8,3:2:0:0:
169,362,82259,1,0,1:1:0:0:
25,259,82847,6,0,B|15:215|34:186|40:191|69:164|60:109,1,160,0|0,1:1|1:1,0:0:0:0:
148,15,83877,6,2,L|235:22,1,80,14|10,1:2|0:0,0:0:0:0:
315,29,84482,1,10,0:0:0:0:
402,34,84785,1,10,0:0:0:0:
