osu file format v14

[General]
AudioFilename: audio.mp3
AudioLeadIn: 0
PreviewTime: 51966
Countdown: 0
SampleSet: Soft
StackLeniency: 0.7
Mode: 0
LetterboxInBreaks: 0
WidescreenStoryboard: 1

[Editor]
DistanceSpacing: 0.8
BeatDivisor: 4
GridSize: 32
TimelineZoom: 2.2

[Metadata]
Title:KICK BACK (TV Size)
TitleUnicode:KICK BACK (TV Size)
Artist:Kenshi Yonezu
ArtistUnicode:米津玄師
Creator:VINXIS
Version:winber's Homeless Extra
Source:チェンソーマン
Tags:chainsaw man オープニング・テーマ op opening theme short version ver 常田大希 daiki tsuneda King Gnu millenium parade そうだ We're ALIVE つんく captin1 winber1 skystar amamiya yuko amamiyayuko uberfazz anxient scubdomino japanese anime girl [keqing] mishima yurara jpop jrock j-pop j-rock pop rock visionary
BeatmapID:3872274
BeatmapSetID:1864478

[Difficulty]
HPDrainRate:7
CircleSize:4.2
OverallDifficulty:8.5
ApproachRate:9.6
SliderMultiplier:1.4
SliderTickRate:1

[Events]
//Background and Video events
0,0,"7fT3AUc.png",0,0
Video,-90,"output.mp4"
//Break Periods
//Storyboard Layer 0 (Background)
//Storyboard Layer 1 (Fail)
//Storyboard Layer 2 (Pass)
//Storyboard Layer 3 (Foreground)
//Storyboard Layer 4 (Overlay)
//Storyboard Sound Samples

[TimingPoints]
495,294.117647058824,4,2,1,80,1,0
936,-133.333333333333,4,2,1,80,0,0
5642,-117.647058823529,4,2,1,80,0,0
7995,-105.263157894737,4,2,1,80,0,0
9760,-105.263157894737,4,2,2,80,0,0
9907,-66.6666666666667,4,2,1,80,0,0
19319,-66.6666666666667,4,2,2,80,0,0
19613,-100,4,2,1,80,0,0
23289,-86.9565217391304,4,2,1,80,0,0
24318,-100,4,2,1,80,0,0
27848,-100,4,2,2,80,0,0
27995,-100,4,2,1,80,0,0
28142,-100,4,2,2,80,0,0
28289,-200,4,2,2,80,0,0
28730,-200,4,2,1,80,0,0
28877,-100,4,2,1,80,0,0
29465,-76.9230769230769,4,2,1,80,0,0
29760,-66.6666666666667,4,2,1,80,0,0
31671,-76.9230769230769,4,2,1,80,0,0
35201,-100,4,2,1,80,0,0
37995,-100,4,2,2,80,0,0
38142,-100,4,2,1,80,0,0
38730,-100,4,2,3,80,0,0
38877,-100,4,2,1,80,0,0
39319,-100,4,2,3,80,0,0
39613,-100,4,2,2,80,0,0
39907,-100,4,2,1,80,0,0
41083,-100,4,2,3,80,0,0
41377,-100,4,2,1,80,0,0
41672,-100,4,2,3,80,0,0
41966,-100,4,2,2,80,0,0
42260,-100,4,2,1,80,0,0
42407,-100,4,2,2,80,0,0
42848,-100,4,2,1,80,0,0
43436,-100,4,2,3,80,0,0
43730,-100,4,2,1,80,0,0
44024,-100,4,2,3,80,0,0
44319,-100,4,2,2,80,0,0
44613,-100,4,2,1,80,0,0
44760,-100,4,2,2,80,0,0
45789,-100,4,2,1,80,0,0
47407,-100,4,2,2,80,0,0
47554,-100,4,2,1,80,0,0
48142,-100,4,1,1,80,0,0
48828,-100,4,2,2,80,0,0
49024,-100,4,2,1,80,0,0
49123,-100,4,2,2,80,0,0
49319,-125,4,2,1,80,0,0
51892,-125,4,2,1,5,0,0
51965,-125,4,2,1,80,0,0
52260,-62.5,4,2,1,100,0,0
61230,-62.5,4,2,2,100,0,0
61377,-62.5,4,2,1,100,0,0
70348,-62.5,4,2,2,100,0,0
70642,-62.5,4,2,1,100,0,0
71083,-62.5,4,2,2,100,0,0
71377,-62.5,4,2,1,100,0,0
71524,-62.5,4,2,2,100,0,0
71671,-62.5,4,2,1,100,0,0
71819,-62.5,4,2,2,100,0,0
71966,-62.5,4,2,1,100,0,0
72113,-62.5,4,2,2,100,0,0
72260,-62.5,4,2,1,100,0,0
72407,-62.5,4,2,2,100,0,0
72554,-62.5,4,2,1,100,0,0
72701,-62.5,4,2,2,100,0,0
72848,-62.5,4,2,1,100,0,0
72995,-62.5,4,2,2,100,0,0
73142,-62.5,4,2,1,100,0,0
73289,-62.5,4,2,2,100,0,0
73730,-133.333333333333,4,2,1,60,0,0
74613,-133.333333333333,4,2,2,60,0,0
75789,-66.6666666666667,4,2,1,80,0,0
83877,303.030303030303,4,2,1,80,1,0
83877,-57.1428571428571,4,2,1,80,0,0
84028,303.030303030303,4,2,2,80,1,0
84028,-57.1428571428571,4,2,2,80,0,0
84482,-57.1428571428571,4,2,1,80,0,0
84634,-57.1428571428571,4,2,2,80,0,0
84785,-125,4,2,2,80,0,0

[Colours]
Combo1 : 226,235,175
Combo2 : 234,234,191
Combo3 : 209,163,163
Combo4 : 226,198,169

[HitObjects]
56,330,496,5,4,1:2:0:0:
84,306,789,1,0,0:0:0:0:
84,306,936,2,1,P|89:275|95:238,2,52.5000020027161,0|0|0,0:0|0:0|0:0,0:0:0:0:
114,214,1524,2,1,P|75:242|0:239,1,105.000004005432,0|0,0:0|0:0,0:0:0:0:
133,181,2113,2,1,P|89:161|54:94,1,105.000004005432,0|0,0:0|0:0,0:0:0:0:
71,79,2554,1,0,0:0:0:0:
107,62,2701,1,0,0:0:0:0:
243,143,2848,5,0,0:0:0:0:
275,158,3141,1,0,0:0:0:0:
275,158,3288,2,1,P|270:127|264:90,2,52.5000020027161,0|0|0,0:0|0:0|0:0,0:0:0:0:
295,75,3876,2,1,P|334:103|409:100,1,105.000004005432,0|0,0:0|0:0,0:0:0:0:
296,32,4466,5,0,0:0:0:0:
399,205,4613,1,0,0:0:0:0:
276,50,4760,1,0,0:0:0:0:
419,187,4907,2,2,L|402:272,1,78.7500030040742,0|0,0:1|0:0,0:1:0:0:
322,308,5201,5,4,1:2:0:0:
256,254,5495,1,0,0:0:0:0:
256,254,5642,2,1,P|251:227|240:195,2,59.5000011348725,0|0|0,0:0|0:0|0:0,0:0:0:0:
330,129,6230,2,1,P|276:125|242:75,1,119.000002269745,0|0,0:0|0:0,0:0:0:0:
483,227,6819,5,0,0:0:0:0:
359,275,6966,1,0,0:0:0:0:
343,195,7113,1,0,0:0:0:0:
439,293,7260,1,0,0:0:0:0:
422,172,7407,1,0,0:0:0:0:
384,349,7554,5,0,0:0:0:0:
406,253,7848,1,0,0:0:0:0:
406,253,7995,2,1,P|368:262|332:271,2,66.4999982242585,0|0|0,0:0|0:0|0:0,0:0:0:0:
216,192,8583,1,0,0:0:0:0:
155,284,8730,5,0,0:0:0:0:
154,307,8804,1,0,0:0:0:0:
163,327,8877,1,0,0:0:0:0:
182,340,8951,1,0,0:0:0:0:
204,344,9024,5,0,0:0:0:0:
309,180,9171,1,0,0:0:0:0:
81,234,9319,1,0,0:0:0:0:
285,286,9466,5,0,0:0:0:0:
333,92,9613,1,0,0:0:0:0:
195,210,9760,1,6,2:2:0:0:
475,307,9907,6,1,B|415:325|415:325|407:335|407:335|314:357,1,157.500006008148,6|0,1:2|0:0,0:0:0:0:
327,353,10201,2,1,P|336:326|333:299,1,52.5000020027161,8|0,2:2|0:0,0:0:0:0:
273,234,10348,5,2,2:2:0:0:
449,291,10495,1,2,2:2:0:0:
177,277,10642,2,1,P|226:230|215:131,1,157.500006008148,0|0,1:1|0:0,0:0:0:0:
206,125,10936,1,2,2:2:0:0:
253,327,11083,5,2,1:2:0:0:
71,190,11230,1,2,2:2:0:0:
11,348,11377,2,1,B|99:332|53:388|163:364,1,157.500006008148,10|0,2:2|0:0,0:0:0:0:
162,364,11671,5,2,2:2:0:0:
155,337,11745,1,8,2:2:0:0:
173,303,11819,1,0,1:1:0:0:
357,357,11966,2,1,P|307:352|240:340,1,105.000004005432,8|2,2:2|2:2,0:0:0:0:
436,128,12260,6,1,P|493:182|474:262,1,157.500006008148,2|0,1:2|0:0,0:0:0:0:
480,253,12554,2,1,P|451:263|429:279,1,52.5000020027161,8|0,2:2|0:0,0:0:0:0:
287,183,12701,1,2,2:2:0:0:
357,357,12848,6,1,B|394:277|350:294|388:204,1,157.500006008148,2|0,2:2|0:0,0:0:0:0:
353,127,13142,2,1,P|404:111|466:97,1,105.000004005432,8|2,2:2|2:2,0:0:0:0:
213,53,13436,5,2,1:2:0:0:
264,242,13583,1,2,2:2:0:0:
116,177,13730,2,1,P|100:128|80:66,1,105.000004005432,10|0,2:2|0:0,0:0:0:0:
270,113,14024,5,2,2:2:0:0:
235,91,14098,1,8,2:2:0:0:
196,94,14171,1,0,1:1:0:0:
60,257,14319,2,1,P|50:310|37:360,1,105.000004005432,8|2,2:2|2:2,0:0:0:0:
19,173,14613,5,2,1:2:0:0:
402,341,14907,2,1,P|395:312|387:280,1,52.5000020027161,8|0,2:2|0:0,0:0:0:0:
440,224,15054,1,2,2:2:0:0:
309,332,15201,2,1,P|268:318|193:294,1,105.000004005432,2|0,2:2|1:1,0:0:0:0:
114,316,15494,1,8,2:2:0:0:
222,107,15642,5,2,2:2:0:0:
344,188,15789,1,2,1:2:0:0:
293,50,15936,1,2,2:2:0:0:
279,241,16083,2,1,B|165:225|230:200|126:186,1,157.500006008148,10|0,2:2|0:0,0:0:0:0:
55,201,16377,5,2,2:2:0:0:
70,238,16451,1,8,2:2:0:0:
63,276,16524,1,0,1:1:0:0:
171,104,16671,1,8,2:2:0:0:
151,274,16819,1,2,2:2:0:0:
69,81,16966,6,1,B|170:61|111:41|216:26,1,157.500006008148,2|0,1:2|0:0,0:0:0:0:
246,45,17260,1,8,2:2:0:0:
133,187,17407,1,2,2:2:0:0:
245,307,17554,6,1,P|171:298|111:354,1,157.500006008148,2|0,2:2|0:0,0:0:0:0:
112,350,17848,2,1,P|115:323|120:279,1,52.5000020027161,8|0,2:2|0:0,0:0:0:0:
232,195,17994,1,2,1:2:0:0:
42,247,18142,6,1,P|34:216|27:178,1,52.5000020027161,2|0,1:2|0:0,0:0:0:0:
188,120,18289,1,2,1:2:0:0:
25,47,18436,2,1,P|104:65|190:82,1,157.500006008148,10|0,2:2|0:0,0:0:0:0:
322,33,18730,5,2,1:2:0:0:
362,13,18804,1,0,0:0:0:0:
407,16,18877,2,1,P|396:40|393:68,1,52.5000020027161,8|8,2:2|2:2,0:0:0:0:
499,169,19024,5,0,0:0:0:0:
459,189,19098,1,0,0:0:0:0:
414,186,19171,2,1,P|425:162|428:134,1,52.5000020027161,8|0,2:2|0:0,0:0:0:0:
339,132,19319,5,4,1:2:0:0:
354,312,19613,2,1,P|305:323|249:345,1,105,10|0,2:2|0:0,0:0:0:0:
221,329,19907,1,2,2:2:0:0:
436,343,20054,2,1,P|476:310|457:265,1,105,2|0,1:2|0:0,0:0:0:0:
379,280,20348,6,1,P|374:242|366:208,1,70,2|0,1:2|1:1,0:0:0:0:
421,138,20642,5,2,2:2:0:0:
333,190,20789,1,10,2:2:0:0:
486,245,20936,2,1,P|493:207|506:159,1,70,2|0,2:2|0:0,0:0:0:0:
224,209,21230,5,2,1:2:0:0:
136,157,21377,1,10,2:2:0:0:
289,102,21524,2,1,P|296:140|309:188,1,70,2|0,2:2|1:1,0:0:0:0:
140,342,21819,2,1,P|147:304|160:256,1,70,2|8,2:2|2:2,0:0:0:0:
40,157,22112,6,1,P|26:67|16:13,1,140,2|0,2:2|1:1,0:0:0:0:
162,177,22554,1,8,2:2:0:0:
56,278,22701,1,0,1:1:0:0:
230,320,22848,5,0,1:1:0:0:
230,320,22995,1,0,0:0:0:0:
123,350,23142,1,8,2:2:0:0:
184,95,23289,6,1,P|234:78|275:134,1,120.750002303124,0|0,1:1|0:0,0:0:0:0:
99,143,23583,2,1,P|49:160|8:104,1,120.750002303124,0|0,1:1|0:0,0:0:0:0:
66,65,23877,1,0,1:1:0:0:
209,174,24024,5,0,1:1:0:0:
452,33,24318,2,1,B|466:94|466:94|462:105|462:105|470:141,1,105,10|0,2:2|0:0,0:0:0:0:
494,158,24613,1,2,2:2:0:0:
322,87,24760,2,1,P|284:128|310:167,1,105,2|0,1:2|0:0,0:0:0:0:
386,153,25054,2,1,P|395:188|403:234,1,70,2|0,2:2|1:1,0:0:0:0:
483,263,25348,5,2,2:2:0:0:
321,251,25495,1,10,2:2:0:0:
432,337,25642,2,1,P|400:344|361:352,1,70,2|0,2:2|0:0,0:0:0:0:
110,193,25936,5,2,1:2:0:0:
272,181,26083,1,10,2:2:0:0:
161,267,26230,2,1,P|193:274|232:282,1,70,2|0,2:2|1:1,0:0:0:0:
74,322,26524,5,2,2:2:0:0:
345,243,26671,1,10,2:2:0:0:
121,161,26819,2,1,P|112:124|106:89,1,70,2|0,2:2|0:0,0:0:0:0:
211,40,27113,2,1,P|202:77|196:112,1,70,2|8,1:2|2:2,0:0:0:0:
196,108,27407,5,2,1:2:0:0:
286,204,27554,2,1,L|272:158,1,35,0|0,1:1|0:0,0:0:0:0:
304,94,27701,5,8,2:2:0:0:
333,105,27774,1,8,2:2:0:0:
351,130,27848,1,4,1:2:0:0:
425,94,27995,5,8,2:2:0:0:
438,122,28068,1,8,2:2:0:0:
433,152,28142,1,4,2:2:0:0:
370,219,28289,6,1,L|382:277,1,52.5,4|0,1:2|0:0,0:0:0:0:
380,270,28583,5,2,2:2:0:0:
297,316,28730,1,6,1:2:0:0:
458,338,28877,2,1,P|464:304|478:249,1,70,2|8,2:2|2:2,0:0:0:0:
106,164,29171,5,2,2:2:0:0:
227,226,29318,1,2,2:2:0:0:
20,262,29465,2,1,P|14:228|-3:166,1,90.9999958343508,2|8,1:2|2:2,0:0:0:0:
368,91,29760,6,1,B|265:71|335:61|218:39,1,157.500006008148,2|0,2:2|0:0,0:0:0:0:
220,39,30054,5,2,1:2:0:0:
237,78,30128,1,0,0:0:0:0:
229,119,30201,1,10,2:2:0:0:
148,87,30348,1,2,2:2:0:0:
421,30,30495,1,2,2:2:0:0:
381,179,30642,2,1,P|430:166|500:151,1,105.000004005432,10|8,2:2|2:2,0:0:0:0:
168,231,30936,6,1,P|245:211|274:277,1,157.500006008148,2|0,2:2|0:0,0:0:0:0:
197,307,31230,1,2,2:2:0:0:
155,193,31378,1,10,2:2:0:0:
96,277,31524,1,2,2:2:0:0:
216,334,31671,6,1,P|171:344|125:360,1,90.9999958343508,2|2,2:2|1:2,0:0:0:0:
20,320,31966,1,10,2:2:0:0:
323,290,32113,2,1,B|436:312|369:336|495:360,1,181.999991668702,2|0,2:2|1:1,0:0:0:0:
283,198,32554,1,8,2:2:0:0:
448,73,32701,5,8,2:2:0:0:
477,103,32774,1,8,2:2:0:0:
475,140,32848,2,1,P|465:165|457:184,1,45.4999979171754,10|8,2:2|2:2,0:0:0:0:
283,198,32995,5,2,1:2:0:0:
244,222,33069,1,0,0:0:0:0:
199,212,33142,1,10,2:2:0:0:
177,171,33216,1,8,2:2:0:0:
142,142,33289,1,2,1:2:0:0:
96,146,33363,1,0,0:0:0:0:
69,182,33436,6,1,P|53:109|36:47,1,136.499993751526,6|0,1:2|0:0,0:0:0:0:
64,22,33730,1,8,2:2:0:0:
211,85,33877,2,1,P|230:64|261:40,2,45.4999979171754,0|0|2,0:0|0:0|2:2,0:0:0:0:
61,205,34171,1,2,1:2:0:0:
194,254,34319,1,10,2:2:0:0:
123,82,34465,1,2,2:2:0:0:
102,348,34613,6,1,P|150:310|227:334,1,136.499993751526,2|0,1:2|0:0,0:0:0:0:
287,276,34907,2,1,P|335:314|412:290,1,136.499993751526,10|0,2:2|0:0,0:0:0:0:
486,266,35201,6,1,P|473:202|460:154,1,105,2|0,2:2|0:0,0:0:0:0:
365,216,35495,2,1,P|378:152|391:104,1,105,10|0,2:2|0:0,0:0:0:0:
471,82,35789,5,2,1:2:0:0:
471,82,35936,1,0,0:0:0:0:
320,29,36083,2,1,L|328:86,2,35,10|0|0,2:2|0:0|0:0,0:0:0:0:
282,134,36377,5,0,0:0:0:0:
282,134,36524,2,1,P|230:123|167:112,1,105,0|0,1:1|1:1,0:0:0:0:
87,99,36819,5,8,2:2:0:0:
119,302,36966,1,0,1:1:0:0:
63,93,37113,5,8,2:2:0:0:
95,296,37260,1,0,0:0:0:0:
23,239,37407,5,0,1:1:0:0:
244,199,37554,2,1,L|155:181,1,70,8|8,2:2|2:3,0:0:0:0:
226,296,37848,6,1,L|294:282,1,70,6|6,2:3|2:3,0:0:0:0:
388,327,38142,2,1,P|464:267|438:163,1,210,6|2,1:2|2:2,0:0:0:0:
128,25,38730,2,1,P|52:85|78:189,1,210,6|0,1:2|0:0,0:0:0:0:
137,255,39319,6,1,B|280:222|186:183|321:153,1,210,0|0,1:1|1:1,0:0:0:0:
395,217,39907,2,1,L|421:367,1,140,10|2,2:2|1:2,0:0:0:0:
485,85,40495,6,1,P|380:65|267:35,1,210,6|0,1:2|0:0,0:0:0:0:
160,234,41083,2,1,P|265:254|378:284,1,210,6|0,1:2|0:0,0:0:0:0:
364,280,41671,5,0,1:1:0:0:
443,234,41819,1,0,1:1:0:0:
461,148,41966,1,4,2:3:0:0:
415,74,42113,1,0,1:1:0:0:
285,165,42260,6,1,P|326:155|366:146,1,70,10|6,2:2|2:3,0:0:0:0:
474,53,42554,2,1,P|420:44|349:25,1,105,2|4,1:2|2:3,0:0:0:0:
334,47,42848,6,1,B|367:191|394:89|433:250,1,210,6|0,1:2|0:0,0:0:0:0:
175,356,43436,2,1,B|208:211|235:313|274:152,1,210,6|0,1:2|0:0,0:0:0:0:
53,41,44024,2,1,L|93:182,1,140,2|4,1:2|2:3,0:0:0:0:
49,263,44466,5,0,1:1:0:0:
49,263,44539,1,0,0:0:0:0:
49,263,44613,1,8,2:2:0:0:
144,266,44760,1,4,2:3:0:0:
217,211,44906,1,2,1:2:0:0:
227,117,45054,1,4,2:3:0:0:
162,59,45201,6,1,P|259:34|316:119,1,210,2|0,1:2|1:1,0:0:0:0:
295,355,45789,5,10,2:2:0:0:
313,210,45936,2,1,L|357:300,1,70,0|2,1:1|2:2,0:0:0:0:
295,355,46230,1,8,2:2:0:0:
339,169,46377,2,1,P|305:184|261:203,1,70,2|0,1:2|1:1,0:0:0:0:
309,329,46671,5,8,2:2:0:0:
279,234,46818,1,0,1:1:0:0:
420,240,46965,5,10,2:2:0:0:
227,302,47112,1,4,2:3:0:0:
344,339,47260,1,0,1:1:0:0:
120,202,47407,5,4,2:3:0:0:
138,229,47480,1,4,2:3:0:0:
139,261,47554,6,1,P|72:212|113:104,1,210,6|0,1:2|1:1,0:0:0:0:
292,105,48142,6,1,L|346:93,2,46.6666666666667,10|0|0,2:2|0:0|0:0,0:0:0:0:
219,43,48436,2,1,L|174:33,2,46.6666666666667,0|0|0,1:1|0:0|0:0,0:0:0:0:
353,0,48730,5,2,1:2:0:0:
412,7,48828,1,4,2:3:0:0:
474,18,48926,1,4,2:3:0:0:
474,18,49024,6,1,P|466:52|457:91,1,46.6666666666667,4|4,2:3|2:3,0:0:0:0:
373,119,49220,1,0,1:1:0:0:
362,136,49319,6,1,B|304:187|279:257|320:320|406:324|431:271|416:198|365:181|335:181|335:181|271:183|235:222|225:275|225:275|252:262|293:279,1,560,10|0,2:2|0:0,0:0:0:0:
256,192,50863,12,1,51892,0:0:0:0:
199,73,51966,5,2,2:2:0:0:
426,335,52260,2,1,P|442:239|457:160,1,168,6|0,1:2|0:0,0:0:0:0:
474,132,52554,1,10,2:2:0:0:
301,210,52701,1,0,0:0:0:0:
456,91,52848,5,2,2:2:0:0:
295,28,52995,2,1,P|313:85|327:136,1,112,2|8,1:2|2:2,0:0:0:0:
287,346,53289,2,1,P|285:262|353:260,1,168,2|0,2:2|0:0,0:0:0:0:
387,231,53583,1,2,1:2:0:0:
163,158,53730,6,1,P|116:180|51:206,1,112,8|0,2:2|0:0,0:0:0:0:
9,35,54024,1,2,2:2:0:0:
65,35,54098,1,0,0:0:0:0:
100,77,54171,1,0,1:1:0:0:
66,291,54319,1,10,2:2:0:0:
23,127,54466,1,0,0:0:0:0:
208,273,54613,6,1,B|107:253|166:223|54:201,1,168,2|0,1:2|0:0,0:0:0:0:
272,214,54907,2,1,P|331:198|387:177,1,112,10|0,2:2|0:0,0:0:0:0:
410,84,55201,5,2,2:2:0:0:
479,332,55348,2,1,P|425:331|416:273,1,112,2|8,1:2|2:2,0:0:0:0:
482,139,55642,2,1,P|484:198|488:257,1,112,2|0,2:2|1:1,0:0:0:0:
328,67,55936,5,2,1:2:0:0:
439,57,56083,1,8,2:2:0:0:
272,186,56230,1,0,0:0:0:0:
231,166,56304,1,0,0:0:0:0:
186,168,56377,1,0,0:0:0:0:
214,133,56451,1,0,0:0:0:0:
257,125,56524,1,0,1:1:0:0:
400,296,56671,6,1,P|369:258|307:269,1,112,10|0,2:2|0:0,0:0:0:0:
51,356,56966,5,2,1:2:0:0:
241,317,57113,1,2,2:2:0:0:
51,356,57260,2,1,P|107:363|174:376,1,112,10|0,2:2|0:0,0:0:0:0:
326,288,57554,5,2,2:2:0:0:
144,342,57701,1,2,1:2:0:0:
306,252,57848,1,10,2:2:0:0:
489,295,57995,1,2,2:2:0:0:
269,334,58142,6,1,P|288:248|305:136,1,168,2|0,1:2|0:0,0:0:0:0:
281,137,58436,1,10,2:2:0:0:
416,226,58583,1,2,2:2:0:0:
184,290,58730,5,2,2:2:0:0:
145,257,58804,1,8,2:2:0:0:
95,261,58877,1,0,1:1:0:0:
258,173,59024,6,1,B|365:159|302:134|419:119,1,168,10|0,2:2|0:0,0:0:0:0:
450,148,59319,1,0,1:1:0:0:
266,78,59465,1,0,0:0:0:0:
302,258,59613,1,10,2:2:0:0:
374,104,59760,1,2,2:2:0:0:
402,69,59834,1,0,0:0:0:0:
444,54,59907,1,2,2:2:0:0:
402,37,59981,1,0,0:0:0:0:
358,48,60054,1,2,1:2:0:0:
286,163,60201,1,8,2:2:0:0:
458,256,60348,6,1,P|399:267|326:285,1,112,2|0,2:2|1:1,0:0:0:0:
279,319,60569,1,0,0:0:0:0:
290,359,60642,1,0,0:0:0:0:
188,206,60789,1,8,2:2:0:0:
45,364,60936,6,1,P|78:299|171:322,1,168,0|8,0:0|2:2,0:0:0:0:
246,289,61230,1,4,1:2:0:0:
279,319,61304,1,0,0:0:0:0:
323,322,61377,2,1,P|337:263|356:205,1,112,10|8,2:2|2:2,0:0:0:0:
30,61,61671,6,1,B|131:32|85:79|201:43,1,168,6|0,1:2|0:0,0:0:0:0:
271,100,61966,2,1,P|258:154|246:210,1,112,10|0,2:2|0:0,0:0:0:0:
153,329,62260,1,2,2:2:0:0:
108,327,62333,1,0,0:0:0:0:
74,296,62407,1,2,1:2:0:0:
323,238,62554,1,8,2:2:0:0:
172,156,62701,6,1,B|106:170|139:177|60:193,1,112,2|0,2:2|1:1,0:0:0:0:
241,296,62995,1,2,1:2:0:0:
289,93,63142,1,8,2:2:0:0:
219,258,63289,1,0,0:0:0:0:
416,321,63436,6,1,P|405:268|394:206,1,112,2|0,2:2|1:1,0:0:0:0:
448,16,63730,2,1,P|459:69|470:131,1,112,10|0,2:2|0:0,0:0:0:0:
319,307,64024,5,2,1:2:0:0:
456,345,64171,1,0,0:0:0:0:
313,37,64319,2,1,P|201:97|242:176,1,224,10|2,2:2|2:2,0:0:0:0:
419,232,64760,1,2,1:2:0:0:
171,272,64907,1,8,2:2:0:0:
319,307,65054,6,1,B|208:325|273:352|153:370,1,168,2|0,2:2|0:0,0:0:0:0:
90,318,65348,1,2,1:2:0:0:
281,228,65495,2,1,P|296:171|314:111,1,112,10|0,2:2|0:0,0:0:0:0:
190,40,65789,1,2,2:2:0:0:
190,40,65863,1,0,0:0:0:0:
190,40,65936,1,2,1:2:0:0:
164,160,66083,1,8,2:2:0:0:
48,132,66230,1,0,0:0:0:0:
73,252,66377,5,4,1:2:0:0:
424,111,66671,2,1,P|483:149|470:239,1,168,10|0,2:2|0:0,0:0:0:0:
246,303,66966,2,1,P|187:265|200:175,1,168,10|0,2:2|0:0,0:0:0:0:
401,308,67260,2,1,P|457:322|513:340,1,112,10|0,2:2|1:1,0:0:0:0:
267,108,67554,2,1,P|211:94|155:76,1,112,2|0,1:2|1:1,0:0:0:0:
315,349,67848,5,10,2:2:0:0:
355,53,67994,1,2,1:2:0:0:
195,253,68142,5,10,2:2:0:0:
470,133,68289,1,0,1:1:0:0:
223,339,68436,5,10,2:2:0:0:
453,37,68583,1,8,1:2:0:0:
453,37,68657,1,8,2:2:0:0:
453,37,68730,1,4,1:2:0:0:
159,311,69024,5,10,2:2:0:0:
109,57,69171,1,0,1:1:0:0:
67,338,69319,1,10,2:2:0:0:
198,35,69466,1,0,1:1:0:0:
148,268,69613,2,1,P|204:282|260:300,1,112,10|8,2:2|1:2,0:0:0:0:
117,108,69906,2,1,P|61:94|5:76,1,112,2|8,1:2|2:2,0:0:0:0:
319,19,70201,5,2,1:2:0:0:
277,41,70274,1,0,0:0:0:0:
259,84,70348,2,1,L|274:146,1,56,6|0,2:3|1:1,0:0:0:0:
12,287,70495,5,6,2:3:0:0:
54,265,70568,1,0,1:1:0:0:
72,222,70642,2,1,L|56:159,1,56,8|8,2:2|2:2,0:0:0:0:
9,41,70789,5,2,1:2:0:0:
172,108,70936,1,8,2:2:0:0:
95,335,71083,6,1,B|183:299|170:341|259:302,1,168,4|0,1:3|0:0,0:0:0:0:
342,329,71377,5,6,1:2:0:0:
410,67,71524,1,4,1:3:0:0:
431,358,71671,5,6,1:2:0:0:
326,41,71819,1,4,1:3:0:0:
257,302,71966,5,6,1:2:0:0:
496,96,72113,1,4,1:3:0:0:
402,323,72260,5,6,1:2:0:0:
255,105,72407,1,4,1:3:0:0:
466,26,72554,5,6,1:2:0:0:
280,273,72701,1,6,1:3:0:0:
372,225,72848,6,1,P|422:239|481:253,1,112,6|4,1:2|1:3,0:0:0:0:
137,56,73142,2,1,P|87:42|28:28,1,112,6|4,1:2|1:3,0:0:0:0:
28,28,73436,1,4,1:2:0:0:
265,87,73730,6,1,P|269:122|272:156,1,52.5000020027161,10|0,2:2|0:0,0:0:0:0:
221,208,74024,1,2,2:2:0:0:
196,200,74098,1,8,0:0:0:0:
168,203,74171,1,0,1:1:0:0:
109,267,74319,2,1,P|113:302|116:336,1,52.5000020027161,10|0,2:2|0:0,0:0:0:0:
309,362,74613,6,1,B|274:365|274:365|265:356|265:356|218:350|218:350|208:354,2,105.000004005432,6|2|2,2:2|2:2|2:2,0:0:0:0:
379,305,75348,1,0,0:0:0:0:
379,305,75495,2,1,P|383:277|394:230,1,52.5000020027161,2|0,2:2|0:0,0:0:0:0:
37,77,75789,6,1,B|97:59|97:59|105:49|105:49|198:27,1,157.500006008148,6|0,1:2|0:0,0:0:0:0:
184,30,76083,2,1,P|175:57|178:84,1,52.5000020027161,8|0,2:2|0:0,0:0:0:0:
239,150,76230,5,2,2:2:0:0:
98,238,76377,1,2,2:2:0:0:
277,157,76524,2,1,P|228:204|239:303,1,157.500006008148,0|0,1:1|0:0,0:0:0:0:
292,342,76818,1,2,2:2:0:0:
361,138,76965,5,2,1:2:0:0:
501,276,77112,1,2,2:2:0:0:
472,22,77259,2,1,B|384:38|430:-18|320:6,1,157.500006008148,10|0,2:2|0:0,0:0:0:0:
320,5,77553,5,2,2:2:0:0:
329,47,77627,1,8,2:2:0:0:
311,81,77701,1,0,1:1:0:0:
126,119,77848,2,1,P|176:124|243:136,1,105.000004005432,8|2,2:2|2:2,0:0:0:0:
77,367,78142,6,1,P|20:313|39:233,1,157.500006008148,2|0,1:2|0:0,0:0:0:0:
32,241,78436,2,1,P|62:233|83:223,1,52.5000020027161,8|0,2:2|0:0,0:0:0:0:
175,340,78583,1,2,2:2:0:0:
294,150,78730,6,1,B|257:230|301:213|263:303,1,157.500006008148,2|0,2:2|0:0,0:0:0:0:
196,251,79024,2,1,P|145:267|83:281,1,105.000004005432,8|2,2:2|2:2,0:0:0:0:
332,339,79318,5,2,1:2:0:0:
281,110,79465,1,2,2:2:0:0:
435,199,79612,2,1,P|451:248|471:310,1,105.000004005432,10|0,2:2|0:0,0:0:0:0:
184,204,79906,5,2,2:2:0:0:
219,226,79980,1,8,2:2:0:0:
258,223,80053,1,0,1:1:0:0:
378,118,80201,2,2,P|388:65|401:15,1,105.000004005432,8|0,0:0|0:0,0:1:0:0:
467,298,80495,5,2,1:2:0:0:
110,43,80789,2,1,P|117:72|125:104,1,52.5000020027161,8|0,2:2|0:0,0:0:0:0:
72,160,80936,1,2,2:2:0:0:
203,52,81083,2,1,P|244:66|319:90,1,105.000004005432,2|0,2:2|1:1,0:0:0:0:
398,68,81376,1,8,2:2:0:0:
290,277,81524,5,2,2:2:0:0:
168,196,81671,1,2,1:2:0:0:
219,334,81818,1,2,2:2:0:0:
233,143,81965,2,1,B|347:159|282:184|386:198,1,157.500006008148,10|0,2:2|0:0,0:0:0:0:
457,183,82259,5,2,2:2:0:0:
442,146,82333,1,8,2:2:0:0:
449,108,82406,1,0,1:1:0:0:
341,280,82553,1,8,2:2:0:0:
361,110,82701,1,2,2:2:0:0:
443,303,82848,6,1,B|342:323|401:343|296:358,1,157.500006008148,2|0,1:2|0:0,0:0:0:0:
266,339,83142,1,8,2:2:0:0:
379,197,83289,1,2,2:2:0:0:
267,77,83436,6,1,P|341:86|401:30,1,157.500006008148,2|0,2:2|0:0,0:0:0:0:
399,33,83730,2,1,P|396:60|391:104,1,52.5000020027161,8|0,2:2|0:0,0:0:0:0:
326,352,83877,6,1,B|355:326|355:326|441:325|485:275,1,183.750001752377,2|0,2:2|0:0,0:0:0:0:
263,288,84179,2,1,B|331:241|335:173|335:173|378:138,1,183.750001752377,2|0,2:2|0:0,0:0:0:0:
186,251,84482,2,1,B|172:165|172:165|177:152|177:152|164:51,1,183.750001752377,10|0,2:2|0:0,0:0:0:0:
98,265,84785,6,1,P|69:187|-7:142,1,168,2|0,2:2|0:0,0:0:0:0:
