osu file format v14

[General]
AudioFilename: op.mp3
AudioLeadIn: 0
PreviewTime: 51734
Countdown: 0
SampleSet: Soft
StackLeniency: 0.7
Mode: 3
LetterboxInBreaks: 0
EpilepsyWarning: 1
SpecialStyle: 0
WidescreenStoryboard: 0

[Editor]
DistanceSpacing: 0.8
BeatDivisor: 4
GridSize: 32
TimelineZoom: 2.1

[Metadata]
Title:KICK BACK
TitleUnicode:KICK BACK
Artist:Kenshi Yonezu
ArtistUnicode:米津玄師
Creator:AutotelicBrown
Version:juan's Extra Power
Source:チェンソーマン
Tags:juankristal chainsaw man csm opening OP オープニング・テーマ full version HACHI ハチ Daiki Tsuneta 常田大希 そうだ! we're alive sou da! morning musume モーニング娘 tsunku つんく Sony Music Labels Inc. SEXX02423B00Z Anime アニメ Rock JRock J-Rock Rock Japanese MAPPA Alice
BeatmapID:3844643
BeatmapSetID:1865663

[Difficulty]
HPDrainRate:9
CircleSize:4
OverallDifficulty:7
ApproachRate:5
SliderMultiplier:1.4
SliderTickRate:1

[Events]
//Background and Video events
0,0,"bg_power.jpg",0,0
Video,-74,"MV.mp4"
//Break Periods
//Storyboard Layer 0 (Background)
//Storyboard Layer 1 (Fail)
//Storyboard Layer 2 (Pass)
//Storyboard Layer 3 (Foreground)
//Storyboard Layer 4 (Overlay)
//Storyboard Sound Samples

[TimingPoints]
264,294.117647058824,4,2,1,50,1,0
52028,-100,4,2,1,50,0,1
73205,-100,4,2,1,50,0,0
103793,-100,4,2,1,35,0,0
129675,-100,4,2,1,25,0,0
134381,-100,4,2,1,50,0,0
143793,-100,4,2,1,50,0,1
179087,-100,4,2,1,50,0,0

[HitObjects]
64,192,264,128,0,411:0:0:0:0:
320,192,264,128,0,852:0:0:0:0:
64,192,558,128,0,631:0:0:0:0:
64,192,705,128,0,852:0:0:0:0:
448,192,852,128,0,999:0:0:0:0:
320,192,999,128,0,1146:0:0:0:0:
192,192,1293,128,0,1440:0:0:0:0:
64,192,1587,128,0,1661:0:0:0:0:
192,192,1734,128,0,2175:0:0:0:0:
320,192,1881,128,0,2028:0:0:0:0:
448,192,2175,128,0,2322:0:0:0:0:
320,192,2322,128,0,2469:0:0:0:0:
192,192,2469,128,0,2616:0:0:0:0:
64,192,2616,128,0,2764:0:0:0:0:
64,192,2911,128,0,2984:0:0:0:0:
64,192,3058,128,0,3205:0:0:0:0:
448,192,3205,128,0,3352:0:0:0:0:
320,192,3352,128,0,3499:0:0:0:0:
192,192,3646,128,0,3793:0:0:0:0:
64,192,3940,128,0,4014:0:0:0:0:
64,192,4087,1,0,0:0:0:0:
320,192,4234,128,0,4381:0:0:0:0:
64,192,4234,128,0,4308:0:0:0:0:
192,192,4381,128,0,4675:0:0:0:0:
448,192,4381,128,0,4455:0:0:0:0:
64,192,4528,128,0,4675:0:0:0:0:
320,192,4675,128,0,5116:0:0:0:0:
448,192,4675,128,0,4896:0:0:0:0:
192,192,4822,128,0,4969:0:0:0:0:
448,192,4969,128,0,5116:0:0:0:0:
64,192,4969,128,0,5116:0:0:0:0:
64,192,5264,128,0,5337:0:0:0:0:
64,192,5411,128,0,5558:0:0:0:0:
448,192,5558,128,0,5705:0:0:0:0:
320,192,5705,128,0,5852:0:0:0:0:
192,192,5999,128,0,6146:0:0:0:0:
64,192,6293,128,0,6366:0:0:0:0:
192,192,6440,128,0,6661:0:0:0:0:
320,192,6587,128,0,6734:0:0:0:0:
64,192,6587,128,0,6661:0:0:0:0:
192,192,6734,128,0,6808:0:0:0:0:
448,192,6734,128,0,6808:0:0:0:0:
448,192,6881,128,0,7028:0:0:0:0:
64,192,6881,128,0,6955:0:0:0:0:
320,192,7028,128,0,7175:0:0:0:0:
192,192,7028,128,0,7102:0:0:0:0:
64,192,7175,128,0,7249:0:0:0:0:
448,192,7175,128,0,8499:0:0:0:0:
64,192,7322,128,0,7469:0:0:0:0:
64,192,7616,128,0,7690:0:0:0:0:
64,192,7764,128,0,7911:0:0:0:0:
320,192,7911,128,0,8058:0:0:0:0:
192,192,8058,128,0,8205:0:0:0:0:
320,192,8205,128,0,8499:0:0:0:0:
64,192,8352,128,0,8499:0:0:0:0:
192,192,8499,1,0,0:0:0:0:
320,192,8572,1,0,0:0:0:0:
192,192,8646,1,0,0:0:0:0:
320,192,8719,1,0,0:0:0:0:
192,192,8793,128,0,8866:0:0:0:0:
192,192,8940,128,0,9014:0:0:0:0:
192,192,9087,128,0,9675:0:0:0:0:
320,192,9234,128,0,9675:0:0:0:0:
448,192,9381,128,0,9455:0:0:0:0:
448,192,9528,128,0,9602:0:0:0:0:
64,192,9528,128,0,9602:0:0:0:0:
64,192,9675,128,0,9822:0:0:0:0:
448,192,9675,128,0,9896:0:0:0:0:
64,192,9969,128,0,10043:0:0:0:0:
320,192,9969,1,0,0:0:0:0:
64,192,10116,128,0,10264:0:0:0:0:
192,192,10116,128,0,10190:0:0:0:0:
448,192,10264,128,0,10411:0:0:0:0:
192,192,10264,128,0,10484:0:0:0:0:
320,192,10411,128,0,10558:0:0:0:0:
64,192,10558,1,0,0:0:0:0:
448,192,10558,1,0,0:0:0:0:
320,192,10705,128,0,10778:0:0:0:0:
192,192,10705,128,0,10852:0:0:0:0:
320,192,10852,128,0,10999:0:0:0:0:
64,192,10852,128,0,10925:0:0:0:0:
64,192,10999,128,0,11072:0:0:0:0:
192,192,10999,128,0,11146:0:0:0:0:
320,192,11146,128,0,11219:0:0:0:0:
448,192,11146,128,0,11366:0:0:0:0:
192,192,11293,128,0,11440:0:0:0:0:
64,192,11440,128,0,11661:0:0:0:0:
320,192,11440,128,0,11514:0:0:0:0:
448,192,11514,1,0,0:0:0:0:
192,192,11587,128,0,11734:0:0:0:0:
448,192,11734,128,0,11881:0:0:0:0:
320,192,11734,1,0,0:0:0:0:
192,192,11881,128,0,12028:0:0:0:0:
64,192,11881,1,0,0:0:0:0:
64,192,12028,128,0,12175:0:0:0:0:
448,192,12028,128,0,12249:0:0:0:0:
64,192,12322,128,0,12396:0:0:0:0:
320,192,12322,1,0,0:0:0:0:
64,192,12469,128,0,12616:0:0:0:0:
192,192,12469,128,0,12543:0:0:0:0:
448,192,12616,128,0,12764:0:0:0:0:
192,192,12616,128,0,12837:0:0:0:0:
320,192,12764,128,0,12911:0:0:0:0:
64,192,12911,1,0,0:0:0:0:
192,192,12911,1,0,0:0:0:0:
192,192,13058,128,0,13205:0:0:0:0:
448,192,13058,128,0,13131:0:0:0:0:
448,192,13205,128,0,13352:0:0:0:0:
320,192,13205,128,0,13278:0:0:0:0:
64,192,13352,128,0,13425:0:0:0:0:
192,192,13352,128,0,13499:0:0:0:0:
320,192,13499,128,0,13719:0:0:0:0:
448,192,13499,128,0,13572:0:0:0:0:
64,192,13646,128,0,13793:0:0:0:0:
448,192,13793,128,0,13866:0:0:0:0:
320,192,13793,128,0,14014:0:0:0:0:
192,192,13866,1,0,0:0:0:0:
64,192,13940,128,0,14087:0:0:0:0:
320,192,14087,128,0,14528:0:0:0:0:
448,192,14087,128,0,14308:0:0:0:0:
192,192,14234,128,0,14381:0:0:0:0:
64,192,14234,1,0,0:0:0:0:
64,192,14381,128,0,14528:0:0:0:0:
448,192,14381,128,0,14602:0:0:0:0:
64,192,14675,128,0,14749:0:0:0:0:
320,192,14675,1,0,0:0:0:0:
64,192,14822,128,0,14969:0:0:0:0:
192,192,14822,128,0,14896:0:0:0:0:
448,192,14969,128,0,15116:0:0:0:0:
192,192,14969,128,0,15190:0:0:0:0:
320,192,15116,128,0,15264:0:0:0:0:
64,192,15264,1,0,0:0:0:0:
448,192,15264,1,0,0:0:0:0:
192,192,15411,128,0,15558:0:0:0:0:
320,192,15411,128,0,15484:0:0:0:0:
320,192,15558,128,0,15705:0:0:0:0:
64,192,15558,128,0,15631:0:0:0:0:
64,192,15705,128,0,15778:0:0:0:0:
192,192,15705,128,0,15852:0:0:0:0:
448,192,15852,128,0,16072:0:0:0:0:
320,192,15852,128,0,15925:0:0:0:0:
64,192,15999,128,0,16146:0:0:0:0:
448,192,16146,128,0,16219:0:0:0:0:
192,192,16146,128,0,16366:0:0:0:0:
320,192,16219,128,0,16587:0:0:0:0:
448,192,16293,128,0,16440:0:0:0:0:
64,192,16293,128,0,16366:0:0:0:0:
192,192,16440,128,0,16514:0:0:0:0:
64,192,16440,128,0,16514:0:0:0:0:
192,192,16587,128,0,16734:0:0:0:0:
448,192,16587,128,0,16661:0:0:0:0:
320,192,16661,128,0,16734:0:0:0:0:
448,192,16734,128,0,16881:0:0:0:0:
64,192,16734,128,0,16955:0:0:0:0:
320,192,16881,128,0,17028:0:0:0:0:
192,192,16881,128,0,16955:0:0:0:0:
448,192,17028,1,0,0:0:0:0:
64,192,17028,128,0,17102:0:0:0:0:
64,192,17175,128,0,17322:0:0:0:0:
320,192,17175,128,0,17249:0:0:0:0:
320,192,17322,128,0,17469:0:0:0:0:
448,192,17322,128,0,17543:0:0:0:0:
192,192,17469,128,0,17616:0:0:0:0:
64,192,17616,1,0,0:0:0:0:
320,192,17616,1,0,0:0:0:0:
64,192,17764,128,0,17911:0:0:0:0:
192,192,17764,128,0,17837:0:0:0:0:
192,192,17911,128,0,18205:0:0:0:0:
320,192,17911,128,0,17984:0:0:0:0:
320,192,18058,128,0,18205:0:0:0:0:
448,192,18058,128,0,18131:0:0:0:0:
448,192,18205,128,0,18499:0:0:0:0:
64,192,18205,128,0,18352:0:0:0:0:
320,192,18278,1,0,0:0:0:0:
192,192,18352,128,0,18425:0:0:0:0:
320,192,18425,1,0,0:0:0:0:
192,192,18499,128,0,18719:0:0:0:0:
64,192,18499,128,0,18646:0:0:0:0:
320,192,18646,128,0,18793:0:0:0:0:
448,192,18646,128,0,18719:0:0:0:0:
64,192,18719,1,0,0:0:0:0:
448,192,18793,128,0,19087:0:0:0:0:
192,192,18793,128,0,18866:0:0:0:0:
192,192,18940,128,0,19087:0:0:0:0:
320,192,18940,1,0,0:0:0:0:
64,192,19087,128,0,19234:0:0:0:0:
320,192,19381,128,0,19455:0:0:0:0:
192,192,19381,128,0,19675:0:0:0:0:
320,192,19528,128,0,19675:0:0:0:0:
64,192,19675,128,0,19822:0:0:0:0:
448,192,19675,128,0,19822:0:0:0:0:
192,192,19822,128,0,19969:0:0:0:0:
320,192,19822,128,0,20116:0:0:0:0:
64,192,19969,1,0,0:0:0:0:
448,192,19969,1,0,0:0:0:0:
64,192,20116,128,0,20264:0:0:0:0:
192,192,20116,128,0,20411:0:0:0:0:
448,192,20264,1,0,0:0:0:0:
64,192,20411,128,0,20484:0:0:0:0:
320,192,20411,128,0,20558:0:0:0:0:
448,192,20558,128,0,20705:0:0:0:0:
64,192,20558,128,0,20705:0:0:0:0:
320,192,20705,128,0,20999:0:0:0:0:
192,192,20705,128,0,20852:0:0:0:0:
64,192,20852,1,0,0:0:0:0:
448,192,20999,128,0,21146:0:0:0:0:
192,192,20999,128,0,21146:0:0:0:0:
320,192,21146,128,0,21293:0:0:0:0:
64,192,21146,128,0,21293:0:0:0:0:
192,192,21293,128,0,21440:0:0:0:0:
448,192,21293,128,0,21587:0:0:0:0:
64,192,21440,128,0,21587:0:0:0:0:
320,192,21587,128,0,21881:0:0:0:0:
192,192,21587,128,0,21808:0:0:0:0:
64,192,21734,128,0,21808:0:0:0:0:
448,192,21734,1,0,0:0:0:0:
64,192,21881,128,0,22028:0:0:0:0:
192,192,21881,128,0,22322:0:0:0:0:
320,192,21955,1,0,0:0:0:0:
448,192,22028,128,0,22175:0:0:0:0:
320,192,22175,128,0,22322:0:0:0:0:
448,192,22322,128,0,22616:0:0:0:0:
64,192,22322,1,0,0:0:0:0:
192,192,22469,128,0,22764:0:0:0:0:
320,192,22616,128,0,22690:0:0:0:0:
64,192,22616,1,0,0:0:0:0:
320,192,22764,128,0,22837:0:0:0:0:
64,192,22764,1,0,0:0:0:0:
192,192,22911,1,0,0:0:0:0:
64,192,22911,1,0,0:0:0:0:
448,192,23058,128,0,23205:0:0:0:0:
64,192,23058,128,0,23131:0:0:0:0:
192,192,23205,128,0,23278:0:0:0:0:
320,192,23278,1,0,0:0:0:0:
64,192,23352,128,0,23499:0:0:0:0:
192,192,23352,128,0,23425:0:0:0:0:
448,192,23499,128,0,23793:0:0:0:0:
320,192,23499,1,0,0:0:0:0:
320,192,23646,128,0,23793:0:0:0:0:
64,192,23646,128,0,23719:0:0:0:0:
64,192,23793,128,0,23940:0:0:0:0:
192,192,23793,128,0,24087:0:0:0:0:
64,192,24087,128,0,24161:0:0:0:0:
320,192,24087,128,0,24381:0:0:0:0:
64,192,24234,128,0,24381:0:0:0:0:
448,192,24381,128,0,24528:0:0:0:0:
192,192,24381,128,0,24528:0:0:0:0:
320,192,24528,128,0,24675:0:0:0:0:
64,192,24528,128,0,24822:0:0:0:0:
192,192,24675,1,0,0:0:0:0:
448,192,24675,1,0,0:0:0:0:
192,192,24822,128,0,24969:0:0:0:0:
320,192,24822,128,0,25116:0:0:0:0:
64,192,24969,1,0,0:0:0:0:
64,192,25116,128,0,25264:0:0:0:0:
448,192,25116,128,0,25190:0:0:0:0:
448,192,25264,128,0,25411:0:0:0:0:
192,192,25264,128,0,25411:0:0:0:0:
64,192,25411,128,0,25484:0:0:0:0:
320,192,25411,128,0,25705:0:0:0:0:
192,192,25558,128,0,25705:0:0:0:0:
448,192,25705,128,0,25852:0:0:0:0:
64,192,25705,128,0,25778:0:0:0:0:
320,192,25852,128,0,25999:0:0:0:0:
192,192,25852,128,0,25925:0:0:0:0:
64,192,25999,128,0,26072:0:0:0:0:
448,192,25999,128,0,26293:0:0:0:0:
64,192,26146,128,0,26293:0:0:0:0:
320,192,26293,128,0,26440:0:0:0:0:
192,192,26293,128,0,26366:0:0:0:0:
192,192,26440,128,0,26587:0:0:0:0:
448,192,26440,128,0,26587:0:0:0:0:
320,192,26587,128,0,26734:0:0:0:0:
64,192,26587,128,0,26881:0:0:0:0:
448,192,26734,128,0,26808:0:0:0:0:
320,192,26881,128,0,27028:0:0:0:0:
448,192,26881,128,0,27175:0:0:0:0:
192,192,27028,128,0,27175:0:0:0:0:
64,192,27028,1,0,0:0:0:0:
64,192,27175,128,0,27322:0:0:0:0:
320,192,27175,128,0,27396:0:0:0:0:
192,192,27322,1,0,0:0:0:0:
448,192,27396,1,0,0:0:0:0:
64,192,27469,1,0,0:0:0:0:
192,192,27469,128,0,27616:0:0:0:0:
448,192,27543,1,0,0:0:0:0:
320,192,27616,1,0,0:0:0:0:
192,192,27764,128,0,27911:0:0:0:0:
64,192,27764,1,0,0:0:0:0:
448,192,27837,1,0,0:0:0:0:
320,192,27911,1,0,0:0:0:0:
64,192,28058,128,0,28499:0:0:0:0:
448,192,28058,128,0,28352:0:0:0:0:
320,192,28352,128,0,28646:0:0:0:0:
192,192,28352,1,0,0:0:0:0:
192,192,28499,128,0,28793:0:0:0:0:
448,192,28499,128,0,28572:0:0:0:0:
64,192,28646,128,0,28793:0:0:0:0:
448,192,28646,128,0,28793:0:0:0:0:
320,192,28793,128,0,28940:0:0:0:0:
192,192,28940,128,0,29234:0:0:0:0:
64,192,28940,128,0,29014:0:0:0:0:
320,192,29087,128,0,29381:0:0:0:0:
448,192,29087,128,0,29161:0:0:0:0:
448,192,29234,128,0,29381:0:0:0:0:
64,192,29234,128,0,29381:0:0:0:0:
192,192,29381,128,0,29528:0:0:0:0:
320,192,29528,128,0,29822:0:0:0:0:
448,192,29528,128,0,29675:0:0:0:0:
64,192,29675,1,0,0:0:0:0:
192,192,29822,128,0,29896:0:0:0:0:
64,192,29822,128,0,29969:0:0:0:0:
192,192,29969,128,0,30116:0:0:0:0:
448,192,29969,128,0,30116:0:0:0:0:
320,192,30116,128,0,30337:0:0:0:0:
64,192,30116,128,0,30190:0:0:0:0:
64,192,30264,128,0,30558:0:0:0:0:
448,192,30264,128,0,30337:0:0:0:0:
192,192,30337,1,0,0:0:0:0:
320,192,30411,128,0,30558:0:0:0:0:
448,192,30411,128,0,30558:0:0:0:0:
192,192,30558,128,0,30705:0:0:0:0:
448,192,30705,128,0,30999:0:0:0:0:
64,192,30705,128,0,30852:0:0:0:0:
320,192,30852,1,0,0:0:0:0:
192,192,30999,128,0,31146:0:0:0:0:
320,192,30999,128,0,31146:0:0:0:0:
64,192,31146,128,0,31293:0:0:0:0:
448,192,31146,128,0,31219:0:0:0:0:
320,192,31293,128,0,31440:0:0:0:0:
448,192,31293,128,0,31440:0:0:0:0:
192,192,31440,128,0,31587:0:0:0:0:
64,192,31440,128,0,31587:0:0:0:0:
320,192,31587,128,0,31881:0:0:0:0:
448,192,31587,128,0,31734:0:0:0:0:
192,192,31734,128,0,31881:0:0:0:0:
64,192,31734,128,0,31808:0:0:0:0:
64,192,31881,128,0,32616:0:0:0:0:
448,192,31881,128,0,32175:0:0:0:0:
192,192,32028,1,0,0:0:0:0:
320,192,32175,128,0,32322:0:0:0:0:
448,192,32322,128,0,32469:0:0:0:0:
192,192,32322,1,0,0:0:0:0:
192,192,32469,128,0,32543:0:0:0:0:
320,192,32543,1,0,0:0:0:0:
448,192,32616,128,0,33205:0:0:0:0:
192,192,32616,128,0,32690:0:0:0:0:
320,192,32690,1,0,0:0:0:0:
192,192,32764,128,0,32911:0:0:0:0:
64,192,32764,1,0,0:0:0:0:
64,192,32911,1,0,0:0:0:0:
320,192,32911,128,0,33058:0:0:0:0:
64,192,33058,128,0,33205:0:0:0:0:
192,192,33058,128,0,33131:0:0:0:0:
320,192,33205,128,0,34087:0:0:0:0:
192,192,33205,128,0,33352:0:0:0:0:
64,192,33499,1,0,0:0:0:0:
192,192,33499,1,0,0:0:0:0:
448,192,33793,128,0,33866:0:0:0:0:
64,192,33793,1,0,0:0:0:0:
448,192,33940,128,0,34087:0:0:0:0:
192,192,33940,1,0,0:0:0:0:
192,192,34087,128,0,34381:0:0:0:0:
64,192,34087,128,0,34234:0:0:0:0:
320,192,34234,128,0,34381:0:0:0:0:
448,192,34234,128,0,34308:0:0:0:0:
448,192,34381,128,0,34969:0:0:0:0:
64,192,34381,1,0,0:0:0:0:
64,192,34528,1,0,0:0:0:0:
192,192,34675,1,0,0:0:0:0:
320,192,34675,128,0,34969:0:0:0:0:
192,192,34969,128,0,35558:0:0:0:0:
64,192,34969,128,0,35264:0:0:0:0:
448,192,35116,1,0,0:0:0:0:
448,192,35264,1,0,0:0:0:0:
320,192,35264,128,0,35852:0:0:0:0:
64,192,35558,128,0,36440:0:0:0:0:
448,192,35558,128,0,35705:0:0:0:0:
448,192,35852,128,0,36440:0:0:0:0:
192,192,35852,128,0,35999:0:0:0:0:
320,192,35999,128,0,36146:0:0:0:0:
192,192,36146,128,0,36219:0:0:0:0:
192,192,36293,128,0,36440:0:0:0:0:
320,192,36440,1,0,0:0:0:0:
320,192,36587,128,0,36808:0:0:0:0:
64,192,36587,128,0,37028:0:0:0:0:
320,192,36881,128,0,37028:0:0:0:0:
448,192,36881,1,0,0:0:0:0:
192,192,37028,128,0,37175:0:0:0:0:
448,192,37028,128,0,37322:0:0:0:0:
320,192,37175,128,0,37469:0:0:0:0:
192,192,37322,128,0,37616:0:0:0:0:
64,192,37322,128,0,37396:0:0:0:0:
64,192,37469,128,0,37616:0:0:0:0:
448,192,37616,128,0,37764:0:0:0:0:
320,192,37616,128,0,37911:0:0:0:0:
192,192,37764,128,0,37911:0:0:0:0:
64,192,37764,128,0,37837:0:0:0:0:
64,192,37911,128,0,38205:0:0:0:0:
448,192,37911,128,0,38499:0:0:0:0:
320,192,38205,128,0,38425:0:0:0:0:
192,192,38352,128,0,38499:0:0:0:0:
64,192,38499,128,0,39087:0:0:0:0:
320,192,38499,128,0,38719:0:0:0:0:
448,192,38646,128,0,38793:0:0:0:0:
192,192,38793,128,0,39087:0:0:0:0:
320,192,38793,128,0,39014:0:0:0:0:
320,192,39087,128,0,39675:0:0:0:0:
448,192,39087,128,0,39381:0:0:0:0:
64,192,39234,1,0,0:0:0:0:
64,192,39381,1,0,0:0:0:0:
192,192,39528,1,0,0:0:0:0:
448,192,39675,128,0,39896:0:0:0:0:
64,192,39675,128,0,39896:0:0:0:0:
448,192,39969,128,0,40264:0:0:0:0:
192,192,39969,128,0,40190:0:0:0:0:
192,192,40264,128,0,40852:0:0:0:0:
320,192,40264,128,0,40558:0:0:0:0:
448,192,40558,128,0,40852:0:0:0:0:
64,192,40558,128,0,40778:0:0:0:0:
320,192,40852,128,0,41440:0:0:0:0:
64,192,40852,128,0,41146:0:0:0:0:
192,192,41146,128,0,41440:0:0:0:0:
448,192,41146,128,0,41293:0:0:0:0:
64,192,41440,128,0,42322:0:0:0:0:
448,192,41440,128,0,42028:0:0:0:0:
320,192,41587,1,0,0:0:0:0:
320,192,41734,1,0,0:0:0:0:
320,192,41881,1,0,0:0:0:0:
192,192,42028,128,0,42102:0:0:0:0:
320,192,42028,128,0,42102:0:0:0:0:
192,192,42175,128,0,42322:0:0:0:0:
448,192,42175,128,0,42249:0:0:0:0:
448,192,42322,128,0,42616:0:0:0:0:
320,192,42322,128,0,42543:0:0:0:0:
64,192,42616,128,0,43205:0:0:0:0:
320,192,42616,128,0,42911:0:0:0:0:
192,192,42911,128,0,43205:0:0:0:0:
448,192,42911,128,0,43058:0:0:0:0:
320,192,43205,128,0,43793:0:0:0:0:
448,192,43205,128,0,43425:0:0:0:0:
448,192,43499,128,0,43793:0:0:0:0:
192,192,43499,128,0,43646:0:0:0:0:
192,192,43793,128,0,44969:0:0:0:0:
64,192,43793,128,0,44381:0:0:0:0:
448,192,43940,1,0,0:0:0:0:
448,192,44087,1,0,0:0:0:0:
448,192,44234,1,0,0:0:0:0:
320,192,44381,1,0,0:0:0:0:
448,192,44381,1,0,0:0:0:0:
64,192,44528,1,0,0:0:0:0:
64,192,44675,1,0,0:0:0:0:
448,192,44675,128,0,44969:0:0:0:0:
64,192,44969,128,0,45264:0:0:0:0:
320,192,44969,128,0,45190:0:0:0:0:
320,192,45264,128,0,45558:0:0:0:0:
448,192,45264,128,0,45852:0:0:0:0:
192,192,45558,128,0,45778:0:0:0:0:
64,192,45558,1,0,0:0:0:0:
192,192,45852,128,0,46146:0:0:0:0:
320,192,45852,128,0,45999:0:0:0:0:
64,192,45999,1,0,0:0:0:0:
320,192,46146,1,0,0:0:0:0:
448,192,46146,128,0,46734:0:0:0:0:
320,192,46293,1,0,0:0:0:0:
192,192,46440,1,0,0:0:0:0:
192,192,46587,1,0,0:0:0:0:
64,192,46734,128,0,47322:0:0:0:0:
320,192,46734,128,0,47028:0:0:0:0:
448,192,46881,1,0,0:0:0:0:
192,192,47028,1,0,0:0:0:0:
192,192,47175,1,0,0:0:0:0:
320,192,47322,128,0,47911:0:0:0:0:
448,192,47322,128,0,47616:0:0:0:0:
64,192,47616,1,0,0:0:0:0:
192,192,47911,128,0,48499:0:0:0:0:
448,192,47911,128,0,48205:0:0:0:0:
64,192,48205,1,0,0:0:0:0:
448,192,48303,1,0,0:0:0:0:
320,192,48401,1,0,0:0:0:0:
448,192,48499,128,0,49014:0:0:0:0:
64,192,48499,1,0,0:0:0:0:
320,192,48597,1,0,0:0:0:0:
192,192,48695,1,0,0:0:0:0:
320,192,48793,1,0,0:0:0:0:
64,192,48891,1,0,0:0:0:0:
320,192,48989,1,0,0:0:0:0:
448,192,49087,128,0,50852:0:0:0:0:
64,192,49087,128,0,51734:0:0:0:0:
192,192,51734,128,0,51881:0:0:0:0:
448,192,51734,128,0,51955:0:0:0:0:
320,192,52028,128,0,52322:0:0:0:0:
64,192,52028,128,0,52175:0:0:0:0:
448,192,52322,128,0,52616:0:0:0:0:
192,192,52322,128,0,52469:0:0:0:0:
192,192,52616,128,0,52690:0:0:0:0:
320,192,52616,128,0,52764:0:0:0:0:
192,192,52764,128,0,52911:0:0:0:0:
448,192,52764,1,0,0:0:0:0:
64,192,52911,1,0,0:0:0:0:
320,192,52911,1,0,0:0:0:0:
320,192,53058,128,0,53205:0:0:0:0:
448,192,53058,128,0,53352:0:0:0:0:
192,192,53205,1,0,0:0:0:0:
64,192,53352,128,0,53646:0:0:0:0:
320,192,53352,128,0,53793:0:0:0:0:
448,192,53499,1,0,0:0:0:0:
192,192,53499,1,0,0:0:0:0:
192,192,53646,1,0,0:0:0:0:
192,192,53793,128,0,54087:0:0:0:0:
448,192,53793,128,0,53940:0:0:0:0:
64,192,53866,1,0,0:0:0:0:
320,192,53940,1,0,0:0:0:0:
320,192,54087,128,0,54234:0:0:0:0:
448,192,54087,128,0,54308:0:0:0:0:
192,192,54234,1,0,0:0:0:0:
448,192,54381,128,0,54455:0:0:0:0:
64,192,54381,128,0,54528:0:0:0:0:
448,192,54675,128,0,54822:0:0:0:0:
192,192,54675,128,0,54969:0:0:0:0:
64,192,54969,128,0,55043:0:0:0:0:
320,192,54969,128,0,55043:0:0:0:0:
64,192,55116,128,0,55264:0:0:0:0:
448,192,55116,128,0,55264:0:0:0:0:
192,192,55264,1,0,0:0:0:0:
320,192,55264,1,0,0:0:0:0:
320,192,55411,128,0,55705:0:0:0:0:
448,192,55411,128,0,55705:0:0:0:0:
64,192,55558,1,0,0:0:0:0:
192,192,55705,128,0,55999:0:0:0:0:
64,192,55705,128,0,56293:0:0:0:0:
448,192,55852,1,0,0:0:0:0:
320,192,55852,1,0,0:0:0:0:
448,192,55999,1,0,0:0:0:0:
320,192,56072,1,0,0:0:0:0:
192,192,56146,1,0,0:0:0:0:
320,192,56219,1,0,0:0:0:0:
192,192,56293,128,0,56440:0:0:0:0:
320,192,56440,128,0,56587:0:0:0:0:
448,192,56440,128,0,56881:0:0:0:0:
192,192,56587,128,0,56808:0:0:0:0:
320,192,56734,128,0,56808:0:0:0:0:
64,192,56734,128,0,56808:0:0:0:0:
192,192,56881,128,0,56955:0:0:0:0:
64,192,56881,128,0,56955:0:0:0:0:
320,192,57028,128,0,57175:0:0:0:0:
448,192,57028,128,0,57249:0:0:0:0:
192,192,57175,128,0,57322:0:0:0:0:
64,192,57322,128,0,57396:0:0:0:0:
320,192,57322,128,0,57469:0:0:0:0:
64,192,57469,128,0,57616:0:0:0:0:
192,192,57469,128,0,57616:0:0:0:0:
448,192,57616,128,0,57690:0:0:0:0:
320,192,57616,128,0,57690:0:0:0:0:
448,192,57764,128,0,57911:0:0:0:0:
64,192,57764,128,0,57911:0:0:0:0:
192,192,57911,128,0,58205:0:0:0:0:
320,192,57911,128,0,57984:0:0:0:0:
64,192,58058,128,0,58205:0:0:0:0:
448,192,58058,128,0,58131:0:0:0:0:
320,192,58205,128,0,58278:0:0:0:0:
448,192,58205,128,0,58352:0:0:0:0:
320,192,58352,128,0,58499:0:0:0:0:
64,192,58352,128,0,58499:0:0:0:0:
192,192,58499,128,0,58793:0:0:0:0:
448,192,58499,128,0,58646:0:0:0:0:
320,192,58572,1,0,0:0:0:0:
64,192,58646,1,0,0:0:0:0:
448,192,58793,128,0,59381:0:0:0:0:
320,192,58793,128,0,59087:0:0:0:0:
64,192,58940,1,0,0:0:0:0:
192,192,59087,1,0,0:0:0:0:
64,192,59087,128,0,59381:0:0:0:0:
320,192,59234,1,0,0:0:0:0:
320,192,59381,128,0,59675:0:0:0:0:
192,192,59381,128,0,59528:0:0:0:0:
64,192,59528,128,0,59822:0:0:0:0:
448,192,59528,128,0,59602:0:0:0:0:
448,192,59675,128,0,59749:0:0:0:0:
192,192,59675,128,0,59749:0:0:0:0:
320,192,59822,128,0,60116:0:0:0:0:
192,192,59822,128,0,59896:0:0:0:0:
64,192,59969,128,0,60043:0:0:0:0:
192,192,59969,128,0,60116:0:0:0:0:
448,192,60116,128,0,60852:0:0:0:0:
64,192,60116,128,0,60190:0:0:0:0:
320,192,60190,128,0,60264:0:0:0:0:
192,192,60264,128,0,60337:0:0:0:0:
64,192,60264,128,0,60337:0:0:0:0:
320,192,60337,128,0,60411:0:0:0:0:
192,192,60411,128,0,60484:0:0:0:0:
320,192,60484,128,0,60558:0:0:0:0:
192,192,60558,128,0,60631:0:0:0:0:
64,192,60558,1,0,0:0:0:0:
320,192,60631,128,0,60705:0:0:0:0:
64,192,60705,128,0,60778:0:0:0:0:
192,192,60778,128,0,60852:0:0:0:0:
320,192,60852,128,0,60999:0:0:0:0:
64,192,60852,1,0,0:0:0:0:
448,192,60925,128,0,60999:0:0:0:0:
192,192,60999,128,0,61072:0:0:0:0:
64,192,60999,1,0,0:0:0:0:
448,192,61072,128,0,61219:0:0:0:0:
192,192,61146,128,0,61293:0:0:0:0:
320,192,61146,128,0,61219:0:0:0:0:
64,192,61219,128,0,61293:0:0:0:0:
320,192,61293,128,0,61366:0:0:0:0:
448,192,61366,128,0,61440:0:0:0:0:
192,192,61440,128,0,61734:0:0:0:0:
320,192,61440,128,0,62028:0:0:0:0:
64,192,61440,128,0,61587:0:0:0:0:
448,192,61734,128,0,62028:0:0:0:0:
64,192,61734,128,0,61955:0:0:0:0:
192,192,62028,128,0,62102:0:0:0:0:
64,192,62028,128,0,62175:0:0:0:0:
192,192,62175,128,0,62322:0:0:0:0:
448,192,62175,128,0,62322:0:0:0:0:
64,192,62322,1,0,0:0:0:0:
320,192,62322,1,0,0:0:0:0:
448,192,62469,128,0,62764:0:0:0:0:
64,192,62469,128,0,62616:0:0:0:0:
192,192,62616,1,0,0:0:0:0:
64,192,62764,128,0,63058:0:0:0:0:
320,192,62764,128,0,63058:0:0:0:0:
448,192,62911,1,0,0:0:0:0:
192,192,62911,1,0,0:0:0:0:
192,192,63058,1,0,0:0:0:0:
320,192,63205,128,0,63352:0:0:0:0:
448,192,63205,128,0,63499:0:0:0:0:
192,192,63278,1,0,0:0:0:0:
64,192,63352,1,0,0:0:0:0:
192,192,63499,128,0,63646:0:0:0:0:
320,192,63499,128,0,63646:0:0:0:0:
448,192,63646,1,0,0:0:0:0:
448,192,63793,128,0,63940:0:0:0:0:
64,192,63793,128,0,63866:0:0:0:0:
192,192,64087,128,0,64381:0:0:0:0:
320,192,64087,128,0,64234:0:0:0:0:
448,192,64381,128,0,64455:0:0:0:0:
64,192,64381,128,0,64455:0:0:0:0:
448,192,64528,128,0,64675:0:0:0:0:
192,192,64528,128,0,64675:0:0:0:0:
64,192,64675,1,0,0:0:0:0:
320,192,64675,1,0,0:0:0:0:
320,192,64822,128,0,64969:0:0:0:0:
448,192,64822,128,0,65116:0:0:0:0:
64,192,64969,1,0,0:0:0:0:
192,192,65116,128,0,65190:0:0:0:0:
320,192,65116,128,0,65190:0:0:0:0:
192,192,65264,128,0,65411:0:0:0:0:
448,192,65264,128,0,65411:0:0:0:0:
320,192,65411,1,0,0:0:0:0:
64,192,65558,128,0,65631:0:0:0:0:
320,192,65558,128,0,65631:0:0:0:0:
448,192,65631,1,0,0:0:0:0:
64,192,65705,128,0,66146:0:0:0:0:
192,192,65705,128,0,65999:0:0:0:0:
320,192,65852,1,0,0:0:0:0:
320,192,65999,1,0,0:0:0:0:
192,192,66146,128,0,66734:0:0:0:0:
448,192,66146,1,0,0:0:0:0:
448,192,66293,1,0,0:0:0:0:
64,192,66440,1,0,0:0:0:0:
320,192,66440,128,0,66587:0:0:0:0:
448,192,66587,1,0,0:0:0:0:
320,192,66661,1,0,0:0:0:0:
64,192,66734,128,0,67322:0:0:0:0:
448,192,66734,128,0,66881:0:0:0:0:
320,192,66881,1,0,0:0:0:0:
320,192,67028,1,0,0:0:0:0:
192,192,67028,128,0,67175:0:0:0:0:
448,192,67175,1,0,0:0:0:0:
320,192,67249,1,0,0:0:0:0:
448,192,67322,128,0,67911:0:0:0:0:
192,192,67322,128,0,67469:0:0:0:0:
64,192,67469,1,0,0:0:0:0:
64,192,67616,1,0,0:0:0:0:
320,192,67616,128,0,67764:0:0:0:0:
192,192,67764,128,0,67911:0:0:0:0:
64,192,67911,1,0,0:0:0:0:
320,192,67911,128,0,68058:0:0:0:0:
192,192,67984,1,0,0:0:0:0:
448,192,68058,1,0,0:0:0:0:
320,192,68131,1,0,0:0:0:0:
64,192,68205,1,0,0:0:0:0:
192,192,68205,128,0,68278:0:0:0:0:
64,192,68352,1,0,0:0:0:0:
192,192,68352,1,0,0:0:0:0:
320,192,68499,128,0,69087:0:0:0:0:
448,192,68499,1,0,0:0:0:0:
192,192,68646,1,0,0:0:0:0:
192,192,68793,1,0,0:0:0:0:
64,192,68793,128,0,68940:0:0:0:0:
448,192,68940,1,0,0:0:0:0:
64,192,69014,1,0,0:0:0:0:
192,192,69087,128,0,69675:0:0:0:0:
448,192,69087,128,0,69234:0:0:0:0:
64,192,69234,1,0,0:0:0:0:
64,192,69381,1,0,0:0:0:0:
320,192,69381,128,0,69528:0:0:0:0:
448,192,69528,1,0,0:0:0:0:
64,192,69602,1,0,0:0:0:0:
448,192,69675,128,0,70264:0:0:0:0:
320,192,69675,128,0,69822:0:0:0:0:
192,192,69822,1,0,0:0:0:0:
192,192,69969,1,0,0:0:0:0:
64,192,69969,128,0,70116:0:0:0:0:
320,192,70116,128,0,70190:0:0:0:0:
320,192,70264,1,0,0:0:0:0:
192,192,70264,128,0,70411:0:0:0:0:
320,192,70411,1,0,0:0:0:0:
64,192,70558,1,0,0:0:0:0:
448,192,70558,128,0,70705:0:0:0:0:
320,192,70631,1,0,0:0:0:0:
192,192,70705,1,0,0:0:0:0:
64,192,70778,1,0,0:0:0:0:
192,192,70852,128,0,71440:0:0:0:0:
448,192,70852,1,0,0:0:0:0:
448,192,70999,1,0,0:0:0:0:
320,192,71146,128,0,71366:0:0:0:0:
64,192,71146,128,0,71293:0:0:0:0:
448,192,71293,1,0,0:0:0:0:
64,192,71366,1,0,0:0:0:0:
320,192,71440,128,0,72028:0:0:0:0:
448,192,71440,128,0,71661:0:0:0:0:
192,192,71587,1,0,0:0:0:0:
64,192,71661,1,0,0:0:0:0:
192,192,71734,128,0,71955:0:0:0:0:
448,192,71734,128,0,71881:0:0:0:0:
64,192,71881,1,0,0:0:0:0:
448,192,72028,128,0,73205:0:0:0:0:
192,192,72028,128,0,72175:0:0:0:0:
64,192,72175,1,0,0:0:0:0:
192,192,72249,1,0,0:0:0:0:
64,192,72322,128,0,72469:0:0:0:0:
320,192,72322,128,0,72396:0:0:0:0:
320,192,72469,1,0,0:0:0:0:
64,192,72543,1,0,0:0:0:0:
320,192,72616,128,0,72837:0:0:0:0:
192,192,72616,128,0,72690:0:0:0:0:
192,192,72764,1,0,0:0:0:0:
64,192,72911,128,0,73205:0:0:0:0:
320,192,72911,128,0,73058:0:0:0:0:
192,192,73058,1,0,0:0:0:0:
192,192,73205,1,0,0:0:0:0:
448,192,73499,128,0,74087:0:0:0:0:
320,192,73499,1,0,0:0:0:0:
192,192,73793,128,0,74234:0:0:0:0:
64,192,73793,1,0,0:0:0:0:
320,192,73866,1,0,0:0:0:0:
64,192,73940,1,0,0:0:0:0:
320,192,74087,128,0,74381:0:0:0:0:
64,192,74087,1,0,0:0:0:0:
64,192,74381,128,0,74528:0:0:0:0:
448,192,74381,128,0,74969:0:0:0:0:
320,192,74675,128,0,74749:0:0:0:0:
192,192,74675,1,0,0:0:0:0:
320,192,74969,1,0,0:0:0:0:
192,192,74969,1,0,0:0:0:0:
64,192,75264,1,0,0:0:0:0:
448,192,75264,128,0,75484:0:0:0:0:
64,192,75411,128,0,75484:0:0:0:0:
192,192,75411,128,0,75558:0:0:0:0:
320,192,75558,128,0,75999:0:0:0:0:
64,192,75558,128,0,75778:0:0:0:0:
448,192,75852,128,0,75925:0:0:0:0:
192,192,75852,1,0,0:0:0:0:
448,192,75999,128,0,76146:0:0:0:0:
192,192,75999,128,0,76072:0:0:0:0:
64,192,76146,128,0,76293:0:0:0:0:
320,192,76146,128,0,76366:0:0:0:0:
192,192,76293,128,0,76440:0:0:0:0:
448,192,76440,1,0,0:0:0:0:
64,192,76440,1,0,0:0:0:0:
320,192,76587,128,0,76734:0:0:0:0:
192,192,76587,128,0,76661:0:0:0:0:
192,192,76734,128,0,76881:0:0:0:0:
448,192,76734,128,0,76808:0:0:0:0:
448,192,76881,128,0,76955:0:0:0:0:
320,192,76881,128,0,77028:0:0:0:0:
192,192,77028,128,0,77102:0:0:0:0:
64,192,77028,128,0,77249:0:0:0:0:
320,192,77175,128,0,77322:0:0:0:0:
448,192,77322,128,0,77543:0:0:0:0:
192,192,77322,128,0,77396:0:0:0:0:
64,192,77396,1,0,0:0:0:0:
320,192,77469,128,0,77616:0:0:0:0:
64,192,77616,128,0,77764:0:0:0:0:
192,192,77616,1,0,0:0:0:0:
192,192,77764,128,0,77911:0:0:0:0:
448,192,77764,1,0,0:0:0:0:
448,192,77911,128,0,78058:0:0:0:0:
64,192,77911,128,0,78131:0:0:0:0:
448,192,78205,128,0,78278:0:0:0:0:
192,192,78205,1,0,0:0:0:0:
448,192,78352,128,0,78499:0:0:0:0:
320,192,78352,128,0,78425:0:0:0:0:
64,192,78499,128,0,78646:0:0:0:0:
320,192,78499,128,0,78719:0:0:0:0:
192,192,78646,128,0,78793:0:0:0:0:
320,192,78793,1,0,0:0:0:0:
448,192,78793,128,0,78940:0:0:0:0:
320,192,78940,128,0,79087:0:0:0:0:
64,192,78940,128,0,79014:0:0:0:0:
64,192,79087,128,0,79234:0:0:0:0:
192,192,79087,128,0,79161:0:0:0:0:
448,192,79234,128,0,79308:0:0:0:0:
320,192,79234,128,0,79381:0:0:0:0:
64,192,79381,128,0,79602:0:0:0:0:
192,192,79381,128,0,79455:0:0:0:0:
448,192,79528,128,0,79675:0:0:0:0:
64,192,79675,128,0,79749:0:0:0:0:
320,192,79675,128,0,79896:0:0:0:0:
192,192,79749,1,0,0:0:0:0:
448,192,79822,128,0,79969:0:0:0:0:
64,192,79822,1,0,0:0:0:0:
192,192,79969,128,0,80264:0:0:0:0:
64,192,79969,128,0,80190:0:0:0:0:
320,192,80116,128,0,80190:0:0:0:0:
448,192,80116,1,0,0:0:0:0:
448,192,80264,128,0,80411:0:0:0:0:
64,192,80264,128,0,80337:0:0:0:0:
448,192,80558,128,0,80631:0:0:0:0:
192,192,80558,1,0,0:0:0:0:
448,192,80705,128,0,80852:0:0:0:0:
320,192,80705,128,0,80778:0:0:0:0:
64,192,80852,128,0,80999:0:0:0:0:
320,192,80852,128,0,81072:0:0:0:0:
192,192,80999,128,0,81146:0:0:0:0:
448,192,81146,1,0,0:0:0:0:
64,192,81146,1,0,0:0:0:0:
320,192,81293,128,0,81440:0:0:0:0:
192,192,81293,128,0,81366:0:0:0:0:
192,192,81440,128,0,81587:0:0:0:0:
448,192,81440,128,0,81514:0:0:0:0:
448,192,81587,128,0,81661:0:0:0:0:
320,192,81587,128,0,81734:0:0:0:0:
64,192,81734,128,0,81955:0:0:0:0:
192,192,81734,128,0,81808:0:0:0:0:
192,192,81881,128,0,82028:0:0:0:0:
448,192,81881,128,0,81955:0:0:0:0:
64,192,82028,128,0,82102:0:0:0:0:
320,192,82028,128,0,82249:0:0:0:0:
192,192,82102,128,0,82469:0:0:0:0:
64,192,82175,128,0,82322:0:0:0:0:
448,192,82175,128,0,82249:0:0:0:0:
320,192,82322,128,0,82396:0:0:0:0:
448,192,82322,128,0,82396:0:0:0:0:
320,192,82469,128,0,82616:0:0:0:0:
64,192,82469,128,0,82543:0:0:0:0:
192,192,82543,128,0,82616:0:0:0:0:
64,192,82616,128,0,82764:0:0:0:0:
448,192,82616,128,0,82837:0:0:0:0:
192,192,82764,128,0,82911:0:0:0:0:
320,192,82764,128,0,82837:0:0:0:0:
64,192,82911,1,0,0:0:0:0:
448,192,82911,128,0,82984:0:0:0:0:
448,192,83058,128,0,83205:0:0:0:0:
192,192,83058,128,0,83131:0:0:0:0:
192,192,83205,128,0,83352:0:0:0:0:
64,192,83205,128,0,83425:0:0:0:0:
320,192,83352,128,0,83499:0:0:0:0:
448,192,83499,1,0,0:0:0:0:
192,192,83499,1,0,0:0:0:0:
448,192,83646,128,0,83793:0:0:0:0:
320,192,83646,128,0,83719:0:0:0:0:
320,192,83793,128,0,84087:0:0:0:0:
192,192,83793,128,0,83866:0:0:0:0:
192,192,83940,128,0,84087:0:0:0:0:
64,192,83940,128,0,84014:0:0:0:0:
64,192,84087,128,0,84381:0:0:0:0:
448,192,84087,128,0,84234:0:0:0:0:
320,192,84234,128,0,84308:0:0:0:0:
192,192,84234,128,0,84381:0:0:0:0:
320,192,84381,128,0,84602:0:0:0:0:
448,192,84381,128,0,84528:0:0:0:0:
192,192,84528,128,0,84675:0:0:0:0:
64,192,84528,128,0,84602:0:0:0:0:
448,192,84602,1,0,0:0:0:0:
64,192,84675,128,0,84969:0:0:0:0:
320,192,84675,128,0,84749:0:0:0:0:
320,192,84822,128,0,84969:0:0:0:0:
192,192,84822,1,0,0:0:0:0:
448,192,84969,128,0,85116:0:0:0:0:
448,192,85264,128,0,85337:0:0:0:0:
64,192,85264,128,0,85558:0:0:0:0:
448,192,85411,128,0,85558:0:0:0:0:
192,192,85558,128,0,85631:0:0:0:0:
320,192,85558,128,0,85631:0:0:0:0:
192,192,85705,128,0,85778:0:0:0:0:
320,192,85705,128,0,85852:0:0:0:0:
64,192,85852,1,0,0:0:0:0:
64,192,85999,128,0,86146:0:0:0:0:
192,192,85999,128,0,86440:0:0:0:0:
320,192,86146,1,0,0:0:0:0:
320,192,86293,128,0,86440:0:0:0:0:
448,192,86293,128,0,86587:0:0:0:0:
64,192,86440,128,0,86587:0:0:0:0:
192,192,86587,128,0,86734:0:0:0:0:
320,192,86587,128,0,86881:0:0:0:0:
192,192,86881,128,0,87028:0:0:0:0:
448,192,86881,128,0,86955:0:0:0:0:
320,192,87028,128,0,87175:0:0:0:0:
448,192,87028,128,0,87175:0:0:0:0:
192,192,87175,128,0,87249:0:0:0:0:
64,192,87175,128,0,87322:0:0:0:0:
192,192,87322,128,0,87469:0:0:0:0:
64,192,87469,128,0,87764:0:0:0:0:
448,192,87469,128,0,87543:0:0:0:0:
320,192,87543,1,0,0:0:0:0:
448,192,87616,128,0,87690:0:0:0:0:
192,192,87616,1,0,0:0:0:0:
320,192,87764,128,0,87911:0:0:0:0:
192,192,87764,128,0,88205:0:0:0:0:
448,192,87911,128,0,88058:0:0:0:0:
64,192,88058,128,0,88205:0:0:0:0:
320,192,88058,128,0,88131:0:0:0:0:
320,192,88205,128,0,88499:0:0:0:0:
448,192,88205,128,0,88352:0:0:0:0:
192,192,88352,128,0,88499:0:0:0:0:
448,192,88499,128,0,88572:0:0:0:0:
64,192,88499,128,0,88572:0:0:0:0:
448,192,88646,128,0,88719:0:0:0:0:
64,192,88646,128,0,88719:0:0:0:0:
320,192,88793,128,0,88940:0:0:0:0:
64,192,88793,128,0,88940:0:0:0:0:
192,192,88940,128,0,89087:0:0:0:0:
448,192,88940,128,0,89161:0:0:0:0:
320,192,89087,1,0,0:0:0:0:
192,192,89161,1,0,0:0:0:0:
448,192,89234,128,0,89381:0:0:0:0:
64,192,89234,128,0,89381:0:0:0:0:
192,192,89381,1,0,0:0:0:0:
320,192,89381,1,0,0:0:0:0:
320,192,89528,128,0,89602:0:0:0:0:
192,192,89528,128,0,89675:0:0:0:0:
64,192,89675,128,0,89822:0:0:0:0:
320,192,89675,128,0,89969:0:0:0:0:
448,192,89969,128,0,90043:0:0:0:0:
192,192,89969,128,0,90190:0:0:0:0:
448,192,90116,128,0,90264:0:0:0:0:
192,192,90264,128,0,90411:0:0:0:0:
64,192,90264,128,0,90337:0:0:0:0:
64,192,90411,128,0,90558:0:0:0:0:
320,192,90411,128,0,90705:0:0:0:0:
192,192,90558,1,0,0:0:0:0:
64,192,90705,128,0,90852:0:0:0:0:
448,192,90705,128,0,90999:0:0:0:0:
320,192,90852,1,0,0:0:0:0:
320,192,90999,128,0,91146:0:0:0:0:
192,192,90999,128,0,91072:0:0:0:0:
192,192,91146,128,0,91293:0:0:0:0:
448,192,91146,128,0,91293:0:0:0:0:
320,192,91293,128,0,91440:0:0:0:0:
64,192,91293,128,0,91587:0:0:0:0:
192,192,91440,1,0,0:0:0:0:
320,192,91587,128,0,91661:0:0:0:0:
448,192,91587,128,0,91661:0:0:0:0:
320,192,91734,128,0,91881:0:0:0:0:
448,192,91734,128,0,92028:0:0:0:0:
192,192,91881,128,0,91955:0:0:0:0:
64,192,91881,128,0,92175:0:0:0:0:
192,192,92028,128,0,92175:0:0:0:0:
320,192,92175,128,0,92249:0:0:0:0:
448,192,92175,128,0,92322:0:0:0:0:
320,192,92322,128,0,92396:0:0:0:0:
192,192,92322,128,0,92469:0:0:0:0:
320,192,92469,128,0,92616:0:0:0:0:
64,192,92469,128,0,92690:0:0:0:0:
448,192,92616,128,0,92764:0:0:0:0:
64,192,92764,128,0,92911:0:0:0:0:
320,192,92764,128,0,93058:0:0:0:0:
192,192,92911,1,0,0:0:0:0:
64,192,93058,128,0,93278:0:0:0:0:
448,192,93058,128,0,93205:0:0:0:0:
192,192,93205,1,0,0:0:0:0:
448,192,93278,1,0,0:0:0:0:
320,192,93352,1,0,0:0:0:0:
192,192,93352,128,0,93499:0:0:0:0:
64,192,93425,1,0,0:0:0:0:
448,192,93499,1,0,0:0:0:0:
192,192,93646,128,0,93793:0:0:0:0:
320,192,93646,1,0,0:0:0:0:
64,192,93719,1,0,0:0:0:0:
448,192,93793,1,0,0:0:0:0:
448,192,93940,128,0,94381:0:0:0:0:
64,192,93940,128,0,94087:0:0:0:0:
64,192,94234,128,0,94528:0:0:0:0:
192,192,94234,128,0,94308:0:0:0:0:
320,192,94381,128,0,94675:0:0:0:0:
192,192,94381,128,0,94455:0:0:0:0:
192,192,94528,128,0,94675:0:0:0:0:
448,192,94528,128,0,94675:0:0:0:0:
64,192,94675,128,0,94822:0:0:0:0:
192,192,94822,128,0,95116:0:0:0:0:
320,192,94822,128,0,94896:0:0:0:0:
448,192,94969,128,0,95264:0:0:0:0:
320,192,94969,128,0,95043:0:0:0:0:
64,192,95116,128,0,95264:0:0:0:0:
320,192,95116,128,0,95264:0:0:0:0:
192,192,95264,128,0,95411:0:0:0:0:
448,192,95411,128,0,95558:0:0:0:0:
320,192,95411,128,0,95705:0:0:0:0:
64,192,95558,1,0,0:0:0:0:
192,192,95705,128,0,95999:0:0:0:0:
448,192,95705,128,0,95778:0:0:0:0:
448,192,95852,128,0,95999:0:0:0:0:
320,192,95852,128,0,95925:0:0:0:0:
64,192,95999,128,0,96293:0:0:0:0:
320,192,95999,128,0,96146:0:0:0:0:
448,192,96146,128,0,96219:0:0:0:0:
192,192,96146,128,0,96219:0:0:0:0:
320,192,96219,1,0,0:0:0:0:
448,192,96293,128,0,96440:0:0:0:0:
192,192,96293,128,0,96440:0:0:0:0:
64,192,96440,1,0,0:0:0:0:
192,192,96587,128,0,96881:0:0:0:0:
448,192,96587,128,0,96734:0:0:0:0:
64,192,96734,1,0,0:0:0:0:
320,192,96881,128,0,96955:0:0:0:0:
64,192,96881,128,0,97028:0:0:0:0:
320,192,97028,128,0,97175:0:0:0:0:
448,192,97028,128,0,97175:0:0:0:0:
192,192,97175,128,0,97469:0:0:0:0:
64,192,97175,128,0,97249:0:0:0:0:
64,192,97322,128,0,97469:0:0:0:0:
320,192,97322,128,0,97469:0:0:0:0:
448,192,97469,128,0,97616:0:0:0:0:
320,192,97616,128,0,97764:0:0:0:0:
192,192,97616,128,0,97690:0:0:0:0:
64,192,97764,128,0,97911:0:0:0:0:
192,192,97764,128,0,98205:0:0:0:0:
448,192,97911,128,0,97984:0:0:0:0:
320,192,97911,128,0,97984:0:0:0:0:
448,192,98058,128,0,98205:0:0:0:0:
320,192,98058,128,0,98131:0:0:0:0:
64,192,98205,128,0,98278:0:0:0:0:
320,192,98205,1,0,0:0:0:0:
64,192,98352,128,0,98499:0:0:0:0:
448,192,98352,1,0,0:0:0:0:
192,192,98499,128,0,98572:0:0:0:0:
448,192,98499,128,0,98646:0:0:0:0:
320,192,98572,1,0,0:0:0:0:
192,192,98646,128,0,98793:0:0:0:0:
64,192,98646,128,0,98793:0:0:0:0:
320,192,98793,128,0,98866:0:0:0:0:
448,192,98793,128,0,98940:0:0:0:0:
320,192,98940,128,0,99087:0:0:0:0:
64,192,98940,128,0,99014:0:0:0:0:
64,192,99087,128,0,99969:0:0:0:0:
192,192,99087,128,0,99381:0:0:0:0:
320,192,99234,128,0,99308:0:0:0:0:
320,192,99381,128,0,99528:0:0:0:0:
448,192,99381,128,0,99602:0:0:0:0:
192,192,99528,128,0,99675:0:0:0:0:
320,192,99675,128,0,99822:0:0:0:0:
448,192,99675,128,0,99822:0:0:0:0:
192,192,99822,128,0,99969:0:0:0:0:
448,192,99969,128,0,100778:0:0:0:0:
320,192,99969,128,0,100190:0:0:0:0:
192,192,100116,1,0,0:0:0:0:
320,192,100264,128,0,100337:0:0:0:0:
64,192,100264,128,0,100484:0:0:0:0:
320,192,100411,128,0,100558:0:0:0:0:
192,192,100558,128,0,100852:0:0:0:0:
64,192,100558,128,0,100631:0:0:0:0:
64,192,100705,128,0,100852:0:0:0:0:
320,192,100852,128,0,101734:0:0:0:0:
448,192,100852,128,0,101072:0:0:0:0:
192,192,100999,128,0,101146:0:0:0:0:
448,192,101146,128,0,101219:0:0:0:0:
64,192,101146,128,0,101293:0:0:0:0:
192,192,101293,128,0,101366:0:0:0:0:
448,192,101293,128,0,101514:0:0:0:0:
64,192,101440,128,0,101514:0:0:0:0:
192,192,101440,128,0,101514:0:0:0:0:
64,192,101587,128,0,101734:0:0:0:0:
448,192,101587,128,0,101661:0:0:0:0:
448,192,101734,128,0,103499:0:0:0:0:
192,192,101734,128,0,102028:0:0:0:0:
320,192,101881,128,0,102028:0:0:0:0:
64,192,102028,128,0,102175:0:0:0:0:
320,192,102175,128,0,102469:0:0:0:0:
192,192,102322,128,0,102469:0:0:0:0:
64,192,102469,128,0,102764:0:0:0:0:
192,192,102616,128,0,102764:0:0:0:0:
320,192,102764,128,0,102911:0:0:0:0:
64,192,102911,128,0,103205:0:0:0:0:
320,192,103058,128,0,103205:0:0:0:0:
192,192,103205,128,0,103278:0:0:0:0:
192,192,103352,128,0,103499:0:0:0:0:
320,192,103499,128,0,103793:0:0:0:0:
64,192,103499,128,0,103646:0:0:0:0:
192,192,103646,128,0,103793:0:0:0:0:
448,192,103646,128,0,103719:0:0:0:0:
64,192,103793,128,0,104969:0:0:0:0:
448,192,103793,128,0,104381:0:0:0:0:
192,192,104381,128,0,104969:0:0:0:0:
320,192,104969,128,0,106146:0:0:0:0:
448,192,104969,128,0,105190:0:0:0:0:
448,192,105264,128,0,105558:0:0:0:0:
64,192,105264,128,0,105411:0:0:0:0:
64,192,105558,128,0,105852:0:0:0:0:
192,192,105558,128,0,105705:0:0:0:0:
192,192,105852,128,0,106072:0:0:0:0:
448,192,105852,128,0,106146:0:0:0:0:
192,192,106146,128,0,108425:0:0:0:0:
64,192,106146,128,0,106734:0:0:0:0:
448,192,106734,128,0,107249:0:0:0:0:
320,192,106734,128,0,107028:0:0:0:0:
64,192,107322,128,0,107616:0:0:0:0:
448,192,107322,128,0,107911:0:0:0:0:
320,192,107518,128,0,107616:0:0:0:0:
64,192,107714,128,0,107813:0:0:0:0:
64,192,107911,128,0,108499:0:0:0:0:
320,192,107911,128,0,108499:0:0:0:0:
448,192,108499,128,0,109675:0:0:0:0:
192,192,108499,128,0,108793:0:0:0:0:
320,192,108646,128,0,108793:0:0:0:0:
64,192,108793,128,0,108940:0:0:0:0:
192,192,108940,128,0,109087:0:0:0:0:
320,192,109087,128,0,109234:0:0:0:0:
64,192,109087,128,0,109381:0:0:0:0:
192,192,109234,128,0,109381:0:0:0:0:
320,192,109381,128,0,109528:0:0:0:0:
64,192,109528,128,0,109675:0:0:0:0:
192,192,109675,128,0,110852:0:0:0:0:
320,192,109675,128,0,109969:0:0:0:0:
448,192,109969,128,0,110264:0:0:0:0:
64,192,110264,128,0,110484:0:0:0:0:
64,192,110558,128,0,110852:0:0:0:0:
448,192,110558,128,0,110778:0:0:0:0:
448,192,110852,128,0,112028:0:0:0:0:
320,192,110852,128,0,111440:0:0:0:0:
192,192,110999,128,0,111146:0:0:0:0:
64,192,111146,1,0,0:0:0:0:
192,192,111440,128,0,112028:0:0:0:0:
64,192,111440,128,0,111587:0:0:0:0:
320,192,111587,128,0,111734:0:0:0:0:
64,192,111734,128,0,111881:0:0:0:0:
320,192,111881,128,0,111955:0:0:0:0:
320,192,112028,128,0,112911:0:0:0:0:
64,192,112028,128,0,112616:0:0:0:0:
448,192,112322,128,0,112543:0:0:0:0:
192,192,112616,128,0,112837:0:0:0:0:
448,192,112616,128,0,113205:0:0:0:0:
64,192,112911,128,0,113058:0:0:0:0:
192,192,112911,128,0,113131:0:0:0:0:
64,192,113205,128,0,113793:0:0:0:0:
192,192,113205,128,0,113719:0:0:0:0:
192,192,113793,128,0,113989:0:0:0:0:
448,192,113793,128,0,114185:0:0:0:0:
320,192,113989,128,0,114185:0:0:0:0:
192,192,114185,128,0,114381:0:0:0:0:
448,192,114381,128,0,115558:0:0:0:0:
64,192,114381,128,0,114675:0:0:0:0:
192,192,114675,128,0,114969:0:0:0:0:
320,192,114675,128,0,114896:0:0:0:0:
64,192,114969,128,0,115116:0:0:0:0:
320,192,114969,128,0,115411:0:0:0:0:
192,192,115264,128,0,115558:0:0:0:0:
64,192,115264,128,0,115411:0:0:0:0:
320,192,115558,128,0,116146:0:0:0:0:
64,192,115558,128,0,115852:0:0:0:0:
192,192,116146,128,0,116293:0:0:0:0:
64,192,116146,128,0,116734:0:0:0:0:
448,192,116293,128,0,116587:0:0:0:0:
320,192,116293,128,0,116440:0:0:0:0:
192,192,116440,128,0,116514:0:0:0:0:
320,192,116587,128,0,116734:0:0:0:0:
448,192,116734,128,0,117322:0:0:0:0:
192,192,116734,128,0,117249:0:0:0:0:
192,192,117322,128,0,117911:0:0:0:0:
320,192,117322,128,0,117764:0:0:0:0:
320,192,117911,128,0,118205:0:0:0:0:
64,192,117911,128,0,118058:0:0:0:0:
192,192,118058,128,0,118205:0:0:0:0:
448,192,118205,128,0,118499:0:0:0:0:
64,192,118205,128,0,118425:0:0:0:0:
320,192,118352,128,0,118499:0:0:0:0:
64,192,118499,128,0,118793:0:0:0:0:
192,192,118499,128,0,118719:0:0:0:0:
320,192,118793,128,0,119087:0:0:0:0:
192,192,118793,128,0,119381:0:0:0:0:
448,192,119087,128,0,119675:0:0:0:0:
64,192,119087,128,0,119381:0:0:0:0:
320,192,119381,128,0,119675:0:0:0:0:
64,192,119675,128,0,120264:0:0:0:0:
192,192,119675,128,0,119822:0:0:0:0:
192,192,119969,128,0,120116:0:0:0:0:
448,192,119969,128,0,120264:0:0:0:0:
192,192,120264,128,0,120558:0:0:0:0:
320,192,120264,128,0,120337:0:0:0:0:
320,192,120484,128,0,120558:0:0:0:0:
448,192,120558,128,0,120852:0:0:0:0:
64,192,120558,128,0,120852:0:0:0:0:
320,192,120705,128,0,120778:0:0:0:0:
192,192,120852,128,0,121440:0:0:0:0:
320,192,120852,128,0,121072:0:0:0:0:
64,192,121146,128,0,121366:0:0:0:0:
320,192,121146,128,0,121440:0:0:0:0:
448,192,121293,128,0,121366:0:0:0:0:
64,192,121440,128,0,122616:0:0:0:0:
448,192,121440,128,0,121955:0:0:0:0:
320,192,121734,128,0,121808:0:0:0:0:
320,192,121881,128,0,121955:0:0:0:0:
448,192,122028,128,0,122102:0:0:0:0:
320,192,122175,128,0,122249:0:0:0:0:
192,192,122322,128,0,122396:0:0:0:0:
448,192,122322,128,0,122543:0:0:0:0:
192,192,122469,128,0,122543:0:0:0:0:
448,192,122616,128,0,123719:0:0:0:0:
320,192,122616,128,0,122911:0:0:0:0:
64,192,122911,128,0,122984:0:0:0:0:
192,192,122911,128,0,123131:0:0:0:0:
64,192,123058,128,0,123131:0:0:0:0:
320,192,123205,128,0,123278:0:0:0:0:
192,192,123205,128,0,123352:0:0:0:0:
64,192,123352,128,0,123425:0:0:0:0:
192,192,123499,128,0,123572:0:0:0:0:
64,192,123499,128,0,123719:0:0:0:0:
192,192,123646,128,0,123719:0:0:0:0:
448,192,123793,128,0,124896:0:0:0:0:
320,192,123793,128,0,124308:0:0:0:0:
64,192,124087,128,0,124161:0:0:0:0:
64,192,124234,128,0,124308:0:0:0:0:
320,192,124381,128,0,124455:0:0:0:0:
64,192,124528,128,0,124602:0:0:0:0:
192,192,124675,128,0,124749:0:0:0:0:
64,192,124675,128,0,124969:0:0:0:0:
192,192,124822,128,0,124896:0:0:0:0:
448,192,124969,128,0,126146:0:0:0:0:
320,192,124969,128,0,125484:0:0:0:0:
64,192,125264,128,0,125337:0:0:0:0:
64,192,125411,128,0,125484:0:0:0:0:
320,192,125558,128,0,125631:0:0:0:0:
64,192,125705,128,0,125778:0:0:0:0:
320,192,125852,128,0,125925:0:0:0:0:
320,192,125999,128,0,126072:0:0:0:0:
64,192,126146,128,0,127322:0:0:0:0:
192,192,126146,128,0,126661:0:0:0:0:
448,192,126440,128,0,126734:0:0:0:0:
320,192,126587,128,0,126734:0:0:0:0:
192,192,126734,128,0,127028:0:0:0:0:
320,192,126881,128,0,127028:0:0:0:0:
448,192,127028,128,0,127249:0:0:0:0:
320,192,127175,128,0,127322:0:0:0:0:
192,192,127322,128,0,129675:0:0:0:0:
448,192,127322,128,0,128499:0:0:0:0:
320,192,128205,128,0,128425:0:0:0:0:
320,192,128499,128,0,129602:0:0:0:0:
448,192,129675,128,0,132028:0:0:0:0:
64,192,129675,128,0,130852:0:0:0:0:
320,192,129675,128,0,134087:0:0:0:0:
64,192,132028,128,0,133205:0:0:0:0:
192,192,133205,1,0,0:0:0:0:
192,192,133352,1,0,0:0:0:0:
192,192,133499,1,0,0:0:0:0:
192,192,133646,1,0,0:0:0:0:
192,192,133793,1,0,0:0:0:0:
192,192,133940,1,0,0:0:0:0:
64,192,134087,128,0,134308:0:0:0:0:
448,192,134087,128,0,134308:0:0:0:0:
448,192,134381,1,0,0:0:0:0:
192,192,134381,128,0,134969:0:0:0:0:
448,192,134675,1,0,0:0:0:0:
320,192,134675,1,0,0:0:0:0:
64,192,134969,1,0,0:0:0:0:
320,192,134969,1,0,0:0:0:0:
320,192,135116,1,0,0:0:0:0:
64,192,135264,1,0,0:0:0:0:
192,192,135264,1,0,0:0:0:0:
448,192,135411,128,0,135631:0:0:0:0:
64,192,135558,1,0,0:0:0:0:
320,192,135558,1,0,0:0:0:0:
448,192,135705,128,0,135852:0:0:0:0:
64,192,135852,1,0,0:0:0:0:
192,192,135852,1,0,0:0:0:0:
64,192,136146,1,0,0:0:0:0:
448,192,136146,1,0,0:0:0:0:
192,192,136293,1,0,0:0:0:0:
64,192,136440,1,0,0:0:0:0:
320,192,136440,1,0,0:0:0:0:
448,192,136587,1,0,0:0:0:0:
320,192,136734,1,0,0:0:0:0:
64,192,136734,128,0,137322:0:0:0:0:
320,192,137028,1,0,0:0:0:0:
448,192,137028,1,0,0:0:0:0:
320,192,137322,1,0,0:0:0:0:
192,192,137322,1,0,0:0:0:0:
448,192,137469,1,0,0:0:0:0:
320,192,137616,1,0,0:0:0:0:
192,192,137616,1,0,0:0:0:0:
64,192,137764,128,0,137984:0:0:0:0:
320,192,137911,1,0,0:0:0:0:
448,192,137911,1,0,0:0:0:0:
64,192,138058,128,0,138205:0:0:0:0:
320,192,138205,1,0,0:0:0:0:
192,192,138205,1,0,0:0:0:0:
448,192,138352,1,0,0:0:0:0:
320,192,138499,1,0,0:0:0:0:
64,192,138499,1,0,0:0:0:0:
64,192,138646,1,0,0:0:0:0:
320,192,138793,1,0,0:0:0:0:
448,192,138793,1,0,0:0:0:0:
448,192,138940,1,0,0:0:0:0:
192,192,139087,1,0,0:0:0:0:
320,192,139087,128,0,139381:0:0:0:0:
64,192,139234,1,0,0:0:0:0:
192,192,139381,1,0,0:0:0:0:
448,192,139381,1,0,0:0:0:0:
192,192,139675,1,0,0:0:0:0:
320,192,139675,1,0,0:0:0:0:
320,192,139822,1,0,0:0:0:0:
192,192,139969,1,0,0:0:0:0:
64,192,139969,1,0,0:0:0:0:
448,192,140116,1,0,0:0:0:0:
192,192,140264,1,0,0:0:0:0:
64,192,140264,128,0,140558:0:0:0:0:
448,192,140558,1,0,0:0:0:0:
192,192,140558,1,0,0:0:0:0:
192,192,140705,1,0,0:0:0:0:
448,192,140852,1,0,0:0:0:0:
320,192,140852,1,0,0:0:0:0:
64,192,140999,1,0,0:0:0:0:
320,192,141146,1,0,0:0:0:0:
192,192,141146,1,0,0:0:0:0:
192,192,141293,1,0,0:0:0:0:
64,192,141440,1,0,0:0:0:0:
320,192,141440,128,0,142028:0:0:0:0:
64,192,141734,1,0,0:0:0:0:
448,192,141734,1,0,0:0:0:0:
448,192,141881,1,0,0:0:0:0:
64,192,142028,1,0,0:0:0:0:
192,192,142028,1,0,0:0:0:0:
320,192,142175,128,0,142396:0:0:0:0:
64,192,142322,1,0,0:0:0:0:
448,192,142322,1,0,0:0:0:0:
320,192,142469,128,0,142616:0:0:0:0:
448,192,142616,1,0,0:0:0:0:
192,192,142616,128,0,142911:0:0:0:0:
320,192,142714,128,0,142813:0:0:0:0:
64,192,142813,128,0,142911:0:0:0:0:
320,192,142911,128,0,143205:0:0:0:0:
448,192,143009,128,0,143107:0:0:0:0:
192,192,143107,128,0,143205:0:0:0:0:
64,192,143205,128,0,143499:0:0:0:0:
448,192,143303,128,0,143401:0:0:0:0:
320,192,143401,128,0,143499:0:0:0:0:
192,192,143499,128,0,143695:0:0:0:0:
448,192,143499,128,0,143695:0:0:0:0:
64,192,143597,128,0,143793:0:0:0:0:
320,192,143695,128,0,143793:0:0:0:0:
192,192,143793,128,0,144087:0:0:0:0:
448,192,143793,128,0,143940:0:0:0:0:
320,192,144087,128,0,144381:0:0:0:0:
64,192,144087,128,0,144234:0:0:0:0:
192,192,144381,128,0,144455:0:0:0:0:
448,192,144381,128,0,144675:0:0:0:0:
192,192,144528,128,0,144675:0:0:0:0:
320,192,144528,128,0,144822:0:0:0:0:
64,192,144675,1,0,0:0:0:0:
64,192,144822,128,0,145264:0:0:0:0:
192,192,144822,128,0,145264:0:0:0:0:
448,192,144969,128,0,145190:0:0:0:0:
320,192,145116,1,0,0:0:0:0:
448,192,145264,128,0,145484:0:0:0:0:
320,192,145264,1,0,0:0:0:0:
320,192,145558,128,0,145631:0:0:0:0:
448,192,145558,128,0,145778:0:0:0:0:
320,192,145705,128,0,145925:0:0:0:0:
64,192,145705,128,0,145999:0:0:0:0:
448,192,145852,128,0,146146:0:0:0:0:
192,192,145999,128,0,146440:0:0:0:0:
320,192,145999,128,0,146072:0:0:0:0:
64,192,146146,128,0,146366:0:0:0:0:
320,192,146146,128,0,146440:0:0:0:0:
448,192,146293,1,0,0:0:0:0:
64,192,146440,128,0,146661:0:0:0:0:
448,192,146440,128,0,146661:0:0:0:0:
448,192,146734,128,0,146808:0:0:0:0:
64,192,146734,128,0,146955:0:0:0:0:
448,192,146881,128,0,147175:0:0:0:0:
192,192,146881,128,0,147102:0:0:0:0:
64,192,147028,128,0,147322:0:0:0:0:
320,192,147028,1,0,0:0:0:0:
320,192,147175,128,0,147322:0:0:0:0:
192,192,147175,128,0,147249:0:0:0:0:
192,192,147322,128,0,147543:0:0:0:0:
320,192,147469,128,0,147616:0:0:0:0:
448,192,147469,128,0,147543:0:0:0:0:
192,192,147616,128,0,147911:0:0:0:0:
448,192,147616,128,0,147911:0:0:0:0:
64,192,147764,1,0,0:0:0:0:
320,192,147911,128,0,148058:0:0:0:0:
64,192,147911,128,0,148205:0:0:0:0:
448,192,148058,128,0,148499:0:0:0:0:
192,192,148058,128,0,148499:0:0:0:0:
320,192,148205,128,0,148499:0:0:0:0:
64,192,148352,1,0,0:0:0:0:
64,192,148499,128,0,148719:0:0:0:0:
448,192,148646,1,0,0:0:0:0:
192,192,148793,128,0,149087:0:0:0:0:
64,192,148793,128,0,149087:0:0:0:0:
320,192,148940,1,0,0:0:0:0:
320,192,149087,128,0,149381:0:0:0:0:
448,192,149087,128,0,149308:0:0:0:0:
192,192,149234,1,0,0:0:0:0:
192,192,149381,128,0,149675:0:0:0:0:
448,192,149381,128,0,149602:0:0:0:0:
64,192,149528,1,0,0:0:0:0:
448,192,149675,128,0,149969:0:0:0:0:
320,192,149675,128,0,149896:0:0:0:0:
192,192,149822,1,0,0:0:0:0:
64,192,149969,128,0,150190:0:0:0:0:
320,192,149969,128,0,150264:0:0:0:0:
192,192,150116,1,0,0:0:0:0:
64,192,150264,128,0,150558:0:0:0:0:
448,192,150264,128,0,150484:0:0:0:0:
320,192,150337,1,0,0:0:0:0:
192,192,150411,1,0,0:0:0:0:
192,192,150558,128,0,150852:0:0:0:0:
448,192,150558,128,0,150852:0:0:0:0:
320,192,150705,1,0,0:0:0:0:
64,192,150852,128,0,151440:0:0:0:0:
320,192,150852,1,0,0:0:0:0:
448,192,150999,1,0,0:0:0:0:
192,192,151146,128,0,151440:0:0:0:0:
448,192,151146,1,0,0:0:0:0:
320,192,151293,1,0,0:0:0:0:
320,192,151440,128,0,151734:0:0:0:0:
448,192,151440,128,0,151955:0:0:0:0:
64,192,151587,1,0,0:0:0:0:
192,192,151734,128,0,152028:0:0:0:0:
64,192,151734,1,0,0:0:0:0:
320,192,151881,1,0,0:0:0:0:
320,192,152028,128,0,152616:0:0:0:0:
448,192,152028,128,0,152249:0:0:0:0:
64,192,152175,1,0,0:0:0:0:
192,192,152249,1,0,0:0:0:0:
64,192,152322,128,0,152543:0:0:0:0:
448,192,152322,128,0,152543:0:0:0:0:
192,192,152469,1,0,0:0:0:0:
64,192,152616,128,0,152911:0:0:0:0:
448,192,152616,128,0,152911:0:0:0:0:
320,192,152690,1,0,0:0:0:0:
192,192,152764,1,0,0:0:0:0:
192,192,152911,128,0,153205:0:0:0:0:
320,192,152911,1,0,0:0:0:0:
320,192,153058,1,0,0:0:0:0:
448,192,153205,128,0,153278:0:0:0:0:
64,192,153205,128,0,153352:0:0:0:0:
448,192,153352,128,0,153425:0:0:0:0:
192,192,153352,128,0,153499:0:0:0:0:
64,192,153499,128,0,153719:0:0:0:0:
448,192,153499,128,0,153646:0:0:0:0:
192,192,153646,128,0,153719:0:0:0:0:
320,192,153646,128,0,153793:0:0:0:0:
448,192,153793,128,0,154014:0:0:0:0:
192,192,153793,128,0,153940:0:0:0:0:
320,192,153940,128,0,154087:0:0:0:0:
64,192,154087,128,0,154161:0:0:0:0:
192,192,154087,128,0,154308:0:0:0:0:
64,192,154234,128,0,154381:0:0:0:0:
320,192,154234,128,0,154308:0:0:0:0:
320,192,154381,128,0,154602:0:0:0:0:
448,192,154381,128,0,154455:0:0:0:0:
448,192,154528,128,0,154675:0:0:0:0:
192,192,154528,128,0,154602:0:0:0:0:
192,192,154675,128,0,154896:0:0:0:0:
64,192,154675,128,0,154969:0:0:0:0:
320,192,154822,1,0,0:0:0:0:
448,192,154969,128,0,155264:0:0:0:0:
192,192,154969,128,0,155116:0:0:0:0:
64,192,155116,1,0,0:0:0:0:
64,192,155264,128,0,155558:0:0:0:0:
320,192,155264,128,0,155411:0:0:0:0:
448,192,155411,1,0,0:0:0:0:
192,192,155484,1,0,0:0:0:0:
320,192,155558,128,0,155631:0:0:0:0:
448,192,155558,128,0,155631:0:0:0:0:
320,192,155705,128,0,155852:0:0:0:0:
448,192,155705,128,0,155999:0:0:0:0:
192,192,155852,128,0,156072:0:0:0:0:
64,192,155852,128,0,155925:0:0:0:0:
64,192,155999,128,0,156146:0:0:0:0:
320,192,155999,128,0,156072:0:0:0:0:
192,192,156146,128,0,156366:0:0:0:0:
448,192,156146,128,0,156440:0:0:0:0:
320,192,156293,128,0,156440:0:0:0:0:
64,192,156440,128,0,156661:0:0:0:0:
192,192,156440,128,0,156514:0:0:0:0:
192,192,156587,128,0,156661:0:0:0:0:
448,192,156587,128,0,156734:0:0:0:0:
192,192,156734,128,0,156881:0:0:0:0:
320,192,156734,128,0,156808:0:0:0:0:
64,192,156808,1,0,0:0:0:0:
320,192,156881,128,0,157028:0:0:0:0:
192,192,156955,1,0,0:0:0:0:
448,192,157028,128,0,157175:0:0:0:0:
64,192,157028,128,0,157322:0:0:0:0:
192,192,157175,1,0,0:0:0:0:
192,192,157322,128,0,157469:0:0:0:0:
320,192,157322,128,0,157616:0:0:0:0:
448,192,157396,1,0,0:0:0:0:
64,192,157469,1,0,0:0:0:0:
192,192,157543,1,0,0:0:0:0:
64,192,157616,128,0,157690:0:0:0:0:
448,192,157616,128,0,157837:0:0:0:0:
320,192,157690,1,0,0:0:0:0:
192,192,157764,1,0,0:0:0:0:
64,192,157764,128,0,157837:0:0:0:0:
320,192,157837,1,0,0:0:0:0:
448,192,157911,128,0,158499:0:0:0:0:
192,192,157911,128,0,158205:0:0:0:0:
64,192,157911,128,0,158352:0:0:0:0:
320,192,158205,128,0,158278:0:0:0:0:
320,192,158352,128,0,158499:0:0:0:0:
192,192,158499,128,0,158572:0:0:0:0:
192,192,158646,128,0,158719:0:0:0:0:
192,192,158793,128,0,159087:0:0:0:0:
320,192,158793,128,0,158940:0:0:0:0:
448,192,159087,128,0,159675:0:0:0:0:
64,192,159087,128,0,159381:0:0:0:0:
192,192,159234,1,0,0:0:0:0:
192,192,159381,1,0,0:0:0:0:
320,192,159381,128,0,159675:0:0:0:0:
64,192,159675,1,0,0:0:0:0:
192,192,159749,1,0,0:0:0:0:
320,192,159749,1,0,0:0:0:0:
64,192,159822,1,0,0:0:0:0:
448,192,159969,128,0,160264:0:0:0:0:
192,192,159969,128,0,160264:0:0:0:0:
320,192,160264,128,0,160558:0:0:0:0:
64,192,160264,128,0,160558:0:0:0:0:
192,192,160558,128,0,160852:0:0:0:0:
448,192,160558,128,0,160778:0:0:0:0:
64,192,160852,128,0,161146:0:0:0:0:
448,192,160852,128,0,161146:0:0:0:0:
320,192,160999,1,0,0:0:0:0:
192,192,161146,128,0,161734:0:0:0:0:
320,192,161146,128,0,161440:0:0:0:0:
64,192,161440,1,0,0:0:0:0:
64,192,161587,1,0,0:0:0:0:
448,192,161734,128,0,162175:0:0:0:0:
320,192,161734,128,0,161955:0:0:0:0:
64,192,161881,1,0,0:0:0:0:
320,192,162028,1,0,0:0:0:0:
64,192,162102,1,0,0:0:0:0:
320,192,162175,1,0,0:0:0:0:
64,192,162322,128,0,162616:0:0:0:0:
192,192,162322,128,0,162543:0:0:0:0:
320,192,162616,128,0,162911:0:0:0:0:
192,192,162616,128,0,162911:0:0:0:0:
64,192,162911,128,0,163205:0:0:0:0:
448,192,162911,128,0,163131:0:0:0:0:
320,192,163058,1,0,0:0:0:0:
192,192,163205,128,0,163499:0:0:0:0:
448,192,163205,128,0,163499:0:0:0:0:
64,192,163352,1,0,0:0:0:0:
320,192,163499,128,0,163793:0:0:0:0:
64,192,163499,128,0,163719:0:0:0:0:
192,192,163646,1,0,0:0:0:0:
448,192,163793,128,0,164381:0:0:0:0:
64,192,163793,128,0,163940:0:0:0:0:
192,192,163940,1,0,0:0:0:0:
64,192,164087,128,0,164308:0:0:0:0:
320,192,164087,128,0,164161:0:0:0:0:
320,192,164234,128,0,164308:0:0:0:0:
192,192,164381,128,0,164455:0:0:0:0:
64,192,164455,1,0,0:0:0:0:
448,192,164455,1,0,0:0:0:0:
320,192,164528,128,0,164602:0:0:0:0:
192,192,164675,128,0,164749:0:0:0:0:
64,192,164675,128,0,164749:0:0:0:0:
192,192,164822,128,0,164969:0:0:0:0:
64,192,164822,128,0,164969:0:0:0:0:
448,192,164969,128,0,165264:0:0:0:0:
320,192,164969,128,0,165190:0:0:0:0:
64,192,165264,128,0,165558:0:0:0:0:
320,192,165264,128,0,165484:0:0:0:0:
192,192,165411,1,0,0:0:0:0:
192,192,165558,128,0,165852:0:0:0:0:
448,192,165558,128,0,165778:0:0:0:0:
64,192,165631,128,0,165705:0:0:0:0:
320,192,165705,1,0,0:0:0:0:
320,192,165852,128,0,166146:0:0:0:0:
448,192,165852,128,0,166146:0:0:0:0:
64,192,165925,128,0,165999:0:0:0:0:
192,192,165999,1,0,0:0:0:0:
64,192,166146,128,0,166734:0:0:0:0:
192,192,166146,128,0,166293:0:0:0:0:
448,192,166219,128,0,166293:0:0:0:0:
320,192,166293,128,0,166366:0:0:0:0:
192,192,166366,128,0,166440:0:0:0:0:
448,192,166440,128,0,166514:0:0:0:0:
320,192,166440,1,0,0:0:0:0:
192,192,166514,128,0,166587:0:0:0:0:
448,192,166587,128,0,166661:0:0:0:0:
320,192,166661,128,0,166734:0:0:0:0:
192,192,166734,128,0,166881:0:0:0:0:
448,192,166734,1,0,0:0:0:0:
320,192,166808,128,0,166881:0:0:0:0:
448,192,166881,128,0,166955:0:0:0:0:
64,192,166881,1,0,0:0:0:0:
192,192,166955,128,0,167028:0:0:0:0:
320,192,167028,128,0,167322:0:0:0:0:
448,192,167028,128,0,167175:0:0:0:0:
192,192,167102,128,0,167175:0:0:0:0:
64,192,167175,128,0,167249:0:0:0:0:
192,192,167249,128,0,167322:0:0:0:0:
448,192,167322,128,0,167911:0:0:0:0:
64,192,167322,128,0,167616:0:0:0:0:
192,192,167616,128,0,167690:0:0:0:0:
320,192,167616,128,0,167837:0:0:0:0:
192,192,167764,128,0,167911:0:0:0:0:
320,192,167911,128,0,167984:0:0:0:0:
320,192,168058,128,0,168205:0:0:0:0:
64,192,168205,128,0,168499:0:0:0:0:
448,192,168205,128,0,168499:0:0:0:0:
320,192,168499,128,0,169087:0:0:0:0:
192,192,168499,128,0,168572:0:0:0:0:
192,192,168646,1,0,0:0:0:0:
448,192,168793,1,0,0:0:0:0:
64,192,168793,128,0,168940:0:0:0:0:
192,192,168940,1,0,0:0:0:0:
448,192,169014,1,0,0:0:0:0:
192,192,169087,1,0,0:0:0:0:
64,192,169161,1,0,0:0:0:0:
448,192,169161,1,0,0:0:0:0:
320,192,169234,1,0,0:0:0:0:
64,192,169381,128,0,169675:0:0:0:0:
448,192,169381,128,0,169602:0:0:0:0:
320,192,169675,128,0,169969:0:0:0:0:
448,192,169675,128,0,169896:0:0:0:0:
64,192,169822,1,0,0:0:0:0:
192,192,169969,128,0,170264:0:0:0:0:
448,192,169969,128,0,170264:0:0:0:0:
320,192,170116,1,0,0:0:0:0:
64,192,170264,128,0,170558:0:0:0:0:
320,192,170264,128,0,170484:0:0:0:0:
192,192,170411,1,0,0:0:0:0:
448,192,170558,128,0,171146:0:0:0:0:
320,192,170558,128,0,170852:0:0:0:0:
192,192,170705,1,0,0:0:0:0:
64,192,170852,1,0,0:0:0:0:
64,192,170999,1,0,0:0:0:0:
192,192,171146,128,0,171440:0:0:0:0:
64,192,171146,128,0,171366:0:0:0:0:
448,192,171219,1,0,0:0:0:0:
320,192,171293,1,0,0:0:0:0:
64,192,171440,128,0,171734:0:0:0:0:
448,192,171440,128,0,171734:0:0:0:0:
320,192,171514,1,0,0:0:0:0:
192,192,171587,1,0,0:0:0:0:
320,192,171734,128,0,172028:0:0:0:0:
192,192,171734,128,0,171955:0:0:0:0:
64,192,171881,1,0,0:0:0:0:
192,192,172028,128,0,172616:0:0:0:0:
448,192,172028,128,0,172249:0:0:0:0:
320,192,172175,1,0,0:0:0:0:
64,192,172322,1,0,0:0:0:0:
448,192,172322,128,0,172469:0:0:0:0:
320,192,172469,1,0,0:0:0:0:
320,192,172616,128,0,172764:0:0:0:0:
448,192,172616,128,0,173205:0:0:0:0:
192,192,172764,1,0,0:0:0:0:
320,192,172837,1,0,0:0:0:0:
64,192,172911,128,0,173058:0:0:0:0:
192,192,172911,1,0,0:0:0:0:
320,192,173058,1,0,0:0:0:0:
320,192,173205,128,0,173352:0:0:0:0:
64,192,173205,128,0,173793:0:0:0:0:
448,192,173352,1,0,0:0:0:0:
192,192,173425,1,0,0:0:0:0:
320,192,173499,128,0,173646:0:0:0:0:
448,192,173499,1,0,0:0:0:0:
192,192,173646,1,0,0:0:0:0:
448,192,173793,1,0,0:0:0:0:
192,192,173793,128,0,173940:0:0:0:0:
320,192,173940,128,0,174087:0:0:0:0:
448,192,174087,1,0,0:0:0:0:
192,192,174087,128,0,174234:0:0:0:0:
64,192,174234,128,0,174381:0:0:0:0:
448,192,174308,1,0,0:0:0:0:
320,192,174381,128,0,174455:0:0:0:0:
192,192,174381,128,0,174969:0:0:0:0:
320,192,174528,1,0,0:0:0:0:
64,192,174675,1,0,0:0:0:0:
448,192,174675,128,0,174822:0:0:0:0:
320,192,174822,1,0,0:0:0:0:
448,192,174969,128,0,175116:0:0:0:0:
320,192,174969,128,0,175558:0:0:0:0:
64,192,175116,1,0,0:0:0:0:
64,192,175264,128,0,175411:0:0:0:0:
448,192,175264,1,0,0:0:0:0:
192,192,175411,1,0,0:0:0:0:
448,192,175484,1,0,0:0:0:0:
192,192,175558,128,0,175705:0:0:0:0:
64,192,175558,128,0,176146:0:0:0:0:
320,192,175705,1,0,0:0:0:0:
448,192,175778,1,0,0:0:0:0:
192,192,175852,128,0,175999:0:0:0:0:
320,192,175852,1,0,0:0:0:0:
448,192,175999,1,0,0:0:0:0:
192,192,176072,1,0,0:0:0:0:
320,192,176146,1,0,0:0:0:0:
448,192,176146,128,0,176293:0:0:0:0:
192,192,176219,1,0,0:0:0:0:
64,192,176293,1,0,0:0:0:0:
192,192,176440,1,0,0:0:0:0:
320,192,176440,128,0,176587:0:0:0:0:
192,192,176587,1,0,0:0:0:0:
448,192,176661,1,0,0:0:0:0:
64,192,176734,128,0,176881:0:0:0:0:
320,192,176734,128,0,177322:0:0:0:0:
448,192,176881,1,0,0:0:0:0:
192,192,177028,128,0,177175:0:0:0:0:
64,192,177028,128,0,177322:0:0:0:0:
448,192,177175,1,0,0:0:0:0:
448,192,177322,128,0,177469:0:0:0:0:
192,192,177322,128,0,177911:0:0:0:0:
64,192,177469,1,0,0:0:0:0:
448,192,177543,1,0,0:0:0:0:
64,192,177616,128,0,177837:0:0:0:0:
320,192,177616,128,0,177837:0:0:0:0:
448,192,177764,1,0,0:0:0:0:
320,192,177911,128,0,178131:0:0:0:0:
64,192,177911,128,0,179087:0:0:0:0:
448,192,178058,1,0,0:0:0:0:
320,192,178205,128,0,178352:0:0:0:0:
192,192,178205,128,0,178425:0:0:0:0:
448,192,178352,1,0,0:0:0:0:
320,192,178425,1,0,0:0:0:0:
448,192,178499,128,0,178646:0:0:0:0:
192,192,178499,128,0,178572:0:0:0:0:
320,192,178572,1,0,0:0:0:0:
192,192,178646,1,0,0:0:0:0:
448,192,178719,1,0,0:0:0:0:
192,192,178793,128,0,179014:0:0:0:0:
320,192,178793,128,0,178866:0:0:0:0:
320,192,178940,1,0,0:0:0:0:
448,192,179087,128,0,179234:0:0:0:0:
192,192,179087,1,0,0:0:0:0:
448,192,179381,128,0,179969:0:0:0:0:
320,192,179381,1,0,0:0:0:0:
192,192,179675,128,0,180116:0:0:0:0:
64,192,179675,1,0,0:0:0:0:
320,192,179749,1,0,0:0:0:0:
64,192,179822,1,0,0:0:0:0:
320,192,179969,128,0,180264:0:0:0:0:
64,192,179969,1,0,0:0:0:0:
64,192,180264,128,0,180411:0:0:0:0:
448,192,180264,128,0,180852:0:0:0:0:
320,192,180558,128,0,180631:0:0:0:0:
192,192,180558,1,0,0:0:0:0:
320,192,180852,1,0,0:0:0:0:
192,192,180852,1,0,0:0:0:0:
448,192,181146,1,0,0:0:0:0:
64,192,181146,128,0,181366:0:0:0:0:
448,192,181293,128,0,181366:0:0:0:0:
320,192,181293,128,0,181440:0:0:0:0:
192,192,181440,128,0,181881:0:0:0:0:
448,192,181440,128,0,181661:0:0:0:0:
64,192,181734,128,0,181808:0:0:0:0:
320,192,181734,1,0,0:0:0:0:
64,192,181881,128,0,182028:0:0:0:0:
320,192,181881,128,0,181955:0:0:0:0:
448,192,182028,128,0,182175:0:0:0:0:
192,192,182028,128,0,182249:0:0:0:0:
320,192,182175,128,0,182322:0:0:0:0:
64,192,182322,1,0,0:0:0:0:
448,192,182322,1,0,0:0:0:0:
192,192,182469,128,0,182616:0:0:0:0:
320,192,182469,128,0,182543:0:0:0:0:
320,192,182616,128,0,182764:0:0:0:0:
64,192,182616,128,0,182690:0:0:0:0:
64,192,182764,128,0,182837:0:0:0:0:
192,192,182764,128,0,182911:0:0:0:0:
320,192,182911,128,0,182984:0:0:0:0:
448,192,182911,128,0,183131:0:0:0:0:
192,192,183058,128,0,183205:0:0:0:0:
64,192,183205,128,0,183425:0:0:0:0:
448,192,183205,128,0,183278:0:0:0:0:
320,192,183278,1,0,0:0:0:0:
192,192,183352,128,0,183499:0:0:0:0:
448,192,183499,128,0,183646:0:0:0:0:
320,192,183499,1,0,0:0:0:0:
192,192,183646,128,0,183793:0:0:0:0:
320,192,183646,1,0,0:0:0:0:
64,192,183793,128,0,183940:0:0:0:0:
448,192,183793,128,0,184014:0:0:0:0:
64,192,184087,128,0,184161:0:0:0:0:
320,192,184087,1,0,0:0:0:0:
64,192,184234,128,0,184381:0:0:0:0:
192,192,184234,128,0,184308:0:0:0:0:
448,192,184381,128,0,184528:0:0:0:0:
192,192,184381,128,0,184602:0:0:0:0:
320,192,184528,128,0,184675:0:0:0:0:
64,192,184675,1,0,0:0:0:0:
192,192,184675,1,0,0:0:0:0:
192,192,184822,128,0,184969:0:0:0:0:
448,192,184822,128,0,184896:0:0:0:0:
448,192,184969,128,0,185116:0:0:0:0:
320,192,184969,128,0,185043:0:0:0:0:
64,192,185116,128,0,185190:0:0:0:0:
192,192,185116,128,0,185264:0:0:0:0:
320,192,185264,1,0,0:0:0:0:
448,192,185264,128,0,185484:0:0:0:0:
64,192,185337,128,0,185558:0:0:0:0:
320,192,185411,128,0,185558:0:0:0:0:
448,192,185558,128,0,185631:0:0:0:0:
192,192,185558,128,0,185778:0:0:0:0:
320,192,185631,1,0,0:0:0:0:
64,192,185705,128,0,185852:0:0:0:0:
448,192,185705,1,0,0:0:0:0:
320,192,185852,128,0,186146:0:0:0:0:
448,192,185852,128,0,186072:0:0:0:0:
192,192,185999,128,0,186072:0:0:0:0:
64,192,185999,1,0,0:0:0:0:
64,192,186146,128,0,186293:0:0:0:0:
448,192,186146,128,0,186219:0:0:0:0:
192,192,186293,1,0,0:0:0:0:
320,192,186440,128,0,186514:0:0:0:0:
64,192,186440,1,0,0:0:0:0:
320,192,186587,128,0,186734:0:0:0:0:
192,192,186587,128,0,186661:0:0:0:0:
448,192,186734,128,0,186881:0:0:0:0:
192,192,186734,128,0,186955:0:0:0:0:
320,192,186881,128,0,187028:0:0:0:0:
64,192,187028,1,0,0:0:0:0:
448,192,187028,1,0,0:0:0:0:
192,192,187175,128,0,187322:0:0:0:0:
320,192,187175,128,0,187249:0:0:0:0:
320,192,187322,128,0,187469:0:0:0:0:
64,192,187322,128,0,187396:0:0:0:0:
64,192,187469,128,0,187543:0:0:0:0:
192,192,187469,128,0,187616:0:0:0:0:
448,192,187616,128,0,187837:0:0:0:0:
320,192,187616,128,0,187690:0:0:0:0:
320,192,187764,128,0,187911:0:0:0:0:
64,192,187764,128,0,187837:0:0:0:0:
448,192,187911,128,0,187984:0:0:0:0:
192,192,187911,128,0,188131:0:0:0:0:
320,192,187984,1,0,0:0:0:0:
448,192,188058,128,0,188205:0:0:0:0:
64,192,188058,128,0,188131:0:0:0:0:
192,192,188205,128,0,188278:0:0:0:0:
64,192,188205,128,0,188278:0:0:0:0:
192,192,188352,128,0,188499:0:0:0:0:
448,192,188352,128,0,188425:0:0:0:0:
320,192,188425,128,0,188499:0:0:0:0:
64,192,188499,128,0,188719:0:0:0:0:
448,192,188499,128,0,188793:0:0:0:0:
320,192,188646,128,0,188793:0:0:0:0:
192,192,188646,128,0,188719:0:0:0:0:
64,192,188793,128,0,188866:0:0:0:0:
192,192,188793,1,0,0:0:0:0:
448,192,188940,128,0,189014:0:0:0:0:
64,192,188940,128,0,189087:0:0:0:0:
448,192,189087,128,0,189234:0:0:0:0:
320,192,189087,128,0,189381:0:0:0:0:
192,192,189234,128,0,189381:0:0:0:0:
64,192,189234,128,0,189308:0:0:0:0:
64,192,189381,1,0,0:0:0:0:
448,192,189381,128,0,189675:0:0:0:0:
192,192,189528,128,0,189675:0:0:0:0:
320,192,189528,128,0,189602:0:0:0:0:
64,192,189675,128,0,189969:0:0:0:0:
320,192,189675,128,0,189822:0:0:0:0:
192,192,189822,128,0,189896:0:0:0:0:
448,192,189822,128,0,190043:0:0:0:0:
192,192,189969,128,0,190116:0:0:0:0:
320,192,189969,128,0,190116:0:0:0:0:
448,192,190116,128,0,190337:0:0:0:0:
64,192,190116,128,0,190411:0:0:0:0:
320,192,190264,128,0,190411:0:0:0:0:
192,192,190264,1,0,0:0:0:0:
448,192,190411,128,0,190852:0:0:0:0:
192,192,190411,128,0,191146:0:0:0:0:
