osu file format v14

[General]
AudioFilename: op.mp3
AudioLeadIn: 0
PreviewTime: 51734
Countdown: 0
SampleSet: Soft
StackLeniency: 0.7
Mode: 3
LetterboxInBreaks: 0
EpilepsyWarning: 1
SpecialStyle: 0
WidescreenStoryboard: 0

[Editor]
DistanceSpacing: 0.8
BeatDivisor: 2
GridSize: 32
TimelineZoom: 1

[Metadata]
Title:KICK BACK
TitleUnicode:KICK BACK
Artist:Kenshi Yonezu
ArtistUnicode:米津玄師
Creator:AutotelicBrown
Version:Normal Kobeni Car
Source:チェンソーマン
Tags:juankristal chainsaw man csm opening OP オープニング・テーマ full version HACHI ハチ Daiki Tsuneta 常田大希 そうだ! we're alive sou da! morning musume モーニング娘 tsunku つんく Sony Music Labels Inc. SEXX02423B00Z Anime アニメ Rock JRock J-Rock Rock Japanese MAPPA Alice
BeatmapID:3844644
BeatmapSetID:1865663

[Difficulty]
HPDrainRate:7
CircleSize:4
OverallDifficulty:7
ApproachRate:5
SliderMultiplier:1.4
SliderTickRate:1

[Events]
//Background and Video events
0,0,"bg_normal.jpg",0,0
Video,-74,"MV.mp4"
//Break Periods
//Storyboard Layer 0 (Background)
//Storyboard Layer 1 (Fail)
//Storyboard Layer 2 (Pass)
//Storyboard Layer 3 (Foreground)
//Storyboard Layer 4 (Overlay)
//Storyboard Sound Samples

[TimingPoints]
264,294.117647058824,4,2,1,50,1,0
52028,-100,4,2,1,50,0,1
73205,-100,4,2,1,50,0,0
103793,-100,4,2,1,35,0,0
129675,-100,4,2,1,25,0,0
134381,-100,4,2,1,50,0,0
143793,-100,4,2,1,50,0,1
179087,-100,4,2,1,50,0,0

[HitObjects]
64,192,264,5,0,0:0:0:0:
448,192,264,128,0,852:0:0:0:0:
192,192,558,1,0,0:0:0:0:
64,192,705,1,0,0:0:0:0:
320,192,852,1,0,0:0:0:0:
192,192,999,1,0,0:0:0:0:
448,192,1293,1,0,0:0:0:0:
64,192,1587,1,0,0:0:0:0:
320,192,1881,1,0,0:0:0:0:
192,192,2175,1,0,0:0:0:0:
448,192,2322,1,0,0:0:0:0:
320,192,2469,1,0,0:0:0:0:
64,192,2616,1,0,0:0:0:0:
192,192,2911,1,0,0:0:0:0:
64,192,3058,1,0,0:0:0:0:
320,192,3205,1,0,0:0:0:0:
192,192,3352,1,0,0:0:0:0:
448,192,3646,1,0,0:0:0:0:
64,192,3940,1,0,0:0:0:0:
192,192,4234,1,0,0:0:0:0:
320,192,4381,1,0,0:0:0:0:
64,192,4528,1,0,0:0:0:0:
192,192,4675,1,0,0:0:0:0:
448,192,4822,1,0,0:0:0:0:
64,192,4969,1,0,0:0:0:0:
320,192,4969,1,0,0:0:0:0:
192,192,5264,1,0,0:0:0:0:
64,192,5411,1,0,0:0:0:0:
320,192,5558,1,0,0:0:0:0:
192,192,5705,1,0,0:0:0:0:
448,192,5999,1,0,0:0:0:0:
64,192,6293,1,0,0:0:0:0:
320,192,6587,1,0,0:0:0:0:
448,192,6734,1,0,0:0:0:0:
192,192,6881,1,0,0:0:0:0:
448,192,7028,1,0,0:0:0:0:
320,192,7175,1,0,0:0:0:0:
64,192,7322,1,0,0:0:0:0:
192,192,7616,1,0,0:0:0:0:
64,192,7764,1,0,0:0:0:0:
320,192,7911,1,0,0:0:0:0:
192,192,8058,1,0,0:0:0:0:
448,192,8352,1,0,0:0:0:0:
64,192,8793,1,0,0:0:0:0:
192,192,8940,1,0,0:0:0:0:
448,192,9087,1,0,0:0:0:0:
320,192,9234,1,0,0:0:0:0:
64,192,9381,1,0,0:0:0:0:
192,192,9675,1,0,0:0:0:0:
320,192,9675,1,0,0:0:0:0:
64,192,9969,1,0,0:0:0:0:
448,192,9969,1,0,0:0:0:0:
192,192,10411,1,0,0:0:0:0:
320,192,10558,1,0,0:0:0:0:
448,192,10558,1,0,0:0:0:0:
64,192,10852,1,0,0:0:0:0:
192,192,11146,1,0,0:0:0:0:
320,192,11146,1,0,0:0:0:0:
320,192,11514,1,0,0:0:0:0:
64,192,11587,1,0,0:0:0:0:
192,192,11734,1,0,0:0:0:0:
448,192,11734,1,0,0:0:0:0:
320,192,12028,1,0,0:0:0:0:
64,192,12322,1,0,0:0:0:0:
448,192,12322,1,0,0:0:0:0:
320,192,12764,1,0,0:0:0:0:
64,192,12911,1,0,0:0:0:0:
192,192,12911,1,0,0:0:0:0:
448,192,13205,1,0,0:0:0:0:
192,192,13499,1,0,0:0:0:0:
320,192,13499,1,0,0:0:0:0:
192,192,13866,1,0,0:0:0:0:
448,192,13940,1,0,0:0:0:0:
64,192,14087,1,0,0:0:0:0:
320,192,14087,1,0,0:0:0:0:
192,192,14381,1,0,0:0:0:0:
448,192,14381,1,0,0:0:0:0:
64,192,14675,1,0,0:0:0:0:
448,192,14675,1,0,0:0:0:0:
192,192,15116,1,0,0:0:0:0:
320,192,15264,1,0,0:0:0:0:
448,192,15264,1,0,0:0:0:0:
64,192,15558,1,0,0:0:0:0:
192,192,15852,1,0,0:0:0:0:
320,192,15852,1,0,0:0:0:0:
320,192,16219,1,0,0:0:0:0:
192,192,16293,128,0,16734:0:0:0:0:
448,192,16440,1,0,0:0:0:0:
64,192,16734,1,0,0:0:0:0:
320,192,16734,1,0,0:0:0:0:
64,192,17028,1,0,0:0:0:0:
448,192,17028,1,0,0:0:0:0:
320,192,17469,1,0,0:0:0:0:
64,192,17616,1,0,0:0:0:0:
192,192,17616,1,0,0:0:0:0:
448,192,17764,1,0,0:0:0:0:
320,192,17911,1,0,0:0:0:0:
192,192,18058,1,0,0:0:0:0:
448,192,18205,1,0,0:0:0:0:
64,192,18278,1,0,0:0:0:0:
320,192,18499,1,0,0:0:0:0:
192,192,18646,1,0,0:0:0:0:
448,192,18719,1,0,0:0:0:0:
320,192,18940,1,0,0:0:0:0:
64,192,19087,1,0,0:0:0:0:
192,192,19087,1,0,0:0:0:0:
320,192,19381,1,0,0:0:0:0:
448,192,19381,1,0,0:0:0:0:
192,192,19675,1,0,0:0:0:0:
448,192,19822,1,0,0:0:0:0:
64,192,19969,1,0,0:0:0:0:
320,192,20116,1,0,0:0:0:0:
448,192,20411,1,0,0:0:0:0:
64,192,20558,1,0,0:0:0:0:
192,192,20558,1,0,0:0:0:0:
320,192,20705,1,0,0:0:0:0:
192,192,20999,1,0,0:0:0:0:
64,192,21146,1,0,0:0:0:0:
448,192,21146,1,0,0:0:0:0:
320,192,21293,1,0,0:0:0:0:
64,192,21587,1,0,0:0:0:0:
448,192,21734,1,0,0:0:0:0:
192,192,21881,1,0,0:0:0:0:
320,192,22322,1,0,0:0:0:0:
448,192,22469,1,0,0:0:0:0:
192,192,22616,1,0,0:0:0:0:
64,192,22911,1,0,0:0:0:0:
320,192,23058,1,0,0:0:0:0:
448,192,23352,1,0,0:0:0:0:
192,192,23499,1,0,0:0:0:0:
320,192,23646,1,0,0:0:0:0:
64,192,23793,1,0,0:0:0:0:
192,192,24087,1,0,0:0:0:0:
320,192,24087,1,0,0:0:0:0:
448,192,24381,1,0,0:0:0:0:
320,192,24528,1,0,0:0:0:0:
64,192,24675,1,0,0:0:0:0:
448,192,24822,1,0,0:0:0:0:
192,192,25116,1,0,0:0:0:0:
320,192,25264,1,0,0:0:0:0:
448,192,25264,1,0,0:0:0:0:
64,192,25411,1,0,0:0:0:0:
320,192,25705,1,0,0:0:0:0:
64,192,25852,1,0,0:0:0:0:
448,192,25852,1,0,0:0:0:0:
192,192,25999,1,0,0:0:0:0:
320,192,26293,1,0,0:0:0:0:
64,192,26440,1,0,0:0:0:0:
192,192,26440,1,0,0:0:0:0:
448,192,26587,1,0,0:0:0:0:
64,192,26881,1,0,0:0:0:0:
320,192,27028,1,0,0:0:0:0:
192,192,27175,1,0,0:0:0:0:
448,192,27543,1,0,0:0:0:0:
320,192,27616,1,0,0:0:0:0:
64,192,27837,1,0,0:0:0:0:
192,192,27911,1,0,0:0:0:0:
320,192,28058,1,0,0:0:0:0:
448,192,28058,1,0,0:0:0:0:
64,192,28352,1,0,0:0:0:0:
192,192,28499,1,0,0:0:0:0:
448,192,28499,1,0,0:0:0:0:
320,192,28646,1,0,0:0:0:0:
64,192,28793,1,0,0:0:0:0:
448,192,28940,1,0,0:0:0:0:
320,192,29087,1,0,0:0:0:0:
192,192,29234,1,0,0:0:0:0:
448,192,29381,1,0,0:0:0:0:
64,192,29528,1,0,0:0:0:0:
448,192,29822,1,0,0:0:0:0:
64,192,29969,1,0,0:0:0:0:
192,192,29969,1,0,0:0:0:0:
320,192,30116,1,0,0:0:0:0:
448,192,30264,1,0,0:0:0:0:
64,192,30411,1,0,0:0:0:0:
320,192,30558,1,0,0:0:0:0:
192,192,30705,1,0,0:0:0:0:
64,192,30999,1,0,0:0:0:0:
320,192,31146,1,0,0:0:0:0:
448,192,31146,1,0,0:0:0:0:
192,192,31293,1,0,0:0:0:0:
64,192,31440,1,0,0:0:0:0:
448,192,31587,1,0,0:0:0:0:
192,192,31734,1,0,0:0:0:0:
320,192,31734,1,0,0:0:0:0:
448,192,31881,1,0,0:0:0:0:
320,192,32175,1,0,0:0:0:0:
64,192,32322,1,0,0:0:0:0:
448,192,32469,1,0,0:0:0:0:
192,192,32616,1,0,0:0:0:0:
320,192,32764,1,0,0:0:0:0:
64,192,32911,1,0,0:0:0:0:
192,192,33058,1,0,0:0:0:0:
64,192,33205,1,0,0:0:0:0:
448,192,33205,1,0,0:0:0:0:
320,192,33499,1,0,0:0:0:0:
192,192,33793,1,0,0:0:0:0:
448,192,33940,1,0,0:0:0:0:
192,192,34087,1,0,0:0:0:0:
320,192,34087,1,0,0:0:0:0:
64,192,34234,1,0,0:0:0:0:
448,192,34381,1,0,0:0:0:0:
64,192,34675,1,0,0:0:0:0:
320,192,34675,1,0,0:0:0:0:
192,192,34969,1,0,0:0:0:0:
64,192,35264,1,0,0:0:0:0:
448,192,35264,1,0,0:0:0:0:
192,192,35852,1,0,0:0:0:0:
320,192,35852,1,0,0:0:0:0:
64,192,36514,1,0,0:0:0:0:
448,192,36587,1,0,0:0:0:0:
192,192,36881,1,0,0:0:0:0:
320,192,37028,1,0,0:0:0:0:
64,192,37175,1,0,0:0:0:0:
448,192,37322,1,0,0:0:0:0:
192,192,37469,1,0,0:0:0:0:
448,192,37616,1,0,0:0:0:0:
64,192,37764,1,0,0:0:0:0:
192,192,37911,128,0,38499:0:0:0:0:
320,192,37911,1,0,0:0:0:0:
64,192,38499,1,0,0:0:0:0:
448,192,38499,128,0,39087:0:0:0:0:
64,192,39087,1,0,0:0:0:0:
192,192,39234,1,0,0:0:0:0:
64,192,39381,1,0,0:0:0:0:
448,192,39528,1,0,0:0:0:0:
192,192,39675,1,0,0:0:0:0:
320,192,39675,1,0,0:0:0:0:
448,192,39969,1,0,0:0:0:0:
320,192,40116,1,0,0:0:0:0:
64,192,40264,128,0,40852:0:0:0:0:
192,192,40264,1,0,0:0:0:0:
320,192,40852,128,0,41440:0:0:0:0:
448,192,40852,1,0,0:0:0:0:
64,192,41440,1,0,0:0:0:0:
192,192,41587,1,0,0:0:0:0:
64,192,41734,1,0,0:0:0:0:
448,192,41881,1,0,0:0:0:0:
192,192,42028,1,0,0:0:0:0:
320,192,42028,1,0,0:0:0:0:
448,192,42322,1,0,0:0:0:0:
192,192,42469,1,0,0:0:0:0:
64,192,42616,128,0,43205:0:0:0:0:
320,192,42616,1,0,0:0:0:0:
192,192,43205,1,0,0:0:0:0:
448,192,43205,128,0,43793:0:0:0:0:
192,192,43793,1,0,0:0:0:0:
64,192,43940,1,0,0:0:0:0:
192,192,44087,1,0,0:0:0:0:
320,192,44234,1,0,0:0:0:0:
64,192,44381,1,0,0:0:0:0:
448,192,44381,1,0,0:0:0:0:
320,192,44528,1,0,0:0:0:0:
192,192,44675,1,0,0:0:0:0:
64,192,44822,1,0,0:0:0:0:
320,192,44969,1,0,0:0:0:0:
448,192,44969,1,0,0:0:0:0:
64,192,45411,1,0,0:0:0:0:
448,192,45558,1,0,0:0:0:0:
192,192,45705,1,0,0:0:0:0:
320,192,45999,1,0,0:0:0:0:
64,192,46146,1,0,0:0:0:0:
192,192,46293,1,0,0:0:0:0:
448,192,46440,1,0,0:0:0:0:
64,192,46587,1,0,0:0:0:0:
448,192,46734,1,0,0:0:0:0:
320,192,46881,1,0,0:0:0:0:
192,192,47028,1,0,0:0:0:0:
448,192,47175,1,0,0:0:0:0:
64,192,47322,1,0,0:0:0:0:
320,192,47322,1,0,0:0:0:0:
192,192,47764,1,0,0:0:0:0:
320,192,47911,1,0,0:0:0:0:
64,192,48107,1,0,0:0:0:0:
448,192,48303,1,0,0:0:0:0:
320,192,48499,1,0,0:0:0:0:
192,192,48695,1,0,0:0:0:0:
448,192,48891,1,0,0:0:0:0:
64,192,49087,128,0,51734:0:0:0:0:
320,192,49087,1,0,0:0:0:0:
448,192,51734,1,0,0:0:0:0:
192,192,52028,1,0,0:0:0:0:
320,192,52028,1,0,0:0:0:0:
64,192,52322,1,0,0:0:0:0:
448,192,52322,1,0,0:0:0:0:
192,192,52616,1,0,0:0:0:0:
448,192,52764,1,0,0:0:0:0:
320,192,52911,1,0,0:0:0:0:
64,192,53058,1,0,0:0:0:0:
192,192,53205,1,0,0:0:0:0:
448,192,53352,1,0,0:0:0:0:
64,192,53499,1,0,0:0:0:0:
320,192,53793,1,0,0:0:0:0:
192,192,53940,1,0,0:0:0:0:
64,192,54087,1,0,0:0:0:0:
448,192,54087,1,0,0:0:0:0:
192,192,54381,1,0,0:0:0:0:
320,192,54675,1,0,0:0:0:0:
448,192,54675,1,0,0:0:0:0:
192,192,54969,1,0,0:0:0:0:
64,192,55116,1,0,0:0:0:0:
320,192,55264,1,0,0:0:0:0:
192,192,55411,1,0,0:0:0:0:
448,192,55558,1,0,0:0:0:0:
320,192,55705,1,0,0:0:0:0:
64,192,55852,1,0,0:0:0:0:
448,192,56293,1,0,0:0:0:0:
64,192,56440,1,0,0:0:0:0:
192,192,56440,1,0,0:0:0:0:
320,192,56734,1,0,0:0:0:0:
448,192,56881,1,0,0:0:0:0:
64,192,57028,1,0,0:0:0:0:
320,192,57028,1,0,0:0:0:0:
192,192,57322,1,0,0:0:0:0:
64,192,57469,1,0,0:0:0:0:
320,192,57616,1,0,0:0:0:0:
448,192,57616,1,0,0:0:0:0:
192,192,57764,1,0,0:0:0:0:
448,192,57911,1,0,0:0:0:0:
192,192,58205,1,0,0:0:0:0:
320,192,58205,1,0,0:0:0:0:
64,192,58352,1,0,0:0:0:0:
192,192,58499,1,0,0:0:0:0:
320,192,58646,1,0,0:0:0:0:
64,192,58793,1,0,0:0:0:0:
448,192,58793,128,0,59381:0:0:0:0:
320,192,59087,1,0,0:0:0:0:
64,192,59381,1,0,0:0:0:0:
192,192,59381,1,0,0:0:0:0:
320,192,59528,1,0,0:0:0:0:
192,192,59675,1,0,0:0:0:0:
448,192,59822,1,0,0:0:0:0:
64,192,59969,1,0,0:0:0:0:
320,192,60116,1,0,0:0:0:0:
192,192,60264,1,0,0:0:0:0:
448,192,60484,1,0,0:0:0:0:
64,192,60558,1,0,0:0:0:0:
320,192,60852,1,0,0:0:0:0:
192,192,60925,1,0,0:0:0:0:
448,192,60999,1,0,0:0:0:0:
64,192,61146,1,0,0:0:0:0:
320,192,61440,1,0,0:0:0:0:
448,192,61440,1,0,0:0:0:0:
64,192,61734,1,0,0:0:0:0:
192,192,61734,1,0,0:0:0:0:
320,192,62028,1,0,0:0:0:0:
192,192,62175,1,0,0:0:0:0:
448,192,62322,1,0,0:0:0:0:
64,192,62469,1,0,0:0:0:0:
320,192,62616,1,0,0:0:0:0:
192,192,62764,1,0,0:0:0:0:
448,192,62911,1,0,0:0:0:0:
320,192,63205,1,0,0:0:0:0:
64,192,63352,1,0,0:0:0:0:
192,192,63499,1,0,0:0:0:0:
320,192,63499,1,0,0:0:0:0:
448,192,63793,1,0,0:0:0:0:
64,192,64087,1,0,0:0:0:0:
320,192,64087,1,0,0:0:0:0:
192,192,64381,1,0,0:0:0:0:
320,192,64528,1,0,0:0:0:0:
64,192,64675,1,0,0:0:0:0:
448,192,64822,1,0,0:0:0:0:
192,192,64969,1,0,0:0:0:0:
320,192,65116,1,0,0:0:0:0:
64,192,65264,1,0,0:0:0:0:
448,192,65264,1,0,0:0:0:0:
320,192,65558,1,0,0:0:0:0:
192,192,65705,1,0,0:0:0:0:
320,192,65852,1,0,0:0:0:0:
448,192,65852,1,0,0:0:0:0:
64,192,66146,1,0,0:0:0:0:
448,192,66293,1,0,0:0:0:0:
64,192,66440,1,0,0:0:0:0:
192,192,66440,1,0,0:0:0:0:
448,192,66587,1,0,0:0:0:0:
320,192,66734,1,0,0:0:0:0:
64,192,66881,1,0,0:0:0:0:
320,192,67028,1,0,0:0:0:0:
448,192,67028,1,0,0:0:0:0:
64,192,67175,1,0,0:0:0:0:
192,192,67322,1,0,0:0:0:0:
448,192,67469,1,0,0:0:0:0:
192,192,67616,1,0,0:0:0:0:
320,192,67616,1,0,0:0:0:0:
64,192,67911,1,0,0:0:0:0:
448,192,67984,1,0,0:0:0:0:
320,192,68205,1,0,0:0:0:0:
192,192,68352,1,0,0:0:0:0:
448,192,68499,1,0,0:0:0:0:
64,192,68646,1,0,0:0:0:0:
320,192,68793,1,0,0:0:0:0:
448,192,68793,1,0,0:0:0:0:
64,192,68940,1,0,0:0:0:0:
192,192,69087,1,0,0:0:0:0:
448,192,69234,1,0,0:0:0:0:
64,192,69381,1,0,0:0:0:0:
192,192,69381,1,0,0:0:0:0:
448,192,69528,1,0,0:0:0:0:
320,192,69675,1,0,0:0:0:0:
64,192,69822,1,0,0:0:0:0:
192,192,69969,1,0,0:0:0:0:
320,192,69969,1,0,0:0:0:0:
64,192,70116,1,0,0:0:0:0:
448,192,70264,1,0,0:0:0:0:
320,192,70411,1,0,0:0:0:0:
448,192,70558,1,0,0:0:0:0:
192,192,70705,1,0,0:0:0:0:
320,192,70778,1,0,0:0:0:0:
64,192,70852,1,0,0:0:0:0:
448,192,70999,1,0,0:0:0:0:
192,192,71146,1,0,0:0:0:0:
320,192,71146,1,0,0:0:0:0:
64,192,71293,1,0,0:0:0:0:
192,192,71440,1,0,0:0:0:0:
448,192,71440,1,0,0:0:0:0:
320,192,71587,1,0,0:0:0:0:
64,192,71734,1,0,0:0:0:0:
448,192,71734,1,0,0:0:0:0:
192,192,71881,1,0,0:0:0:0:
64,192,72028,1,0,0:0:0:0:
320,192,72028,1,0,0:0:0:0:
448,192,72175,1,0,0:0:0:0:
192,192,72322,1,0,0:0:0:0:
320,192,72322,1,0,0:0:0:0:
64,192,72469,1,0,0:0:0:0:
192,192,72616,1,0,0:0:0:0:
448,192,72616,1,0,0:0:0:0:
320,192,72764,1,0,0:0:0:0:
64,192,72911,1,0,0:0:0:0:
448,192,72911,1,0,0:0:0:0:
320,192,73058,1,0,0:0:0:0:
192,192,73205,1,0,0:0:0:0:
448,192,73499,1,0,0:0:0:0:
320,192,73793,1,0,0:0:0:0:
64,192,73940,1,0,0:0:0:0:
192,192,74087,1,0,0:0:0:0:
448,192,74381,1,0,0:0:0:0:
320,192,74675,1,0,0:0:0:0:
192,192,74969,1,0,0:0:0:0:
64,192,75264,1,0,0:0:0:0:
192,192,75558,1,0,0:0:0:0:
320,192,75558,1,0,0:0:0:0:
64,192,75852,1,0,0:0:0:0:
448,192,75852,1,0,0:0:0:0:
192,192,76293,1,0,0:0:0:0:
320,192,76440,1,0,0:0:0:0:
448,192,76440,1,0,0:0:0:0:
64,192,76734,1,0,0:0:0:0:
192,192,77028,1,0,0:0:0:0:
320,192,77028,1,0,0:0:0:0:
320,192,77396,1,0,0:0:0:0:
64,192,77469,1,0,0:0:0:0:
192,192,77616,1,0,0:0:0:0:
448,192,77616,1,0,0:0:0:0:
320,192,77911,1,0,0:0:0:0:
64,192,78205,1,0,0:0:0:0:
448,192,78205,1,0,0:0:0:0:
320,192,78646,1,0,0:0:0:0:
64,192,78793,1,0,0:0:0:0:
192,192,78793,1,0,0:0:0:0:
448,192,79087,1,0,0:0:0:0:
192,192,79381,1,0,0:0:0:0:
320,192,79381,1,0,0:0:0:0:
192,192,79749,1,0,0:0:0:0:
448,192,79822,1,0,0:0:0:0:
64,192,79969,1,0,0:0:0:0:
320,192,79969,1,0,0:0:0:0:
192,192,80264,1,0,0:0:0:0:
448,192,80264,1,0,0:0:0:0:
64,192,80558,1,0,0:0:0:0:
448,192,80558,1,0,0:0:0:0:
192,192,80999,1,0,0:0:0:0:
320,192,81146,1,0,0:0:0:0:
448,192,81146,1,0,0:0:0:0:
64,192,81440,1,0,0:0:0:0:
192,192,81734,1,0,0:0:0:0:
320,192,81734,1,0,0:0:0:0:
320,192,82102,1,0,0:0:0:0:
192,192,82175,128,0,82616:0:0:0:0:
448,192,82322,1,0,0:0:0:0:
64,192,82616,1,0,0:0:0:0:
320,192,82616,1,0,0:0:0:0:
64,192,82911,1,0,0:0:0:0:
448,192,82911,1,0,0:0:0:0:
320,192,83352,1,0,0:0:0:0:
64,192,83499,1,0,0:0:0:0:
192,192,83499,1,0,0:0:0:0:
448,192,83646,1,0,0:0:0:0:
64,192,83940,1,0,0:0:0:0:
320,192,84087,1,0,0:0:0:0:
192,192,84234,1,0,0:0:0:0:
64,192,84381,1,0,0:0:0:0:
448,192,84528,1,0,0:0:0:0:
320,192,84602,1,0,0:0:0:0:
64,192,84822,1,0,0:0:0:0:
192,192,84969,1,0,0:0:0:0:
448,192,84969,1,0,0:0:0:0:
64,192,85264,1,0,0:0:0:0:
320,192,85264,1,0,0:0:0:0:
192,192,85558,1,0,0:0:0:0:
64,192,85705,1,0,0:0:0:0:
448,192,85852,1,0,0:0:0:0:
192,192,85999,1,0,0:0:0:0:
448,192,86293,1,0,0:0:0:0:
64,192,86440,1,0,0:0:0:0:
192,192,86440,1,0,0:0:0:0:
320,192,86587,1,0,0:0:0:0:
192,192,86881,1,0,0:0:0:0:
64,192,87028,1,0,0:0:0:0:
448,192,87028,1,0,0:0:0:0:
320,192,87175,1,0,0:0:0:0:
192,192,87469,1,0,0:0:0:0:
448,192,87616,1,0,0:0:0:0:
64,192,87764,1,0,0:0:0:0:
320,192,88205,1,0,0:0:0:0:
448,192,88352,1,0,0:0:0:0:
192,192,88499,1,0,0:0:0:0:
64,192,88793,1,0,0:0:0:0:
320,192,88940,1,0,0:0:0:0:
448,192,89234,1,0,0:0:0:0:
192,192,89381,1,0,0:0:0:0:
320,192,89528,1,0,0:0:0:0:
64,192,89675,1,0,0:0:0:0:
192,192,89969,1,0,0:0:0:0:
320,192,89969,1,0,0:0:0:0:
448,192,90264,1,0,0:0:0:0:
64,192,90411,1,0,0:0:0:0:
320,192,90558,1,0,0:0:0:0:
192,192,90705,1,0,0:0:0:0:
64,192,90999,1,0,0:0:0:0:
320,192,91146,1,0,0:0:0:0:
448,192,91146,1,0,0:0:0:0:
192,192,91293,1,0,0:0:0:0:
448,192,91587,1,0,0:0:0:0:
64,192,91734,1,0,0:0:0:0:
192,192,91734,1,0,0:0:0:0:
320,192,91881,1,0,0:0:0:0:
64,192,92175,1,0,0:0:0:0:
192,192,92322,1,0,0:0:0:0:
320,192,92322,1,0,0:0:0:0:
448,192,92469,1,0,0:0:0:0:
320,192,92764,1,0,0:0:0:0:
192,192,92911,1,0,0:0:0:0:
448,192,93058,1,0,0:0:0:0:
64,192,93425,1,0,0:0:0:0:
192,192,93499,1,0,0:0:0:0:
448,192,93719,1,0,0:0:0:0:
320,192,93793,1,0,0:0:0:0:
64,192,93940,1,0,0:0:0:0:
192,192,93940,1,0,0:0:0:0:
448,192,94234,1,0,0:0:0:0:
64,192,94381,1,0,0:0:0:0:
320,192,94381,1,0,0:0:0:0:
192,192,94528,1,0,0:0:0:0:
448,192,94675,1,0,0:0:0:0:
64,192,94822,1,0,0:0:0:0:
192,192,94969,1,0,0:0:0:0:
320,192,95116,1,0,0:0:0:0:
64,192,95264,1,0,0:0:0:0:
448,192,95411,1,0,0:0:0:0:
64,192,95705,1,0,0:0:0:0:
320,192,95852,1,0,0:0:0:0:
448,192,95852,1,0,0:0:0:0:
192,192,95999,1,0,0:0:0:0:
64,192,96146,1,0,0:0:0:0:
320,192,96293,1,0,0:0:0:0:
192,192,96440,1,0,0:0:0:0:
448,192,96587,1,0,0:0:0:0:
320,192,96881,1,0,0:0:0:0:
64,192,97028,1,0,0:0:0:0:
192,192,97028,1,0,0:0:0:0:
448,192,97175,1,0,0:0:0:0:
64,192,97322,1,0,0:0:0:0:
192,192,97616,1,0,0:0:0:0:
320,192,97616,1,0,0:0:0:0:
64,192,97764,1,0,0:0:0:0:
448,192,97911,1,0,0:0:0:0:
320,192,98058,1,0,0:0:0:0:
64,192,98205,1,0,0:0:0:0:
448,192,98352,1,0,0:0:0:0:
192,192,98425,1,0,0:0:0:0:
64,192,98646,1,0,0:0:0:0:
320,192,98793,1,0,0:0:0:0:
192,192,98940,1,0,0:0:0:0:
64,192,99087,1,0,0:0:0:0:
448,192,99087,1,0,0:0:0:0:
320,192,99381,1,0,0:0:0:0:
192,192,99528,1,0,0:0:0:0:
448,192,99675,1,0,0:0:0:0:
320,192,99822,1,0,0:0:0:0:
64,192,99969,1,0,0:0:0:0:
192,192,100264,1,0,0:0:0:0:
448,192,100411,1,0,0:0:0:0:
320,192,100558,1,0,0:0:0:0:
192,192,100705,1,0,0:0:0:0:
64,192,100852,1,0,0:0:0:0:
192,192,101146,1,0,0:0:0:0:
320,192,101293,1,0,0:0:0:0:
64,192,101440,128,0,102322:0:0:0:0:
448,192,101587,1,0,0:0:0:0:
192,192,101734,1,0,0:0:0:0:
320,192,102322,128,0,103205:0:0:0:0:
448,192,103205,1,0,0:0:0:0:
64,192,103352,1,0,0:0:0:0:
192,192,103499,1,0,0:0:0:0:
320,192,103646,1,0,0:0:0:0:
64,192,103793,1,0,0:0:0:0:
448,192,103793,1,0,0:0:0:0:
64,192,104381,128,0,104969:0:0:0:0:
448,192,104969,128,0,105264:0:0:0:0:
192,192,105264,128,0,105558:0:0:0:0:
320,192,105558,128,0,105852:0:0:0:0:
64,192,105852,128,0,106146:0:0:0:0:
192,192,106146,128,0,106734:0:0:0:0:
64,192,106734,128,0,107322:0:0:0:0:
448,192,107322,128,0,107911:0:0:0:0:
320,192,107911,128,0,108499:0:0:0:0:
192,192,109087,128,0,109675:0:0:0:0:
448,192,109675,128,0,109969:0:0:0:0:
64,192,109969,128,0,110264:0:0:0:0:
320,192,110264,128,0,110558:0:0:0:0:
192,192,110558,128,0,110852:0:0:0:0:
64,192,110852,128,0,111440:0:0:0:0:
320,192,111440,128,0,112028:0:0:0:0:
192,192,112028,128,0,112616:0:0:0:0:
448,192,112616,128,0,113205:0:0:0:0:
64,192,113793,128,0,114381:0:0:0:0:
192,192,114381,128,0,114675:0:0:0:0:
448,192,114675,128,0,114969:0:0:0:0:
320,192,114969,128,0,115264:0:0:0:0:
64,192,115264,128,0,115558:0:0:0:0:
320,192,115558,128,0,115852:0:0:0:0:
192,192,116146,128,0,116734:0:0:0:0:
320,192,116734,128,0,117322:0:0:0:0:
448,192,116734,128,0,117322:0:0:0:0:
64,192,117322,128,0,117911:0:0:0:0:
192,192,117322,128,0,117911:0:0:0:0:
320,192,118205,128,0,118499:0:0:0:0:
64,192,118499,128,0,118793:0:0:0:0:
448,192,118793,128,0,119381:0:0:0:0:
192,192,119381,128,0,119675:0:0:0:0:
64,192,119675,128,0,119969:0:0:0:0:
448,192,119969,128,0,120558:0:0:0:0:
192,192,120558,128,0,120852:0:0:0:0:
320,192,120852,128,0,121146:0:0:0:0:
64,192,121146,128,0,121734:0:0:0:0:
448,192,122322,128,0,122616:0:0:0:0:
192,192,122616,128,0,122911:0:0:0:0:
448,192,122911,128,0,123205:0:0:0:0:
320,192,123205,128,0,123499:0:0:0:0:
64,192,123499,128,0,123793:0:0:0:0:
320,192,123793,128,0,124381:0:0:0:0:
192,192,124675,128,0,124969:0:0:0:0:
448,192,124969,128,0,125558:0:0:0:0:
64,192,126146,128,0,126734:0:0:0:0:
320,192,127322,128,0,128499:0:0:0:0:
448,192,127322,128,0,129675:0:0:0:0:
192,192,128499,128,0,129675:0:0:0:0:
64,192,129675,128,0,133205:0:0:0:0:
320,192,129675,1,0,0:0:0:0:
448,192,133205,128,0,134087:0:0:0:0:
320,192,134087,1,0,0:0:0:0:
64,192,134381,1,0,0:0:0:0:
192,192,134381,1,0,0:0:0:0:
448,192,134675,1,0,0:0:0:0:
192,192,134969,1,0,0:0:0:0:
448,192,135116,1,0,0:0:0:0:
320,192,135264,1,0,0:0:0:0:
64,192,135411,1,0,0:0:0:0:
192,192,135558,1,0,0:0:0:0:
448,192,135705,1,0,0:0:0:0:
64,192,135852,1,0,0:0:0:0:
320,192,136146,1,0,0:0:0:0:
192,192,136440,1,0,0:0:0:0:
64,192,136734,1,0,0:0:0:0:
448,192,137028,1,0,0:0:0:0:
320,192,137322,1,0,0:0:0:0:
192,192,137469,1,0,0:0:0:0:
448,192,137616,1,0,0:0:0:0:
64,192,137764,1,0,0:0:0:0:
192,192,137911,1,0,0:0:0:0:
448,192,138058,1,0,0:0:0:0:
320,192,138205,1,0,0:0:0:0:
64,192,138499,1,0,0:0:0:0:
448,192,138793,1,0,0:0:0:0:
192,192,139087,1,0,0:0:0:0:
320,192,139234,1,0,0:0:0:0:
64,192,139381,1,0,0:0:0:0:
320,192,139675,1,0,0:0:0:0:
192,192,139822,1,0,0:0:0:0:
448,192,139969,1,0,0:0:0:0:
64,192,140116,1,0,0:0:0:0:
320,192,140264,1,0,0:0:0:0:
448,192,140558,1,0,0:0:0:0:
192,192,140705,1,0,0:0:0:0:
320,192,140852,1,0,0:0:0:0:
64,192,141146,1,0,0:0:0:0:
448,192,141440,1,0,0:0:0:0:
192,192,141734,1,0,0:0:0:0:
320,192,141881,1,0,0:0:0:0:
64,192,142028,1,0,0:0:0:0:
448,192,142175,1,0,0:0:0:0:
192,192,142322,1,0,0:0:0:0:
320,192,142469,1,0,0:0:0:0:
64,192,142616,1,0,0:0:0:0:
192,192,142813,1,0,0:0:0:0:
448,192,143009,1,0,0:0:0:0:
320,192,143205,1,0,0:0:0:0:
64,192,143401,1,0,0:0:0:0:
448,192,143597,1,0,0:0:0:0:
192,192,143793,1,0,0:0:0:0:
320,192,143793,1,0,0:0:0:0:
64,192,144087,1,0,0:0:0:0:
448,192,144087,1,0,0:0:0:0:
192,192,144381,1,0,0:0:0:0:
448,192,144528,1,0,0:0:0:0:
320,192,144675,1,0,0:0:0:0:
64,192,144822,1,0,0:0:0:0:
192,192,144969,1,0,0:0:0:0:
448,192,145116,1,0,0:0:0:0:
64,192,145264,1,0,0:0:0:0:
320,192,145558,1,0,0:0:0:0:
192,192,145705,1,0,0:0:0:0:
64,192,145852,1,0,0:0:0:0:
448,192,145999,1,0,0:0:0:0:
320,192,146146,1,0,0:0:0:0:
192,192,146440,1,0,0:0:0:0:
64,192,146734,1,0,0:0:0:0:
192,192,146881,1,0,0:0:0:0:
448,192,147028,1,0,0:0:0:0:
64,192,147175,1,0,0:0:0:0:
320,192,147322,1,0,0:0:0:0:
192,192,147469,1,0,0:0:0:0:
64,192,147616,1,0,0:0:0:0:
448,192,147616,1,0,0:0:0:0:
320,192,147911,1,0,0:0:0:0:
192,192,148058,1,0,0:0:0:0:
320,192,148205,1,0,0:0:0:0:
448,192,148205,1,0,0:0:0:0:
64,192,148499,1,0,0:0:0:0:
192,192,148793,1,0,0:0:0:0:
448,192,148793,1,0,0:0:0:0:
320,192,149087,1,0,0:0:0:0:
64,192,149234,1,0,0:0:0:0:
192,192,149381,1,0,0:0:0:0:
320,192,149381,1,0,0:0:0:0:
448,192,149675,1,0,0:0:0:0:
64,192,149969,1,0,0:0:0:0:
320,192,149969,1,0,0:0:0:0:
192,192,150264,1,0,0:0:0:0:
448,192,150411,1,0,0:0:0:0:
192,192,150558,1,0,0:0:0:0:
320,192,150558,1,0,0:0:0:0:
64,192,150852,1,0,0:0:0:0:
192,192,151146,1,0,0:0:0:0:
448,192,151146,1,0,0:0:0:0:
320,192,151440,1,0,0:0:0:0:
64,192,151587,1,0,0:0:0:0:
192,192,151734,1,0,0:0:0:0:
320,192,151734,1,0,0:0:0:0:
448,192,152028,1,0,0:0:0:0:
64,192,152322,1,0,0:0:0:0:
320,192,152322,1,0,0:0:0:0:
192,192,152616,1,0,0:0:0:0:
448,192,152764,1,0,0:0:0:0:
192,192,152911,1,0,0:0:0:0:
320,192,152911,1,0,0:0:0:0:
64,192,153205,1,0,0:0:0:0:
448,192,153205,1,0,0:0:0:0:
320,192,153352,1,0,0:0:0:0:
64,192,153499,1,0,0:0:0:0:
192,192,153499,1,0,0:0:0:0:
448,192,153646,1,0,0:0:0:0:
192,192,153793,1,0,0:0:0:0:
320,192,153793,1,0,0:0:0:0:
64,192,154087,1,0,0:0:0:0:
448,192,154087,1,0,0:0:0:0:
192,192,154234,1,0,0:0:0:0:
320,192,154381,1,0,0:0:0:0:
448,192,154381,1,0,0:0:0:0:
64,192,154528,1,0,0:0:0:0:
192,192,154675,1,0,0:0:0:0:
320,192,154675,1,0,0:0:0:0:
64,192,154969,1,0,0:0:0:0:
192,192,154969,1,0,0:0:0:0:
64,192,155264,1,0,0:0:0:0:
448,192,155264,1,0,0:0:0:0:
192,192,155558,1,0,0:0:0:0:
320,192,155558,1,0,0:0:0:0:
448,192,155705,1,0,0:0:0:0:
64,192,155852,1,0,0:0:0:0:
320,192,155852,1,0,0:0:0:0:
192,192,155999,1,0,0:0:0:0:
448,192,156146,1,0,0:0:0:0:
192,192,156440,1,0,0:0:0:0:
320,192,156440,1,0,0:0:0:0:
64,192,156587,1,0,0:0:0:0:
192,192,156734,1,0,0:0:0:0:
448,192,156734,1,0,0:0:0:0:
320,192,156881,1,0,0:0:0:0:
64,192,157028,1,0,0:0:0:0:
320,192,157322,1,0,0:0:0:0:
448,192,157322,1,0,0:0:0:0:
192,192,157469,1,0,0:0:0:0:
64,192,157616,1,0,0:0:0:0:
448,192,157616,1,0,0:0:0:0:
320,192,157764,1,0,0:0:0:0:
64,192,157911,1,0,0:0:0:0:
192,192,157911,1,0,0:0:0:0:
448,192,158205,1,0,0:0:0:0:
64,192,158646,1,0,0:0:0:0:
320,192,158793,1,0,0:0:0:0:
448,192,158793,1,0,0:0:0:0:
192,192,159087,1,0,0:0:0:0:
320,192,159234,1,0,0:0:0:0:
64,192,159381,1,0,0:0:0:0:
320,192,159749,1,0,0:0:0:0:
192,192,159822,1,0,0:0:0:0:
64,192,159969,1,0,0:0:0:0:
448,192,159969,1,0,0:0:0:0:
320,192,160264,1,0,0:0:0:0:
64,192,160558,1,0,0:0:0:0:
192,192,160558,1,0,0:0:0:0:
320,192,160852,1,0,0:0:0:0:
64,192,160999,1,0,0:0:0:0:
192,192,161146,1,0,0:0:0:0:
448,192,161146,1,0,0:0:0:0:
320,192,161440,1,0,0:0:0:0:
192,192,161587,1,0,0:0:0:0:
64,192,161734,1,0,0:0:0:0:
448,192,161734,1,0,0:0:0:0:
192,192,162175,1,0,0:0:0:0:
320,192,162322,1,0,0:0:0:0:
448,192,162322,1,0,0:0:0:0:
64,192,162616,1,0,0:0:0:0:
192,192,162911,1,0,0:0:0:0:
320,192,162911,1,0,0:0:0:0:
448,192,163205,1,0,0:0:0:0:
192,192,163352,1,0,0:0:0:0:
64,192,163499,1,0,0:0:0:0:
320,192,163499,1,0,0:0:0:0:
192,192,163793,1,0,0:0:0:0:
448,192,164087,1,0,0:0:0:0:
320,192,164455,1,0,0:0:0:0:
64,192,164528,1,0,0:0:0:0:
192,192,164675,1,0,0:0:0:0:
448,192,164675,1,0,0:0:0:0:
64,192,164969,1,0,0:0:0:0:
192,192,165264,1,0,0:0:0:0:
320,192,165264,1,0,0:0:0:0:
448,192,165558,1,0,0:0:0:0:
192,192,165705,1,0,0:0:0:0:
64,192,165852,1,0,0:0:0:0:
320,192,165852,1,0,0:0:0:0:
192,192,166146,1,0,0:0:0:0:
64,192,166366,1,0,0:0:0:0:
448,192,166440,1,0,0:0:0:0:
192,192,166734,1,0,0:0:0:0:
320,192,166808,1,0,0:0:0:0:
64,192,166881,1,0,0:0:0:0:
448,192,167028,1,0,0:0:0:0:
64,192,167322,1,0,0:0:0:0:
192,192,167322,1,0,0:0:0:0:
448,192,167616,1,0,0:0:0:0:
64,192,168058,1,0,0:0:0:0:
320,192,168205,1,0,0:0:0:0:
448,192,168205,1,0,0:0:0:0:
192,192,168499,1,0,0:0:0:0:
320,192,168646,1,0,0:0:0:0:
64,192,168793,1,0,0:0:0:0:
320,192,169161,1,0,0:0:0:0:
192,192,169234,1,0,0:0:0:0:
64,192,169381,1,0,0:0:0:0:
448,192,169381,1,0,0:0:0:0:
320,192,169675,1,0,0:0:0:0:
64,192,169969,1,0,0:0:0:0:
192,192,169969,1,0,0:0:0:0:
320,192,170264,1,0,0:0:0:0:
192,192,170411,1,0,0:0:0:0:
64,192,170558,1,0,0:0:0:0:
448,192,170558,1,0,0:0:0:0:
320,192,170852,1,0,0:0:0:0:
64,192,170999,1,0,0:0:0:0:
192,192,171146,1,0,0:0:0:0:
448,192,171146,1,0,0:0:0:0:
64,192,171440,1,0,0:0:0:0:
448,192,171587,1,0,0:0:0:0:
192,192,171734,1,0,0:0:0:0:
320,192,171734,1,0,0:0:0:0:
64,192,172028,1,0,0:0:0:0:
448,192,172175,1,0,0:0:0:0:
64,192,172322,1,0,0:0:0:0:
192,192,172322,1,0,0:0:0:0:
448,192,172469,1,0,0:0:0:0:
192,192,172616,1,0,0:0:0:0:
320,192,172616,1,0,0:0:0:0:
64,192,172764,1,0,0:0:0:0:
320,192,172911,1,0,0:0:0:0:
448,192,172911,1,0,0:0:0:0:
64,192,173058,1,0,0:0:0:0:
192,192,173205,1,0,0:0:0:0:
320,192,173352,1,0,0:0:0:0:
192,192,173499,1,0,0:0:0:0:
448,192,173499,1,0,0:0:0:0:
320,192,173646,1,0,0:0:0:0:
64,192,173793,1,0,0:0:0:0:
448,192,173793,1,0,0:0:0:0:
192,192,173940,1,0,0:0:0:0:
64,192,174087,1,0,0:0:0:0:
320,192,174087,1,0,0:0:0:0:
192,192,174234,1,0,0:0:0:0:
448,192,174381,1,0,0:0:0:0:
64,192,174528,1,0,0:0:0:0:
320,192,174675,1,0,0:0:0:0:
448,192,174675,1,0,0:0:0:0:
64,192,174822,1,0,0:0:0:0:
192,192,174969,1,0,0:0:0:0:
320,192,174969,1,0,0:0:0:0:
448,192,175116,1,0,0:0:0:0:
64,192,175264,1,0,0:0:0:0:
192,192,175264,1,0,0:0:0:0:
448,192,175411,1,0,0:0:0:0:
320,192,175558,1,0,0:0:0:0:
64,192,175778,1,0,0:0:0:0:
448,192,175852,1,0,0:0:0:0:
192,192,175999,1,0,0:0:0:0:
320,192,176146,1,0,0:0:0:0:
64,192,176366,1,0,0:0:0:0:
192,192,176440,1,0,0:0:0:0:
448,192,176587,1,0,0:0:0:0:
320,192,176661,1,0,0:0:0:0:
64,192,176734,1,0,0:0:0:0:
448,192,176881,1,0,0:0:0:0:
192,192,177028,1,0,0:0:0:0:
320,192,177028,1,0,0:0:0:0:
64,192,177175,1,0,0:0:0:0:
192,192,177322,1,0,0:0:0:0:
448,192,177322,1,0,0:0:0:0:
320,192,177469,1,0,0:0:0:0:
64,192,177616,1,0,0:0:0:0:
448,192,177616,1,0,0:0:0:0:
192,192,177764,1,0,0:0:0:0:
64,192,177911,1,0,0:0:0:0:
320,192,177911,1,0,0:0:0:0:
448,192,178058,1,0,0:0:0:0:
192,192,178205,1,0,0:0:0:0:
320,192,178205,1,0,0:0:0:0:
64,192,178352,1,0,0:0:0:0:
192,192,178499,1,0,0:0:0:0:
448,192,178499,1,0,0:0:0:0:
320,192,178646,1,0,0:0:0:0:
64,192,178793,1,0,0:0:0:0:
448,192,178793,1,0,0:0:0:0:
320,192,178940,1,0,0:0:0:0:
192,192,179087,1,0,0:0:0:0:
448,192,179381,1,0,0:0:0:0:
320,192,179675,1,0,0:0:0:0:
64,192,179822,1,0,0:0:0:0:
192,192,179969,1,0,0:0:0:0:
448,192,180264,1,0,0:0:0:0:
192,192,180558,1,0,0:0:0:0:
320,192,180852,1,0,0:0:0:0:
64,192,181146,1,0,0:0:0:0:
192,192,181440,1,0,0:0:0:0:
320,192,181440,1,0,0:0:0:0:
64,192,181734,1,0,0:0:0:0:
448,192,181734,1,0,0:0:0:0:
192,192,182175,1,0,0:0:0:0:
320,192,182322,1,0,0:0:0:0:
448,192,182322,1,0,0:0:0:0:
64,192,182616,1,0,0:0:0:0:
192,192,182911,1,0,0:0:0:0:
320,192,182911,1,0,0:0:0:0:
320,192,183278,1,0,0:0:0:0:
64,192,183352,1,0,0:0:0:0:
192,192,183499,1,0,0:0:0:0:
448,192,183499,1,0,0:0:0:0:
320,192,183793,1,0,0:0:0:0:
64,192,184087,1,0,0:0:0:0:
448,192,184087,1,0,0:0:0:0:
320,192,184528,1,0,0:0:0:0:
64,192,184675,1,0,0:0:0:0:
192,192,184675,1,0,0:0:0:0:
448,192,184969,1,0,0:0:0:0:
192,192,185264,1,0,0:0:0:0:
320,192,185264,1,0,0:0:0:0:
192,192,185631,1,0,0:0:0:0:
448,192,185705,1,0,0:0:0:0:
64,192,185852,1,0,0:0:0:0:
320,192,185852,1,0,0:0:0:0:
64,192,186146,1,0,0:0:0:0:
448,192,186146,1,0,0:0:0:0:
192,192,186440,1,0,0:0:0:0:
320,192,186440,1,0,0:0:0:0:
64,192,186881,1,0,0:0:0:0:
320,192,187028,1,0,0:0:0:0:
448,192,187028,1,0,0:0:0:0:
64,192,187322,1,0,0:0:0:0:
192,192,187616,1,0,0:0:0:0:
448,192,187616,1,0,0:0:0:0:
320,192,187984,1,0,0:0:0:0:
64,192,188058,1,0,0:0:0:0:
192,192,188205,1,0,0:0:0:0:
448,192,188499,1,0,0:0:0:0:
192,192,188793,1,0,0:0:0:0:
320,192,188793,1,0,0:0:0:0:
64,192,189234,1,0,0:0:0:0:
320,192,189381,1,0,0:0:0:0:
448,192,189381,1,0,0:0:0:0:
64,192,189528,1,0,0:0:0:0:
192,192,189528,1,0,0:0:0:0:
320,192,189822,1,0,0:0:0:0:
448,192,189822,1,0,0:0:0:0:
192,192,190116,1,0,0:0:0:0:
320,192,190116,1,0,0:0:0:0:
64,192,190411,128,0,191440:0:0:0:0:
448,192,190411,128,0,191440:0:0:0:0:
