osu file format v14

[General]
AudioFilename: audio.mp3
AudioLeadIn: 0
PreviewTime: 169348
Countdown: 0
SampleSet: Soft
StackLeniency: 0.5
Mode: 0
LetterboxInBreaks: 0
WidescreenStoryboard: 0

[Editor]
DistanceSpacing: 1.8
BeatDivisor: 8
GridSize: 4
TimelineZoom: 1.4

[Metadata]
Title:Eine Kleine
TitleUnicode:アイネクライネ
Artist:Kenshi Yonezu
ArtistUnicode:米津玄師
Creator:Modem
Version:Your Name
Source:
Tags:cut version
BeatmapID:2047734
BeatmapSetID:937854

[Difficulty]
HPDrainRate:8
CircleSize:4
OverallDifficulty:8
ApproachRate:9
SliderMultiplier:2.2
SliderTickRate:1

[Events]
//Background and Video events
Video,0,"Video.mp4"
0,0,"bg2.jpg",0,0
//Break Periods
//Storyboard Layer 0 (Background)
//Storyboard Layer 1 (Fail)
//Storyboard Layer 2 (Pass)
//Storyboard Layer 3 (Foreground)
//Storyboard Layer 4 (Overlay)
//Storyboard Sound Samples

[TimingPoints]
2455,689.655172413793,4,2,2,30,1,0
2972,-100,4,2,2,50,0,0
3834,-100,4,2,2,30,0,0
4351,-100,4,2,2,50,0,0
5213,-100,4,2,2,30,0,0
5730,-100,4,2,2,50,0,0
6592,-100,4,2,2,30,0,0
7110,-100,4,2,2,50,0,0
7282,-100,4,2,2,30,0,0
7454,-100,4,2,2,50,0,0
7972,-100,4,2,2,30,0,0
8489,-100,4,2,2,50,0,0
9351,-100,4,2,2,30,0,0
9610,-100,4,2,2,5,0,0
9696,-100,4,2,2,30,0,0
9868,-100,4,2,2,50,0,0
10299,-100,4,2,2,5,0,0
10386,-100,4,2,2,50,0,0
10644,-100,4,2,2,5,0,0
10730,-100,4,2,2,30,0,0
11075,-100,4,2,2,50,0,0
11248,-100,4,2,2,50,0,0
11420,-100,4,2,2,30,0,0
11765,-100,4,2,2,50,0,0
11937,-100,4,2,2,50,0,0
12110,-100,4,2,2,30,0,0
12627,-100,4,2,2,50,0,0
12799,-100,4,2,2,30,0,0
13317,-100,4,2,2,50,0,0
13489,-100,4,2,2,40,0,0
13834,-100,4,2,2,50,0,0
14782,-100,4,2,2,5,0,0
14868,-100,4,2,2,40,0,0
15213,-100,4,2,2,50,0,0
16161,-100,4,2,2,5,0,0
16248,-100,4,2,2,40,0,0
16592,-100,4,2,2,50,0,0
16937,-100,4,2,2,40,0,0
17110,-100,4,2,2,50,0,0
17541,-100,4,2,2,5,0,0
17627,-100,4,2,2,40,0,0
18489,-100,4,2,2,50,0,0
19006,-100,4,2,2,40,0,0
19351,-100,4,2,2,50,0,0
20386,-100,4,2,2,40,0,0
20558,-100,4,2,2,50,0,0
21765,-100,4,2,2,40,0,0
22110,-100,4,2,2,50,0,0
23144,-100,4,2,2,30,0,0
26937,-100,4,2,46,100,0,0
27282,-90.9090909090909,4,2,1,50,0,0
37972,-90.9090909090909,4,2,2,50,0,0
38317,-90.9090909090909,4,2,1,60,0,0
43489,-90.9090909090909,4,2,2,60,0,0
43661,-90.9090909090909,4,2,1,60,0,0
43834,-90.9090909090909,4,2,1,60,0,0
49179,-90.9090909090909,4,2,1,40,0,0
49351,-90.9090909090909,4,2,1,60,0,0
51765,-90.9090909090909,4,2,46,60,0,0
52110,-83.3333333333333,4,2,1,70,0,0
65472,-83.3333333333333,4,2,1,5,0,0
65558,-83.3333333333333,4,2,1,70,0,0
65817,-83.3333333333333,4,2,1,5,0,0
65903,-83.3333333333333,4,2,1,70,0,0
72799,689.655172413793,4,2,1,75,1,0
72799,-76.9230769230769,4,2,1,75,0,0
77799,-125,4,2,46,60,0,0
77971,-100,4,2,44,60,0,0
78143,-100,4,2,42,60,0,0
78316,-76.9230769230769,4,2,1,95,0,1
78661,-76.9230769230769,4,2,41,95,0,1
78833,-76.9230769230769,4,2,39,95,0,1
79005,-76.9230769230769,4,2,1,95,0,1
79178,-76.9230769230769,4,2,41,95,0,1
79350,-76.9230769230769,4,2,42,95,0,1
79523,-76.9230769230769,4,2,44,95,0,1
80040,-76.9230769230769,4,2,42,95,0,1
80212,-76.9230769230769,4,2,41,95,0,1
80557,-76.9230769230769,4,2,42,95,0,1
80730,-76.9230769230769,4,2,44,95,0,1
80902,-76.9230769230769,4,2,46,95,0,1
81074,-76.9230769230769,4,2,2,95,0,1
81333,-76.9230769230769,4,2,1,5,0,1
81419,-76.9230769230769,4,2,46,95,0,1
81764,-76.9230769230769,4,2,47,95,0,1
81936,-76.9230769230769,4,2,46,95,0,1
82109,-76.9230769230769,4,2,47,95,0,1
82281,-76.9230769230769,4,2,49,85,0,1
82454,-76.9230769230769,4,2,51,95,0,1
82971,-76.9230769230769,4,2,54,95,0,1
83316,-76.9230769230769,4,2,46,95,0,1
83488,-76.9230769230769,4,2,44,95,0,1
83661,-76.9230769230769,4,2,42,95,0,1
83833,-76.9230769230769,4,2,1,95,0,1
84178,-76.9230769230769,4,2,41,95,0,1
84350,-76.9230769230769,4,2,39,95,0,1
84695,-76.9230769230769,4,2,41,95,0,1
84867,-76.9230769230769,4,2,42,95,0,1
85040,-76.9230769230769,4,2,44,95,0,1
85557,-76.9230769230769,4,2,42,95,0,1
85730,-76.9230769230769,4,2,41,95,0,1
86074,-76.9230769230769,4,2,42,95,0,1
86247,-76.9230769230769,4,2,44,95,0,1
86419,-76.9230769230769,4,2,46,95,0,1
86592,-76.9230769230769,4,2,2,95,0,1
86850,-76.9230769230769,4,2,1,5,0,1
86936,-76.9230769230769,4,2,42,95,0,1
87281,-76.9230769230769,4,2,44,95,0,1
87454,-76.9230769230769,4,2,46,95,0,1
87626,-76.9230769230769,4,2,49,95,0,1
87799,-76.9230769230769,4,2,51,95,0,1
87971,-76.9230769230769,4,2,44,95,0,1
88488,-76.9230769230769,4,2,46,95,0,1
88574,-76.9230769230769,4,2,1,5,0,1
88661,-76.9230769230769,4,2,1,95,0,1
88833,-76.9230769230769,4,2,46,95,0,1
89005,-76.9230769230769,4,2,44,95,0,1
89178,-76.9230769230769,4,2,42,95,0,1
89350,-76.9230769230769,4,2,1,95,0,1
89695,-76.9230769230769,4,2,41,95,0,1
89867,-76.9230769230769,4,2,39,95,0,1
90212,-76.9230769230769,4,2,41,95,0,1
90385,-76.9230769230769,4,2,42,95,0,1
90557,-76.9230769230769,4,2,44,95,0,1
91074,-76.9230769230769,4,2,42,95,0,1
91247,-76.9230769230769,4,2,41,95,0,1
91592,-76.9230769230769,4,2,42,95,0,1
91764,-76.9230769230769,4,2,44,95,0,1
91936,-76.9230769230769,4,2,46,95,0,1
92109,-76.9230769230769,4,2,2,95,0,1
92367,-76.9230769230769,4,2,1,5,0,1
92454,-76.9230769230769,4,2,46,95,0,1
92799,-76.9230769230769,4,2,47,95,0,1
92971,-76.9230769230769,4,2,46,95,0,1
93143,-76.9230769230769,4,2,47,95,0,1
93316,-76.9230769230769,4,2,49,95,0,1
93488,-76.9230769230769,4,2,51,95,0,1
94005,-76.9230769230769,4,2,54,95,0,1
94178,-76.9230769230769,4,2,1,95,0,1
94523,-76.9230769230769,4,2,54,95,0,1
94867,-76.9230769230769,4,2,42,95,0,1
95212,-76.9230769230769,4,2,44,95,0,1
95557,-76.9230769230769,4,2,42,95,0,1
95902,-76.9230769230769,4,2,41,95,0,1
96161,-76.9230769230769,4,2,1,5,0,1
96247,-76.9230769230769,4,2,1,95,0,1
96592,-76.9230769230769,4,2,42,95,0,1
96850,-76.9230769230769,4,2,1,5,0,1
96936,-76.9230769230769,4,2,44,95,0,1
97109,-76.9230769230769,4,2,46,95,0,1
97626,-76.9230769230769,4,2,49,95,0,1
97971,-76.9230769230769,4,2,46,95,0,1
98143,-76.9230769230769,4,2,44,95,0,1
98488,-76.9230769230769,4,2,46,95,0,1
98919,-76.9230769230769,4,2,1,5,0,1
99005,-76.9230769230769,4,2,1,95,0,1
100040,-76.9230769230769,4,2,51,95,0,1
100385,-76.9230769230769,4,2,42,95,0,1
100730,-76.9230769230769,4,2,44,95,0,1
101074,-76.9230769230769,4,2,42,95,0,1
101419,-76.9230769230769,4,2,41,95,0,1
101678,-76.9230769230769,4,2,2,95,0,1
101764,-76.9230769230769,4,2,1,95,0,1
102109,-76.9230769230769,4,2,42,95,0,1
102367,-76.9230769230769,4,2,1,5,0,1
102454,-76.9230769230769,4,2,44,95,0,1
102626,-76.9230769230769,4,2,46,95,0,1
103143,-125,4,2,49,50,0,0
103488,-125,4,2,46,70,0,0
103661,-125,4,2,44,70,0,0
104005,-125,4,2,46,70,0,0
104436,-125,4,2,2,5,0,0
104523,-125,4,2,2,70,0,0
105212,689.655172413793,4,2,1,100,1,1
105212,-76.9230769230769,4,2,1,100,0,1
105556,-76.9230769230769,4,2,1,40,0,1
105901,-76.9230769230769,4,2,1,55,0,1
106246,-76.9230769230769,4,2,1,40,0,1
106763,-76.9230769230769,4,2,1,55,0,1
106936,-76.9230769230769,4,2,1,40,0,1
109522,-76.9230769230769,4,2,1,55,0,1
109694,-76.9230769230769,4,2,1,40,0,1
110729,-90.9090909090909,4,2,1,70,0,0
121074,-90.9090909090909,4,2,2,70,0,0
121246,-90.9090909090909,4,2,1,70,0,0
121418,-90.9090909090909,4,2,1,70,0,0
126591,-90.9090909090909,4,2,2,70,0,0
126763,-90.9090909090909,4,2,1,70,0,0
126936,-90.9090909090909,4,2,1,70,0,0
130729,-90.9090909090909,4,2,1,60,0,0
130815,-90.9090909090909,4,2,1,5,0,0
130901,-90.9090909090909,4,2,1,60,0,0
130987,-90.9090909090909,4,2,1,5,0,0
131074,-125,4,2,1,100,0,0
131332,-125,4,2,1,5,0,0
131418,689.655172413793,4,2,1,90,1,1
131418,-83.3333333333333,4,2,1,90,0,1
131762,-83.3333333333333,4,2,47,65,0,1
131935,-83.3333333333333,4,2,46,65,0,1
132107,-83.3333333333333,4,2,44,65,0,1
132797,-83.3333333333333,4,2,46,65,0,1
132969,-83.3333333333333,4,2,44,65,0,1
133142,-83.3333333333333,4,2,42,65,0,1
134090,-83.3333333333333,4,2,1,5,0,1
134176,-83.3333333333333,4,2,39,65,0,1
134521,-83.3333333333333,4,2,42,65,0,1
134866,-83.3333333333333,4,2,44,65,0,1
135211,-83.3333333333333,4,2,46,65,0,1
135469,-83.3333333333333,4,2,1,5,0,1
135555,-83.3333333333333,4,2,47,65,0,1
135728,-83.3333333333333,4,2,46,65,0,1
135900,-83.3333333333333,4,2,44,65,0,1
136245,-83.3333333333333,4,2,46,75,0,1
136418,-83.3333333333333,4,2,44,75,0,1
136590,-83.3333333333333,4,2,42,75,0,1
136762,-83.3333333333333,4,2,41,75,0,1
136935,-83.3333333333333,4,2,39,65,0,1
137280,-83.3333333333333,4,2,47,65,0,1
137452,-83.3333333333333,4,2,46,65,0,1
137624,-83.3333333333333,4,2,44,65,0,1
138314,-83.3333333333333,4,2,46,65,0,1
138486,-83.3333333333333,4,2,44,65,0,1
138659,-83.3333333333333,4,2,42,65,0,1
139607,-83.3333333333333,4,2,1,5,0,1
139693,-83.3333333333333,4,2,41,65,0,1
140038,-83.3333333333333,4,2,42,65,0,1
140383,-83.3333333333333,4,2,44,65,0,1
140728,-83.3333333333333,4,2,46,65,0,1
140986,-83.3333333333333,4,2,1,5,0,1
141073,-83.3333333333333,4,2,47,65,0,1
141418,-83.3333333333333,4,2,46,65,0,1
142107,-83.3333333333333,4,2,46,85,0,1
142193,-83.3333333333333,4,2,1,5,0,0
142280,-83.3333333333333,4,2,47,85,0,0
142366,-83.3333333333333,4,2,1,5,0,0
142452,-83.3333333333333,4,2,1,90,0,1
142797,-83.3333333333333,4,2,47,65,0,1
142969,-83.3333333333333,4,2,46,65,0,1
143142,-83.3333333333333,4,2,44,65,0,1
143659,-83.3333333333333,4,2,46,65,0,1
144004,-83.3333333333333,4,2,44,65,0,1
144176,-83.3333333333333,4,2,42,65,0,1
145124,-83.3333333333333,4,2,1,5,0,1
145211,-83.3333333333333,4,2,39,65,0,1
145555,-83.3333333333333,4,2,42,65,0,1
145900,-83.3333333333333,4,2,44,65,0,1
146245,-83.3333333333333,4,2,46,65,0,1
146504,-83.3333333333333,4,2,1,5,0,1
146590,-83.3333333333333,4,2,47,65,0,1
146935,-83.3333333333333,4,2,44,65,0,1
147624,-83.3333333333333,4,2,44,65,0,0
147797,-83.3333333333333,4,2,42,65,0,0
147969,-83.3333333333333,4,2,1,90,0,1
148314,-83.3333333333333,4,2,42,65,0,1
148659,-83.3333333333333,4,2,44,65,0,1
148831,-83.3333333333333,4,2,46,65,0,1
149004,-83.3333333333333,4,2,42,65,0,1
150383,-83.3333333333333,4,2,44,90,0,1
150555,-83.3333333333333,4,2,42,90,0,1
150728,-125,4,2,41,90,0,0
151245,-125,4,2,42,90,0,0
151418,-125,4,2,44,90,0,0
151590,-125,4,2,46,90,0,0
152107,689.655172413793,4,2,42,70,1,0
152107,-76.9230769230769,4,2,42,70,0,0
152796,-76.9230769230769,4,2,44,90,0,0
153486,-76.9230769230769,4,2,42,90,0,0
154175,-76.9230769230769,4,2,44,90,0,0
154865,-76.9230769230769,4,2,42,90,0,0
155555,-76.9230769230769,4,2,44,90,0,0
156244,-76.9230769230769,4,2,42,90,0,0
156934,-76.9230769230769,4,2,44,90,0,0
157624,-76.9230769230769,4,2,42,90,0,0
158313,-76.9230769230769,4,2,44,90,0,0
159003,-76.9230769230769,4,2,42,90,0,0
159693,-76.9230769230769,4,2,44,90,0,0
160382,-76.9230769230769,4,2,42,90,0,0
161072,-76.9230769230769,4,2,44,90,0,0
161762,-76.9230769230769,4,2,42,90,0,0
162451,-76.9230769230769,4,2,44,90,0,0
162796,-125,4,2,1,70,0,0
163055,-125,4,2,1,5,0,0
163141,-76.9230769230769,4,2,42,70,0,0
163831,-76.9230769230769,4,2,44,70,0,0
164520,-76.9230769230769,4,2,42,70,0,0
165210,-76.9230769230769,4,2,44,70,0,0
165900,-76.9230769230769,4,2,42,70,0,0
166589,-76.9230769230769,4,2,44,70,0,0
167279,-100,4,2,1,80,0,0
169520,-125,4,2,46,60,0,0
169693,-76.9230769230769,4,2,44,60,0,0
169865,-76.9230769230769,4,2,42,60,0,0
170038,689.655172413793,4,2,1,95,1,1
170038,-76.9230769230769,4,2,1,95,0,1
170382,-76.9230769230769,4,2,41,95,0,1
170555,-76.9230769230769,4,2,39,95,0,1
170900,-76.9230769230769,4,2,41,95,0,1
171072,-76.9230769230769,4,2,42,95,0,1
171244,-76.9230769230769,4,2,44,95,0,1
171762,-76.9230769230769,4,2,42,95,0,1
171934,-76.9230769230769,4,2,41,95,0,1
172279,-76.9230769230769,4,2,42,95,0,1
172451,-76.9230769230769,4,2,44,95,0,1
172624,-76.9230769230769,4,2,46,95,0,1
172796,-76.9230769230769,4,2,2,95,0,1
173055,-76.9230769230769,4,2,1,5,0,1
173141,-76.9230769230769,4,2,46,95,0,1
173486,-76.9230769230769,4,2,47,95,0,1
173658,-76.9230769230769,4,2,46,95,0,1
173831,-76.9230769230769,4,2,47,95,0,1
174003,-76.9230769230769,4,2,49,65,0,1
174089,-76.9230769230769,4,2,2,65,0,1
174175,-76.9230769230769,4,2,51,95,0,1
174693,-76.9230769230769,4,2,54,95,0,1
174865,-76.9230769230769,4,2,1,95,0,1
175210,-76.9230769230769,4,2,44,95,0,1
175382,-76.9230769230769,4,2,42,95,0,1
175813,-76.9230769230769,4,2,1,5,0,1
175900,-62.5,4,2,41,95,0,1
176158,-62.5,4,2,1,5,0,1
176244,-52.6315789473684,4,2,1,95,0,1
176417,-76.9230769230769,4,2,41,95,0,1
176589,-76.9230769230769,4,2,42,95,0,1
176762,-76.9230769230769,4,2,44,95,0,1
176934,-76.9230769230769,4,2,46,95,0,1
177279,-76.9230769230769,4,2,42,95,0,1
177624,-76.9230769230769,4,2,41,95,0,1
177796,-76.9230769230769,4,2,42,95,0,1
177969,-76.9230769230769,4,2,44,95,0,1
178141,-76.9230769230769,4,2,46,95,0,1
178313,-76.9230769230769,4,2,1,95,0,1
178572,-76.9230769230769,4,2,1,5,0,1
178658,-76.9230769230769,4,2,42,95,0,1
179003,-76.9230769230769,4,2,1,95,0,1
179175,-76.9230769230769,4,2,46,95,0,1
179348,-76.9230769230769,4,2,49,95,0,1
179520,-76.9230769230769,4,2,51,95,0,1
179693,-76.9230769230769,4,2,44,95,0,1
180296,-76.9230769230769,4,2,1,5,0,1
180382,-62.5,4,2,1,95,0,1
180641,-62.5,4,2,1,5,0,1
180727,-52.6315789473684,4,2,1,95,0,1
180986,-52.6315789473684,4,2,1,5,0,1
181072,-52.6315789473684,4,2,1,95,0,1
181158,-52.6315789473684,4,2,1,5,0,1
181244,-62.5,4,2,1,95,0,1
181331,-62.5,4,2,1,5,0,1
181417,-76.9230769230769,4,2,41,95,0,1
181503,-76.9230769230769,4,2,1,5,0,1
181589,-100,4,2,39,95,0,1
181675,-100,4,2,1,5,0,1
181762,-52.6315789473684,4,2,1,95,0,1
181934,-52.6315789473684,4,2,41,95,0,1
182106,-52.6315789473684,4,2,42,95,0,1
182279,-52.6315789473684,4,2,44,95,0,1
182796,-76.9230769230769,4,2,42,95,0,1
182969,-76.9230769230769,4,2,41,95,0,1
183313,-76.9230769230769,4,2,42,95,0,1
183486,-76.9230769230769,4,2,44,95,0,1
183658,-76.9230769230769,4,2,46,95,0,1
183831,-76.9230769230769,4,2,2,95,0,1
184089,-76.9230769230769,4,2,1,5,0,1
184175,-76.9230769230769,4,2,46,95,0,1
184520,-76.9230769230769,4,2,47,95,0,1
184693,-76.9230769230769,4,2,46,95,0,1
184865,-76.9230769230769,4,2,47,95,0,1
185038,-76.9230769230769,4,2,49,95,0,1
185210,-76.9230769230769,4,2,51,95,0,1
186244,-76.9230769230769,4,2,54,95,0,1
186589,-76.9230769230769,4,2,42,95,0,1
186934,-76.9230769230769,4,2,44,95,0,1
187279,-76.9230769230769,4,2,42,95,0,1
187624,-76.9230769230769,4,2,41,95,0,1
187882,-76.9230769230769,4,2,1,5,0,1
187969,-76.9230769230769,4,2,1,95,0,1
188313,-76.9230769230769,4,2,42,95,0,1
188572,-76.9230769230769,4,2,1,5,0,1
188658,-76.9230769230769,4,2,44,95,0,1
188831,-76.9230769230769,4,2,46,95,0,1
189348,-76.9230769230769,4,2,49,95,0,1
189693,-76.9230769230769,4,2,46,95,0,1
189865,-76.9230769230769,4,2,44,95,0,1
190038,-76.9230769230769,4,2,1,95,0,1
190210,-76.9230769230769,4,2,46,95,0,1
190641,-76.9230769230769,4,2,2,95,0,1
190727,-76.9230769230769,4,2,1,95,0,1
190900,-62.5,4,2,1,95,0,1
191417,-52.6315789473684,4,2,1,95,0,1
191762,-52.6315789473684,4,2,51,95,0,1
192106,-76.9230769230769,4,2,42,95,0,1
192451,-76.9230769230769,4,2,44,95,0,1
192796,-76.9230769230769,4,2,42,95,0,1
193141,-76.9230769230769,4,2,41,95,0,1
193831,-76.9230769230769,4,2,42,95,0,1
194175,-76.9230769230769,4,2,44,95,0,1
194348,-76.9230769230769,4,2,46,95,0,1
194865,-52.6315789473684,4,2,1,100,0,1
195124,-52.6315789473684,4,2,1,5,0,1
195210,-125,4,2,1,100,0,1
195469,-125,4,2,1,5,0,1
195555,-52.6315789473684,4,2,1,100,0,1
195813,-52.6315789473684,4,2,1,5,0,1
195900,-125,4,2,1,100,0,1
196158,-125,4,2,1,5,0,1
196244,-52.6315789473684,4,2,1,100,0,1
196503,-52.6315789473684,4,2,1,5,0,1
196589,-52.6315789473684,4,2,1,100,0,1
196848,-52.6315789473684,4,2,1,5,0,1
196934,-52.6315789473684,4,2,1,100,0,1
197020,-52.6315789473684,4,2,1,5,0,1
197106,-52.6315789473684,4,2,1,100,0,1
197193,-52.6315789473684,4,2,1,5,0,1
197279,-52.6315789473684,4,2,51,100,0,1
197365,-52.6315789473684,4,2,1,5,0,1
197451,-52.6315789473684,4,2,1,100,0,1
197538,-52.6315789473684,4,2,1,5,0,1
197624,-125,4,2,42,70,0,0
197969,-125,4,2,44,70,0,0
198313,-125,4,2,42,70,0,0
198658,-125,4,2,41,70,0,0
199003,-125,4,2,2,40,0,0
199348,-125,4,2,42,70,0,0
199693,-125,4,2,44,70,0,0
199865,-125,4,2,46,70,0,0
200382,-125,4,2,49,40,0,0
200727,-125,4,2,46,70,0,0
200900,-125,4,2,44,70,0,0
201244,-125,4,2,46,70,0,0
201762,-125,4,2,2,70,0,0
202451,-125,4,2,46,70,0,0

[Colours]
Combo1 : 153,111,223
Combo2 : 255,128,192
Combo3 : 228,129,254

[HitObjects]
102,260,1937,5,2,0:0:0:0:
158,160,2109,1,2,0:0:0:0:
152,148,2455,6,0,B|212:160|244:116|244:116|263:148|295:155,1,165,4|2,0:0|0:0,0:0:0:0:
404,96,3144,2,0,P|372:30|321:93,1,165,2|2,0:3|0:0,0:0:0:0:
320,233,3834,2,0,B|289:232|268:257|268:257|292:149,1,165,4|2,0:0|0:0,0:0:0:0:
432,208,4523,1,2,0:3:0:0:
441,200,4868,2,0,B|425:272|425:272,1,55,2|0,0:0|0:0,0:0:0:0:
291,154,5213,6,0,B|271:118|279:98|279:98|327:138|395:106,1,165,4|2,0:0|0:0,0:0:0:0:
217,172,5903,2,0,B|200:139|202:105|202:105|164:120|164:120|100:104,1,165,2|2,0:3|0:0,0:0:0:0:
198,245,6592,2,0,P|238:245|262:233,1,55,4|0,0:0|0:0,0:0:0:0:
128,196,6937,2,0,B|74:182,1,55,6|2,0:0|0:0,0:0:0:0:
251,239,7282,2,0,B|304:225,2,55,4|2|2,0:0|0:0|0:0,0:0:0:0:
232,352,7799,1,2,0:0:0:0:
354,282,7972,6,0,P|375:200|305:149,1,165,4|2,0:0|0:0,0:0:0:0:
161,152,8661,2,0,B|201:164|237:148|237:148|273:160|273:160|341:148,1,165,2|2,0:3|0:0,0:0:0:0:
128,85,9351,2,0,P|93:120|88:161,1,82.5,4|0,0:0|0:0,0:0:0:0:
78,163,9696,2,0,B|97:221|97:221,1,55,6|2,0:0|0:0,0:0:0:0:
60,304,10041,2,0,B|92:205|92:205,1,82.5,2|0,0:0|0:0,0:0:0:0:
95,215,10386,2,0,P|139:223|191:199,1,82.5,2|0,0:0|0:0,0:0:0:0:
184,224,10730,6,0,P|180:172|224:120,1,110,4|0,0:0|0:0,0:0:0:0:
328,104,11248,1,2,0:0:0:0:
292,232,11420,2,0,B|248:224|248:224|228:231|228:231|177:223,1,110,4|0,0:0|0:0,0:0:0:0:
256,316,11937,1,2,0:0:0:0:
346,223,12110,2,0,B|275:235|275:235,1,55,4|0,0:0|0:0,0:0:0:0:
202,306,12454,2,0,B|281:320,1,55,4|2,0:0|0:0,0:0:0:0:
373,218,12799,2,0,B|323:226|323:226,4,27.5,4|0|0|0|2,0:0|0:0|0:0|0:0|0:0,0:0:0:0:
484,252,13317,1,2,0:0:0:0:
408,136,13489,6,0,B|293:154|293:154,1,110,4|2,0:0|0:0,0:0:0:0:
196,100,14006,1,2,0:0:0:0:
136,200,14179,2,0,L|128:264,1,55,2|2,0:3|0:0,0:0:0:0:
125,78,14523,2,0,P|148:42|197:25,1,82.5,2|0,0:0|0:0,0:0:0:0:
192,16,14868,2,0,B|236:36|236:36|278:26|314:51,1,110,4|2,0:0|0:0,0:0:0:0:
368,132,15386,1,2,0:0:0:0:
267,180,15558,2,0,L|259:116,1,55,2|2,0:3|0:0,0:0:0:0:
436,97,15903,2,0,P|444:133|416:193,1,82.5,2|0,0:0|0:0,0:0:0:0:
420,188,16248,6,0,P|472:208|496:280,1,110,4|2,0:0|0:0,0:0:0:0:
388,301,16765,1,2,0:0:0:0:
366,199,16937,2,0,L|426:187,1,55,4|2,0:0|0:0,0:0:0:0:
469,318,17282,2,0,L|388:301,1,82.5,2|0,0:0|0:0,0:0:0:0:
376,312,17627,2,0,L|322:322,1,55,4|0,0:0|0:0,0:0:0:0:
366,199,17972,2,0,L|419:210,1,55,4|0,0:0|0:0,0:0:0:0:
288,240,18317,2,0,L|250:247,4,27.5,4|0|2|0|0,0:0|0:0|0:0|0:0|0:0,0:0:0:0:
256,128,18834,1,2,0:0:0:0:
310,26,19006,6,0,P|357:64|366:134,1,110,4|2,0:0|0:0,0:0:0:0:
256,128,19523,1,2,0:0:0:0:
369,110,19696,2,0,P|389:82|449:154,1,165,2|2,0:3|0:0,0:0:0:0:
368,228,20386,1,4,0:0:0:0:
253,244,20558,1,2,0:0:0:0:
256,128,20730,1,0,0:0:0:0:
264,116,21075,2,0,B|216:128|216:128|172:112|136:136,1,110,2|2,0:3|0:0,0:0:0:0:
284,44,21765,6,0,P|321:68|331:147,1,110,4|2,0:0|0:0,0:0:0:0:
292,236,22282,1,2,0:0:0:0:
264,116,22455,2,0,B|204:132|204:132|140:104,1,110,2|2,0:3|0:0,0:0:0:0:
100,212,22972,1,2,0:0:0:0:
292,236,23145,1,4,0:0:0:0:
278,231,23834,1,4,0:0:0:0:
278,217,24523,5,4,0:0:0:0:
292,212,25213,1,4,0:0:0:0:
300,224,25903,1,4,0:0:0:0:
108,352,26248,1,4,0:0:0:0:
36,132,26592,2,0,L|44:104,6,18.3333333333333,0|0|0|0|0|0|2,0:0|0:0|0:0|0:0|0:0|0:0|0:0,0:0:0:0:
36,132,27282,6,0,P|96:140|136:192,1,121.000003692627,12|0,0:1|0:0,0:0:0:0:
152,280,27799,1,4,0:0:0:0:
134,184,27972,2,0,B|126:140|126:140|132:107|132:107|117:20,1,121.000003692627,2|0,1:3|0:0,0:0:0:0:
228,140,28489,1,0,0:0:0:0:
316,96,28661,2,0,P|270:49|200:48,1,121.000003692627,0|4,0:0|0:0,0:0:0:0:
228,140,29179,1,0,0:0:0:0:
316,168,29351,1,2,1:3:0:0:
309,156,29696,2,0,L|317:88,1,60.5000018463135,0|0,0:0|0:0,0:0:0:0:
330,288,30041,6,0,L|314:152,1,121.000003692627,4|0,0:0|0:0,0:0:0:0:
232,120,30558,1,4,0:0:0:0:
176,200,30730,2,0,B|137:214|100:196|100:196|40:220,1,121.000003692627,2|0,1:3|0:0,0:0:0:0:
104,300,31248,1,0,0:0:0:0:
1,261,31420,2,0,P|-16:208|27:142,1,121.000003692627,0|4,0:0|0:0,0:0:0:0:
64,68,31937,1,0,0:0:0:0:
160,88,32110,2,0,L|228:112,1,60.5000018463135,2|0,1:3|0:0,0:0:0:0:
344,75,32455,1,0,0:0:0:0:
336,87,32799,6,0,L|200:111,1,121.000003692627,4|0,0:0|0:0,0:0:0:0:
152,184,33317,1,4,0:0:0:0:
240,224,33489,2,0,B|288:240|328:220|328:220|372:256|432:232,1,181.500005538941,2|0,1:3|0:0,0:0:0:0:
398,352,34179,2,0,P|390:292|422:228,1,121.000003692627,0|4,0:0|0:0,0:0:0:0:
472,160,34696,1,0,0:0:0:0:
384,60,34868,1,2,1:3:0:0:
374,68,35213,2,0,P|368:98|378:136,1,60.5000018463135,0|0,0:0|0:0,0:0:0:0:
503,51,35558,6,0,B|459:59|459:59|426:53|426:53|339:68,1,121.000003692627,4|0,0:0|0:0,0:0:0:0:
296,100,36075,1,4,0:0:0:0:
328,192,36248,2,0,B|388:216|440:192|440:192|388:220|400:296,1,181.500005538941,2|0,1:3|0:0,0:0:0:0:
426,357,36937,2,0,B|406:317|406:317|420:275|398:237,1,121.000003692627,0|4,0:0|0:0,0:0:0:0:
312,284,37454,1,0,0:0:0:0:
236,344,37627,2,0,B|255:383,4,30.2500009231568,2|0|0|0|4,1:3|0:0|0:0|0:0|0:1,0:0:0:0:
236,344,38317,6,0,P|196:280|132:280,1,121.000003692627,4|2,0:0|0:1,0:0:0:0:
60,292,38834,1,4,0:0:0:0:
56,196,39006,2,0,L|72:128,1,60.5000018463135,8|0,0:1|0:0,0:0:0:0:
152,84,39351,2,0,L|168:152,1,60.5000018463135,2|0,0:1|0:0,0:0:0:0:
306,88,39696,2,0,P|276:82|238:92,1,60.5000018463135,0|8,0:0|0:1,0:0:0:0:
276,180,40041,1,4,0:0:0:0:
372,164,40213,1,0,0:0:0:0:
280,193,40386,2,0,L|196:181,1,60.5000018463135,8|0,0:1|0:0,0:0:0:0:
392,238,40730,2,0,P|436:206|445:146,1,90.7500027694703,2|0,0:1|0:0,0:0:0:0:
460,180,41075,6,0,P|445:121|492:58,1,121.000003692627,4|2,0:0|0:1,0:0:0:0:
384,32,41592,1,0,0:0:0:0:
296,76,41765,2,0,L|212:64,1,60.5000018463135,8|0,0:1|0:0,0:0:0:0:
124,164,42110,2,0,L|208:152,1,60.5000018463135,2|0,0:1|0:0,0:0:0:0:
244,228,42454,5,4,0:0:0:0:
320,168,42627,1,8,0:1:0:0:
296,312,42799,2,0,P|262:327|228:324,1,60.5000018463135,4|0,0:0|0:0,0:0:0:0:
331,227,43144,2,0,L|315:143,1,60.5000018463135,8|0,0:1|0:0,0:0:0:0:
416,264,43489,1,4,0:1:0:0:
296,312,43661,1,0,0:0:0:0:
476,313,43834,6,0,P|492:257|444:191,1,121.000003692627,4|2,0:0|0:1,0:0:0:0:
400,132,44351,1,4,0:0:0:0:
256,92,44523,2,0,B|268:52|252:32|252:32|200:60|136:36,1,181.500005538941,8|8,0:1|0:1,0:0:0:0:
80,116,45213,2,0,L|156:140,1,60.5000018463135,4|8,0:0|0:1,0:0:0:0:
256,92,45558,1,4,0:0:0:0:
264,104,45903,2,0,B|303:108|328:88|328:88|356:88|392:120,1,121.000003692627,8|2,0:1|0:1,0:0:0:0:
377,107,46592,6,0,P|365:152|421:220,1,121.000003692627,4|2,0:0|0:1,0:0:0:0:
472,284,47110,1,4,0:0:0:0:
402,212,47282,2,0,B|346:186|346:186|282:208,1,121.000003692627,8|2,0:1|0:1,0:0:0:0:
216,268,47799,1,8,0:1:0:0:
132,148,47972,5,4,0:0:0:0:
140,292,48144,1,8,0:1:0:0:
140,136,48317,2,0,B|219:109|219:109,1,60.5000018463135,4|0,0:0|0:0,0:0:0:0:
398,186,48661,2,0,P|342:174|286:210,1,121.000003692627,8|2,0:1|0:1,0:0:0:0:
452,256,49179,1,8,0:1:0:0:
460,264,49265,1,8,0:1:0:0:
468,272,49351,6,0,L|500:200,1,60.5000018463135,4|8,0:0|0:1,0:0:0:0:
468,124,49696,1,2,0:1:0:0:
468,124,49868,1,4,0:0:0:0:
344,56,50041,2,0,P|288:60|244:116,1,121.000003692627,8|4,0:1|0:0,0:0:0:0:
268,200,50558,1,8,0:1:0:0:
176,236,50730,5,4,0:0:0:0:
276,212,50903,1,8,0:1:0:0:
136,140,51075,1,0,3:0:0:0:
176,236,51248,1,4,0:0:0:0:
180,244,51334,1,0,0:0:0:0:
184,252,51420,2,0,L|180:280,6,20.1666672821045,8|0|0|0|0|0|6,0:1|0:0|0:0|0:0|0:0|0:0|0:0,0:0:0:0:
248,64,52110,6,0,L|320:76,1,65.9999979858399,12|0,0:1|0:0,0:0:0:0:
440,136,52454,2,0,L|368:148,1,65.9999979858399,4|0,0:0|0:0,0:0:0:0:
183,103,52799,2,0,B|163:63|163:63|214:83|271:55,1,131.99999597168,8|4,0:1|0:0,0:0:0:0:
260,172,53317,1,0,0:0:0:0:
92,136,53489,6,0,B|62:76|62:76,1,65.9999979858399,8|0,0:1|0:0,0:0:0:0:
36,216,53834,2,0,P|29:256|46:295,1,65.9999979858399,4|0,0:0|0:0,0:0:0:0:
180,220,54179,2,0,B|160:180|160:180|96:260,1,131.99999597168,8|4,0:1|0:0,0:0:0:0:
172,332,54696,1,0,0:0:0:0:
272,248,54868,6,0,P|313:248|354:220,1,65.9999979858399,8|0,0:1|0:0,0:0:0:0:
261,114,55213,2,0,B|301:193,1,65.9999979858399,4|0,0:0|0:0,0:0:0:0:
424,188,55558,1,8,0:1:0:0:
368,100,55730,1,0,0:0:0:0:
335,238,55903,1,4,0:0:0:0:
446,111,56075,1,0,0:0:0:0:
392,288,56248,6,0,P|317:311|268:274,1,131.99999597168,8|4,0:1|0:0,0:0:0:0:
200,208,56765,1,0,0:0:0:0:
124,132,56937,2,0,P|92:184|100:252,1,131.99999597168,8|4,0:1|0:0,0:0:0:0:
232,84,57627,2,0,L|304:96,1,65.9999979858399,8|0,0:1|0:0,0:0:0:0:
336,248,57972,1,4,0:0:0:0:
372,115,58144,1,0,0:0:0:0:
412,269,58317,5,8,0:1:0:0:
316,171,58489,1,0,0:0:0:0:
281,305,58661,1,4,0:0:0:0:
392,192,58834,1,0,0:0:0:0:
260,228,59006,6,0,L|192:244,1,65.9999979858399,8|0,0:1|0:0,0:0:0:0:
381,181,59351,2,0,L|316:171,1,65.9999979858399,4|0,0:0|0:0,0:0:0:0:
484,112,59696,2,0,P|444:105|405:122,1,65.9999979858399,8|0,0:1|0:0,0:0:0:0:
464,284,60041,1,4,0:0:0:0:
452,185,60213,1,0,0:0:0:0:
472,296,60386,6,0,B|436:284|436:284|392:304|344:288,1,131.99999597168,8|4,0:1|0:0,0:0:0:0:
244,248,60903,1,0,0:0:0:0:
164,180,61075,2,0,P|196:152|228:148,1,65.9999979858399,8|0,0:1|0:0,0:0:0:0:
159,124,61420,2,0,P|199:132|227:160,1,65.9999979858399,4|0,0:0|0:0,0:0:0:0:
218,147,61765,2,0,P|222:129|314:129,1,131.99999597168,8|4,0:1|0:0,0:0:0:0:
288,228,62282,1,4,0:0:0:0:
244,324,62454,2,0,L|140:292,2,65.9999979858399,8|0|4,0:1|0:0|0:0,0:0:0:0:
343,355,62972,1,0,0:0:0:0:
360,196,63144,5,12,0:1:0:0:
415,323,63317,1,0,0:0:0:0:
495,212,63489,1,4,0:0:0:0:
351,276,63661,1,0,0:0:0:0:
432,164,63834,5,8,0:1:0:0:
288,228,64006,1,0,0:0:0:0:
423,244,64179,1,4,0:0:0:0:
343,355,64351,1,0,0:0:0:0:
478,356,64523,2,0,L|487:291,1,65.9999979858399,8|0,0:1|0:0,0:0:0:0:
423,99,64868,2,0,L|432:164,1,65.9999979858399,4|0,0:0|0:0,0:0:0:0:
472,40,65213,2,0,P|417:23|361:54,1,98.9999969787599,8|0,0:1|0:0,0:0:0:0:
367,44,65558,2,0,B|319:56|319:56|251:36,1,98.9999969787599,4|0,0:0|0:0,0:0:0:0:
256,48,65903,6,0,P|249:88|266:127,1,65.9999979858399,8|0,0:1|0:0,0:0:0:0:
292,212,66248,1,4,0:0:0:0:
204,272,66420,1,0,0:0:0:0:
300,202,66592,2,0,L|368:226,1,65.9999979858399,8|0,0:1|0:0,0:0:0:0:
325,170,66937,2,0,L|369:234,1,65.9999979858399,4|0,0:0|0:0,0:0:0:0:
362,224,67282,6,0,B|371:173|371:173|359:146|359:146|369:91,1,131.99999597168,8|4,0:1|0:0,0:0:0:0:
464,136,67799,1,0,0:0:0:0:
424,270,67972,2,0,P|350:300|296:263,1,131.99999597168,8|4,0:1|0:0,0:0:0:0:
488,217,68489,1,0,0:0:0:0:
372,96,68661,6,0,B|360:140|360:140|381:183|356:240,1,131.99999597168,12|4,0:1|0:0,0:0:0:0:
200,88,69351,2,0,P|156:80|80:136,1,131.99999597168,8|4,0:1|0:0,0:0:0:0:
169,189,69868,1,0,0:0:0:0:
135,289,70041,2,0,P|179:297|255:241,1,131.99999597168,8|4,0:1|0:0,0:0:0:0:
309,55,70730,2,0,B|318:106|318:106|306:133|306:133|316:188,1,131.99999597168,8|4,0:1|0:0,0:0:0:0:
413,139,71248,1,0,0:0:0:0:
315,183,71420,6,0,B|324:234|324:234|279:223|247:255,1,131.99999597168,8|4,0:1|0:0,0:0:0:0:
40,272,72110,1,8,0:1:0:0:
112,196,72282,1,8,0:3:0:0:
48,112,72454,2,0,L|60:40,1,65.9999979858399,4|0,0:0|0:0,0:0:0:0:
181,196,72799,6,0,P|140:204|101:189,1,71.4999967269899,12|0,0:1|0:0,0:0:0:0:
134,55,73143,2,0,L|146:127,1,71.4999967269899,4|0,0:0|0:0,0:0:0:0:
51,243,73488,2,0,P|35:191|43:163,1,71.4999967269899,8|0,0:1|0:0,0:0:0:0:
112,292,73833,2,0,P|68:320|20:312,1,71.4999967269899,4|0,0:0|0:0,0:0:0:0:
112,196,74178,6,0,L|192:212,1,71.4999967269899,8|0,0:1|0:0,0:0:0:0:
141,354,74523,2,0,P|113:310|121:262,1,71.4999967269899,4|0,0:0|0:0,0:0:0:0:
228,149,74867,2,0,P|256:193|248:241,1,71.4999967269899,8|0,0:1|0:0,0:0:0:0:
187,294,75212,1,4,0:0:0:0:
264,372,75385,1,4,0:0:0:0:
257,211,75557,6,0,L|337:195,1,71.4999967269899,8|0,0:1|0:0,0:0:0:0:
328,349,75902,2,0,P|288:373|248:365,1,71.4999967269899,4|0,0:0|0:0,0:0:0:0:
354,277,76247,2,0,P|393:308|402:337,1,71.4999967269899,8|0,0:1|0:0,0:0:0:0:
192,350,76592,2,0,P|209:318|239:300,1,71.4999967269899,4|0,0:0|0:0,0:0:0:0:
264,144,76936,2,0,B|272:103|256:72|256:72|296:75|296:75|331:64|331:64|351:112|343:167|320:216|320:216,1,285.99998690796,8|8,0:1|0:1,0:0:0:0:
384,256,77799,6,0,L|432:268,2,44,2|2|2,0:0|0:0|0:0,0:0:0:0:
264,144,78316,6,0,P|208:152|140:96,1,142.99999345398,4|2,0:1|0:0,0:0:0:0:
48,52,78833,1,6,0:0:0:0:
40,160,79005,2,0,L|28:240,1,71.4999967269899,8|2,0:0|0:0,0:0:0:0:
136,336,79350,1,2,0:0:0:0:
140,228,79523,1,2,0:0:0:0:
244,260,79695,2,0,P|304:256|352:192,1,142.99999345398,4|6,0:0|0:0,0:0:0:0:
433,82,80212,5,2,0:0:0:0:
352,194,80385,1,8,0:0:0:0:
369,34,80557,1,2,0:0:0:0:
424,162,80730,1,2,0:0:0:0:
288,147,80902,1,10,0:0:0:0:
416,242,81074,6,0,P|479:221|502:156,1,107.249995090485,12|0,0:3|0:0,0:0:0:0:
510,176,81419,2,0,L|494:92,1,71.4999967269899,2|4,0:0|0:0,0:0:0:0:
369,34,81764,1,10,0:0:0:0:
288,147,81936,1,2,0:0:0:0:
225,40,82109,1,2,0:0:0:0:
276,226,82281,1,2,0:0:0:0:
298,68,82454,6,0,P|365:133|344:204,1,142.99999345398,6|4,0:0|0:0,0:0:0:0:
336,280,82971,1,2,0:0:0:0:
219,166,83143,2,0,L|307:142,1,71.4999967269899,8|2,0:0|0:0,0:0:0:0:
336,280,83488,1,2,0:0:0:0:
218,280,83661,1,10,0:0:0:0:
388,337,83833,6,0,P|412:285|359:207,1,142.99999345398,4|2,0:1|0:0,0:0:0:0:
288,147,84350,1,6,0:0:0:0:
244,48,84523,2,0,P|284:36|324:48,1,71.4999967269899,8|2,0:0|0:0,0:0:0:0:
392,116,84867,1,2,0:0:0:0:
288,147,85040,1,2,0:0:0:0:
371,252,85212,6,0,B|403:164|403:164|391:112,1,142.99999345398,4|6,0:0|0:0,0:0:0:0:
312,42,85730,1,2,0:0:0:0:
288,147,85902,2,0,P|248:159|208:147,1,71.4999967269899,8|2,0:0|0:0,0:0:0:0:
120,108,86247,1,2,0:0:0:0:
88,208,86419,1,10,0:0:0:0:
84,40,86592,6,0,P|143:35|186:69,1,107.249995090485,12|0,0:3|0:0,0:0:0:0:
195,72,86936,2,0,L|275:60,1,71.4999967269899,2|4,0:0|0:0,0:0:0:0:
356,116,87281,1,10,0:0:0:0:
252,212,87454,1,2,0:0:0:0:
398,184,87627,1,2,0:0:0:0:
240,291,87799,1,2,0:0:0:0:
267,136,87971,6,0,P|223:140|189:168,1,71.4999967269899,6|8,0:0|0:0,0:0:0:0:
253,367,88316,2,0,P|297:343|313:275,1,107.249995090485,4|0,0:0|0:0,0:0:0:0:
316,276,88661,1,8,0:0:0:0:
201,154,88833,1,10,0:0:0:0:
240,291,89005,1,6,0:0:0:0:
127,125,89178,1,10,0:0:0:0:
104,270,89350,6,0,B|152:290|152:290|208:266|260:302,1,142.99999345398,4|2,0:1|0:0,0:0:0:0:
284,192,89867,1,6,0:0:0:0:
340,100,90040,2,0,P|300:84|244:96,1,71.4999967269899,8|2,0:0|0:0,0:0:0:0:
180,200,90385,1,2,0:0:0:0:
284,192,90557,1,2,0:0:0:0:
167,124,90730,6,0,P|106:182|124:253,1,142.99999345398,4|6,0:0|0:0,0:0:0:0:
196,304,91247,1,2,0:0:0:0:
297,262,91419,2,0,L|281:178,1,71.4999967269899,8|2,0:0|0:0,0:0:0:0:
272,85,91764,1,2,0:0:0:0:
180,200,91936,1,10,0:0:0:0:
221,28,92109,6,0,P|277:9|334:40,1,107.249995090485,12|0,0:3|0:0,0:0:0:0:
334,40,92454,2,0,P|348:84|335:129,1,71.4999967269899,2|4,0:0|0:0,0:0:0:0:
284,192,92799,1,10,0:0:0:0:
272,85,92971,1,2,0:0:0:0:
360,216,93143,1,2,0:0:0:0:
200,120,93316,1,2,0:0:0:0:
232,253,93488,6,0,B|264:278|308:269|308:269|315:305|251:333,1,142.99999345398,6|4,0:0|0:0,0:0:0:0:
176,360,94005,1,2,0:0:0:0:
349,360,94178,2,0,P|377:316|365:212,1,142.99999345398,8|2,0:0|0:0,0:0:0:0:
345,108,94695,1,8,0:0:0:0:
200,120,94867,6,0,L|120:96,1,71.4999967269899,2|0,3:2|0:0,0:0:0:0:
288,56,95212,2,0,P|328:32|360:32,1,71.4999967269899,2|0,0:0|0:0,0:0:0:0:
272,176,95557,2,0,L|200:216,1,71.4999967269899,10|0,0:0|0:0,0:0:0:0:
360,224,95902,2,0,B|352:181|352:181|361:163|361:163|353:120,1,107.249995090485,2|0,0:0|0:0,0:0:0:0:
345,108,96247,2,0,L|424:124,1,71.4999967269899,4|0,0:0|0:0,0:0:0:0:
352,31,96592,2,0,P|282:64|270:114,1,107.249995090485,6|0,0:0|0:0,0:0:0:0:
268,104,96936,1,10,0:0:0:0:
132,93,97109,2,0,B|216:121|216:121|276:101,1,142.99999345398,2|8,0:0|0:0,0:0:0:0:
152,184,97626,6,0,B|210:203|210:203|232:200|232:200|305:224,1,142.99999345398,6|2,0:0|0:0,0:0:0:0:
228,308,98143,1,6,0:0:0:0:
333,283,98316,2,0,P|361:246|361:195,1,71.4999967269899,8|2,0:0|0:0,0:0:0:0:
320,104,98661,2,0,L|280:208,1,107.249995090485,2|0,0:0|0:0,0:0:0:0:
289,219,99005,1,4,0:0:0:0:
108,336,99350,1,4,0:0:0:0:
56,128,99695,5,8,0:0:0:0:
123,40,99867,1,8,0:0:0:0:
68,208,100040,1,6,0:0:0:0:
44,48,100212,1,8,0:0:0:0:
137,189,100385,6,0,L|49:213,1,71.4999967269899,6|0,3:2|0:0,0:0:0:0:
188,131,100730,2,0,P|212:171|204:223,1,71.4999967269899,2|0,0:0|0:0,0:0:0:0:
123,92,101074,2,0,P|151:64|191:56,1,71.4999967269899,10|0,0:0|0:0,0:0:0:0:
348,128,101419,2,0,L|260:104,1,71.4999967269899,2|0,0:0|0:0,0:0:0:0:
271,101,101678,1,0,3:0:0:0:
263,93,101764,5,4,0:0:0:0:
348,28,101936,1,8,0:0:0:0:
421,107,102109,2,0,P|413:169|357:205,1,107.249995090485,6|0,0:0|0:0,0:0:0:0:
368,208,102454,1,10,0:0:0:0:
263,93,102626,1,10,0:0:0:0:
296,244,102799,1,8,0:0:0:0:
183,84,102971,1,8,0:0:0:0:
134,224,103143,6,0,P|182:240|234:224,1,88,2|2,0:0|0:0,0:0:0:0:
296,244,103661,2,0,B|289:283|289:283|294:291|294:291|284:349,1,88,2|2,0:0|0:0,0:0:0:0:
364,348,104178,2,0,B|376:277|376:277,1,66,2|0,0:0|0:0,0:0:0:0:
384,268,104523,2,0,B|376:248|376:248|433:269|433:269|492:252,1,132,8|0,0:3|0:0,0:0:0:0:
438,104,105212,6,0,P|429:140|449:187,1,71.4999967269899,4|0,0:1|0:0,0:0:0:0:
488,336,105556,2,0,B|441:350|441:350,4,35.749998363495,8|8|8|8|8,0:0|0:0|0:0|0:0|0:1,0:0:0:0:
284,272,106246,1,8,0:0:0:0:
290,254,106332,1,8,0:0:0:0:
305,244,106418,1,8,0:0:0:0:
322,244,106504,1,8,0:0:0:0:
337,254,106591,2,0,P|330:219|348:175,1,71.4999967269899,8|8,0:0|0:1,0:0:0:0:
440,213,106936,2,0,B|393:227|393:227,4,35.749998363495,8|8|8|8|8,0:0|0:0|0:0|0:0|0:1,0:0:0:0:
308,44,107625,6,0,B|261:30|261:30,4,35.749998363495,8|8|8|8|8,0:0|0:0|0:0|0:0|0:0,0:0:0:0:
140,180,108315,2,0,B|187:166,4,35.749998363495,8|8|8|8|8,0:0|0:0|0:0|0:0|0:0,0:0:0:0:
264,356,109005,1,8,0:0:0:0:
268,344,109091,1,8,0:0:0:0:
272,332,109177,1,8,0:0:0:0:
276,320,109263,1,8,0:0:0:0:
300,316,109349,2,0,L|288:216,1,71.4999967269899,8|8,0:0|0:1,0:0:0:0:
376,180,109694,2,0,L|368:240,4,35.749998363495,8|8|8|8|8,0:0|0:0|0:0|0:0|0:0,0:0:0:0:
376,180,110729,6,0,B|412:192|412:192|384:152|403:99,1,121.000003692627,4|0,0:1|0:0,0:0:0:0:
335,46,111246,1,0,0:0:0:0:
313,136,111418,2,0,P|302:199|333:244,1,121.000003692627,2|0,1:3|0:0,0:0:0:0:
392,312,111936,1,4,0:0:0:0:
224,268,112108,2,0,L|144:248,1,60.5000018463135,2|0,1:3|0:0,0:0:0:0:
44,168,112453,2,0,L|102:153,1,60.5000018463135,4|0,0:0|0:0,0:0:0:0:
215,287,112798,2,0,L|147:241,1,60.5000018463135,2|0,1:3|0:0,0:0:0:0:
42,147,113143,2,0,L|102:153,1,60.5000018463135,4|0,0:0|0:0,0:0:0:0:
292,100,113487,6,0,B|268:80|268:80|223:108|160:76,1,121.000003692627,2|0,1:3|0:0,0:0:0:0:
92,64,114005,1,0,0:0:0:0:
42,147,114177,2,0,B|22:191|22:191|42:271,1,121.000003692627,2|0,1:3|0:0,0:0:0:0:
128,284,114694,1,4,0:0:0:0:
157,140,114867,2,0,B|189:69,1,60.5000018463135,2|0,1:3|0:0,0:0:0:0:
192,242,115212,2,0,P|204:278|196:318,1,60.5000018463135,4|0,0:0|0:0,0:0:0:0:
182,85,115556,2,0,L|254:69,1,60.5000018463135,2|0,1:3|0:0,0:0:0:0:
236,252,115901,2,0,P|219:286|185:308,1,60.5000018463135,4|0,0:0|0:0,0:0:0:0:
280,177,116246,6,0,B|268:153|268:153|360:185,1,121.000003692627,2|0,1:3|0:0,0:0:0:0:
416,256,116763,1,0,0:0:0:0:
478,320,116936,2,0,P|434:344|352:314,1,121.000003692627,2|0,1:3|0:0,0:0:0:0:
304,264,117453,1,4,0:0:0:0:
427,197,117625,2,0,L|411:281,1,60.5000018463135,2|0,1:3|0:0,0:0:0:0:
340,52,117970,2,0,L|356:136,1,60.5000018463135,4|0,0:0|0:0,0:0:0:0:
439,203,118315,2,0,P|430:240|399:267,1,60.5000018463135,2|0,1:3|0:0,0:0:0:0:
328,58,118660,2,0,P|337:95|368:122,1,60.5000018463135,4|0,0:0|0:0,0:0:0:0:
416,257,119005,6,0,B|388:237|388:237|400:285|368:317,1,121.000003692627,2|0,1:3|0:0,0:0:0:0:
300,256,119522,1,0,0:0:0:0:
183,255,119694,2,0,B|211:235|211:235|199:283|231:315,1,121.000003692627,2|0,1:3|0:0,0:0:0:0:
299,376,120212,1,4,0:0:0:0:
300,256,120384,2,0,L|312:180,1,60.5000018463135,2|0,1:3|0:0,0:0:0:0:
374,84,120729,2,0,P|326:68|294:76,1,60.5000018463135,4|0,0:0|0:0,0:0:0:0:
228,188,121074,2,0,L|216:112,1,60.5000018463135,4|0,1:1|0:0,0:0:0:0:
403,155,121418,2,0,P|441:122|448:86,1,60.5000018463135,4|0,0:0|0:0,0:0:0:0:
317,69,121763,6,0,B|285:55|285:55|301:155,1,121.000003692627,4|0,1:1|0:0,0:0:0:0:
341,220,122280,1,0,0:0:0:0:
403,155,122453,2,0,B|396:112|396:112|442:132|491:107,1,121.000003692627,2|0,1:3|0:0,0:0:0:0:
317,69,122970,1,4,0:0:0:0:
341,220,123143,2,0,B|354:300,1,60.5000018463135,2|0,1:3|0:0,0:0:0:0:
299,140,123487,2,0,P|270:134|220:152,1,60.5000018463135,4|0,0:0|0:0,0:0:0:0:
423,192,123832,2,0,P|452:186|502:204,1,60.5000018463135,2|0,1:3|0:0,0:0:0:0:
445,352,124177,2,0,B|454:292,1,60.5000018463135,4|0,0:0|0:0,0:0:0:0:
492,73,124522,6,0,B|484:120|484:120|490:143|490:143|480:206,1,121.000003692627,2|0,1:3|0:0,0:0:0:0:
404,148,125039,1,0,0:0:0:0:
344,80,125212,2,0,B|328:52|328:52|378:73|424:48,1,121.000003692627,2|0,1:3|0:0,0:0:0:0:
316,164,125729,1,4,0:0:0:0:
414,53,125901,2,0,L|490:69,1,60.5000018463135,2|0,1:3|0:0,0:0:0:0:
316,164,126246,2,0,L|240:180,1,60.5000018463135,4|0,0:0|0:0,0:0:0:0:
473,124,126591,2,0,P|479:95|461:45,1,60.5000018463135,4|0,1:1|0:0,0:0:0:0:
257,117,126936,2,0,P|251:146|269:196,1,60.5000018463135,4|0,0:0|0:0,0:0:0:0:
340,48,127280,6,0,B|322:32|322:32|298:44|298:44|260:24|212:44,1,121.000003692627,4|0,1:1|0:0,0:0:0:0:
148,76,127798,1,0,0:0:0:0:
147,166,127970,2,0,B|165:182|165:182|189:170|189:170|227:190|275:170,1,121.000003692627,4|0,1:1|0:0,0:0:0:0:
194,268,128487,1,4,0:0:0:0:
87,160,128660,2,0,L|171:168,1,60.5000018463135,2|0,1:3|0:0,0:0:0:0:
254,262,129005,2,0,L|170:270,1,60.5000018463135,4|0,0:0|0:0,0:0:0:0:
33,182,129349,2,0,P|65:162|97:162,1,60.5000018463135,2|0,1:3|0:0,0:0:0:0:
248,246,129694,2,0,P|216:266|184:266,1,60.5000018463135,4|0,0:0|0:0,0:0:0:0:
153,112,130039,6,0,B|175:93|190:105|190:105|180:139|180:139|194:205,1,121.000003692627,2|0,1:3|0:0,0:0:0:0:
272,144,130556,1,4,0:0:0:0:
316,64,130729,2,0,B|306:20|306:20,1,30.2500009231568,8|0,0:1|0:0,0:0:0:0:
376,152,130901,2,0,B|386:108|386:108,1,30.2500009231568,8|0,0:1|0:0,0:0:0:0:
391,216,131074,6,0,B|375:146|375:146,1,66,8|0,3:3|0:0,0:0:0:0:
472,80,131418,6,0,B|482:36|482:36|432:56|376:24,1,131.99999597168,4|6,0:3|0:0,0:0:0:0:
468,172,131935,1,2,0:0:0:0:
461,270,132107,2,0,P|388:305|333:281,1,131.99999597168,2|0,1:2|0:0,0:0:0:0:
260,236,132624,1,0,0:0:0:0:
194,160,132797,2,0,P|234:136|278:140,1,65.9999979858399,2|2,1:2|0:0,0:0:0:0:
182,236,133142,2,0,P|134:208|136:111,1,131.99999597168,6|0,0:0|1:2,0:0:0:0:
332,104,133831,2,0,L|316:208,1,98.9999969787599,6|0,0:0|0:0,0:0:0:0:
306,212,134176,6,0,L|314:284,1,65.9999979858399,2|0,1:2|0:0,0:0:0:0:
412,188,134521,2,0,L|424:109,1,65.9999979858399,6|0,0:0|0:0,0:0:0:0:
453,252,134866,2,0,P|417:264|381:256,1,65.9999979858399,2|0,1:2|0:0,0:0:0:0:
256,189,135211,2,0,B|290:202|324:189|324:189|296:225,1,98.9999969787599,6|0,0:0|0:0,0:0:0:0:
300,228,135555,2,0,L|308:300,1,65.9999979858399,2|2,1:2|0:0,0:0:0:0:
288,108,135900,2,0,P|256:68|168:56,1,131.99999597168,6|2,0:0|1:2,0:0:0:0:
88,96,136418,1,2,0:0:0:0:
48,184,136590,1,2,0:0:0:0:
124,248,136762,1,2,0:0:0:0:
12,88,136935,6,0,P|36:40|124:28,1,131.99999597168,2|6,1:2|0:0,0:0:0:0:
48,184,137452,1,2,0:0:0:0:
88,96,137624,2,0,B|138:114|138:114|162:111|162:111|214:130,1,131.99999597168,2|0,1:2|0:0,0:0:0:0:
148,208,138142,1,0,0:0:0:0:
214,130,138314,2,0,L|297:121,1,65.9999979858399,2|2,1:2|0:0,0:0:0:0:
198,267,138659,2,0,P|134:283|82:247,1,131.99999597168,6|0,0:0|1:2,0:0:0:0:
317,55,139349,2,0,P|345:82|340:167,1,98.9999969787599,6|0,0:0|0:0,0:0:0:0:
361,155,139693,6,0,L|341:227,1,65.9999979858399,2|0,1:2|0:0,0:0:0:0:
280,123,140038,2,0,L|260:195,1,65.9999979858399,6|0,0:0|0:0,0:0:0:0:
361,282,140383,2,0,L|343:218,1,65.9999979858399,2|0,1:2|0:0,0:0:0:0:
442,250,140728,2,0,L|411:139,1,98.9999969787599,6|0,0:0|0:0,0:0:0:0:
424,140,141073,2,0,L|360:96,1,65.9999979858399,2|0,1:2|0:0,0:0:0:0:
496,48,141418,2,0,P|488:100|412:140,1,131.99999597168,6|0,0:0|1:2,0:0:0:0:
228,200,142107,2,0,L|220:256,1,32.99999899292,2|0,0:0|0:0,0:0:0:0:
156,104,142280,2,0,L|164:160,1,32.99999899292,2|0,0:0|0:0,0:0:0:0:
142,267,142452,6,0,L|161:132,1,131.99999597168,4|6,0:3|0:0,0:0:0:0:
256,108,142969,1,2,0:0:0:0:
344,156,143142,2,0,P|389:155|440:78,1,131.99999597168,2|0,1:2|0:0,0:0:0:0:
256,108,143659,1,2,0:0:0:0:
364,82,143831,2,0,L|353:10,1,65.9999979858399,2|2,1:2|0:0,0:0:0:0:
194,65,144176,2,0,P|186:135|242:183,1,131.99999597168,6|0,0:0|1:2,0:0:0:0:
372,312,144866,2,0,L|260:292,1,98.9999969787599,6|0,0:0|0:0,0:0:0:0:
264,282,145211,6,0,L|176:294,1,65.9999979858399,2|0,1:2|0:0,0:0:0:0:
320,216,145555,2,0,L|407:231,1,65.9999979858399,6|0,0:0|0:0,0:0:0:0:
268,346,145900,2,0,P|260:298|276:262,1,65.9999979858399,2|0,1:2|0:0,0:0:0:0:
276,140,146245,2,0,L|152:156,1,98.9999969787599,6|0,0:0|0:0,0:0:0:0:
164,164,146590,2,0,L|99:153,1,65.9999979858399,2|0,1:2|0:0,0:0:0:0:
292,64,146935,2,0,P|344:104|334:191,1,131.99999597168,6|0,0:0|1:2,0:0:0:0:
348,166,147624,1,6,0:0:0:0:
256,288,147797,1,2,0:0:0:0:
274,150,147969,6,0,P|314:98|402:113,1,131.99999597168,4|4,0:3|0:0,0:0:0:0:
468,136,148486,1,2,0:0:0:0:
448,232,148659,2,0,L|432:312,1,65.9999979858399,2|2,1:2|0:0,0:0:0:0:
291,230,149004,2,0,B|255:242|255:242|279:126,1,131.99999597168,6|0,0:0|1:2,0:0:0:0:
312,344,149693,1,4,0:0:0:0:
144,240,150038,1,0,1:2:0:0:
148,228,150383,2,0,L|72:240,1,65.9999979858399,2|2,0:0|0:0,0:0:0:0:
104,104,150728,6,0,P|130:76|188:68,1,88,2|0,0:0|0:0,0:0:0:0:
169,139,151245,1,2,0:0:0:0:
236,172,151418,2,0,L|296:181,1,44,2|2,0:0|0:0,0:0:0:0:
344,140,151762,1,2,0:0:0:0:
344,140,152107,6,0,P|341:222|279:254,1,142.99999345398,2|4,3:2|0:0,0:0:0:0:
100,78,152796,2,0,B|84:50|84:50|196:74,1,142.99999345398,2|4,1:2|0:0,0:0:0:0:
300,70,153313,1,4,0:0:0:0:
280,178,153486,2,0,B|229:167|229:167|191:175|191:175|135:163,1,142.99999345398,2|4,1:2|0:0,0:0:0:0:
344,140,154175,2,0,P|341:222|279:254,1,142.99999345398,2|4,1:2|0:0,0:0:0:0:
200,308,154693,1,4,0:0:0:0:
202,197,154865,6,0,B|174:177|174:177|230:167|230:167|281:178,1,142.99999345398,2|4,1:2|0:0,0:0:0:0:
210,57,155555,2,0,B|200:108|200:108|211:142|211:142|200:205,1,142.99999345398,2|4,1:2|0:0,0:0:0:0:
104,152,156072,1,4,0:0:0:0:
116,260,156244,2,0,B|104:321|104:321|164:340|164:408,1,142.99999345398,2|4,1:2|0:0,0:0:0:0:
32,172,156934,2,0,P|41:112|130:82,1,142.99999345398,2|4,1:2|0:0,0:0:0:0:
216,52,157451,1,4,0:0:0:0:
104,152,157624,6,0,B|172:176|172:176|256:156,1,142.99999345398,2|4,3:2|0:0,0:0:0:0:
440,80,158313,2,0,P|392:84|428:164,1,142.99999345398,2|4,1:2|0:0,0:0:0:0:
460,252,158831,1,4,0:0:0:0:
376,320,159003,6,0,L|328:312,1,47.6666644846599,2|0,1:2|0:0,0:0:0:0:
300,244,159233,2,0,L|252:252,1,47.6666644846599,0|4,0:0|0:0,0:0:0:0:
188,215,159463,2,0,P|180:267|196:295,1,47.6666644846599,0|0,0:0|0:0,0:0:0:0:
142,326,159693,2,0,P|194:334|222:318,1,47.6666644846599,2|0,1:2|0:0,0:0:0:0:
258,299,159923,2,0,L|250:215,1,47.6666644846599,0|4,0:0|0:0,0:0:0:0:
188,215,160152,2,0,L|196:131,1,47.6666644846599,0|0,0:0|0:0,0:0:0:0:
204,156,160325,6,0,L|196:80,1,71.4999967269899,0|0,0:0|0:0,0:0:0:0:
328,32,160727,1,4,0:0:0:0:
293,188,160957,2,0,L|285:112,1,71.4999967269899,0|0,0:0|0:0,0:0:0:0:
417,64,161359,1,0,0:0:0:0:
388,168,161532,1,0,0:0:0:0:
209,203,161762,2,0,L|203:148,2,47.6666644846599,2|0|0,3:2|0:0|0:0,0:0:0:0:
460,336,162451,5,2,1:2:0:0:
400,248,162624,1,8,0:3:0:0:
308,304,162796,6,0,L|232:316,1,66,8|0,0:3|0:0,0:0:0:0:
232,328,163141,22,0,B|180:344|132:312|132:312|152:348,1,142.99999345398,2|4,3:2|0:0,0:0:0:0:
84,140,163831,2,0,P|124:88|220:96,1,142.99999345398,2|4,1:2|0:0,0:0:0:0:
264,164,164348,1,4,0:0:0:0:
182,239,164520,2,0,B|108:188|108:188|80:131,1,142.99999345398,2|4,1:2|0:0,0:0:0:0:
304,100,165210,2,0,P|337:178|283:238,1,142.99999345398,2|4,1:2|0:0,0:0:0:0:
256,316,165727,1,4,0:0:0:0:
310,223,165900,6,0,B|406:211|406:211|368:280,1,142.99999345398,2|4,1:2|0:0,0:0:0:0:
116,318,166589,2,0,B|152:327|187:312|187:312|220:326|260:315,1,142.99999345398,2|4,1:2|0:0,0:0:0:0:
228,212,167107,1,4,0:0:0:0:
104,192,167279,22,0,B|5:135|-7:93|-7:22|47:8|89:8|117:50|117:50|145:8|187:8|241:22|241:93|229:135|131:192,1,605,4|4,0:1|0:0,0:0:0:0:
120,280,169262,1,4,0:0:0:0:
128,292,169348,1,4,0:0:0:0:
60,344,169520,2,0,L|4:332,2,44,2|2|2,0:0|0:0|0:0,0:0:0:0:
128,292,170038,6,0,L|274:261,1,142.99999345398,4|2,0:1|0:0,0:0:0:0:
324,172,170555,1,6,0:0:0:0:
380,80,170727,2,0,P|336:64|284:80,1,71.4999967269899,8|2,0:0|0:0,0:0:0:0:
416,232,171072,1,2,0:0:0:0:
492,156,171244,1,2,0:0:0:0:
324,172,171417,6,0,L|226:192,1,71.4999967269899,4|8,0:0|0:0,0:0:0:0:
312,300,171762,1,6,0:0:0:0:
416,232,171934,1,2,0:0:0:0:
380,80,172106,2,0,L|282:60,1,71.4999967269899,8|2,0:0|0:0,0:0:0:0:
151,134,172451,1,2,0:0:0:0:
254,186,172624,1,10,0:0:0:0:
136,28,172796,6,0,L|152:140,1,107.249995090485,12|0,0:3|0:0,0:0:0:0:
164,144,173141,2,0,P|156:208|168:232,1,71.4999967269899,2|0,0:0|0:0,0:0:0:0:
228,296,173486,1,10,0:0:0:0:
254,186,173658,1,2,0:0:0:0:
156,332,173831,1,2,0:0:0:0:
298,255,174003,1,2,0:0:0:0:
304,264,174089,1,0,3:0:0:0:
310,272,174175,6,0,L|382:264,1,71.4999967269899,6|8,0:0|0:0,0:0:0:0:
484,152,174520,2,0,L|412:144,1,71.4999967269899,4|2,0:0|0:0,0:0:0:0:
292,120,174865,2,0,P|240:112|177:188,1,142.99999345398,8|0,0:0|0:0,0:0:0:0:
310,272,175382,1,10,0:0:0:0:
396,101,175555,2,0,B|432:60|432:60|449:116,1,107.249995090485,4|0,0:0|0:0,0:0:0:0:
498,207,175900,6,0,B|522:182|510:157|510:157|474:203|404:180,1,132,10|0,3:2|0:0,0:0:0:0:
342,192,176244,6,0,B|374:184|403:199|403:199|442:188,1,104.499997209549,10|2,0:0|0:0,0:0:0:0:
363,268,176589,1,2,0:0:0:0:
292,120,176762,1,2,0:0:0:0:
332,337,176934,2,0,P|395:337|438:261,1,142.99999345398,4|6,0:0|0:0,0:0:0:0:
228,168,177451,1,2,0:0:0:0:
363,268,177624,1,10,0:0:0:0:
216,248,177796,1,2,0:0:0:0:
292,120,177969,1,2,0:0:0:0:
154,197,178141,1,10,0:0:0:0:
355,77,178313,6,0,P|309:46|233:73,1,107.249995090485,2|0,0:0|0:0,0:0:0:0:
248,40,178658,2,0,L|156:56,1,71.4999967269899,2|4,0:0|0:0,0:0:0:0:
154,197,179003,1,10,0:2:0:0:
292,120,179175,1,2,0:0:0:0:
286,288,179348,1,2,0:0:0:0:
228,168,179520,1,2,0:0:0:0:
330,349,179693,2,0,P|358:309|358:273,1,71.4999967269899,6|8,0:0|0:0,0:0:0:0:
292,120,180038,2,0,P|328:81|408:84,1,107.249995090485,4|0,0:0|0:0,0:0:0:0:
371,162,180382,6,0,B|357:205|379:238|379:238|351:310,1,132,8|0,0:0|0:0,0:0:0:0:
252,268,180727,6,0,B|288:260|288:232|288:232|228:256|152:216,1,156.749995814324,8|0,0:0|0:0,0:0:0:0:
116,144,181072,6,0,B|135:94|135:94,1,52.2499986047745,8|0,0:3|0:0,0:0:0:0:
108,152,181244,6,0,B|108:99|108:99,1,44,8|0,0:3|0:0,0:0:0:0:
100,160,181417,6,0,B|82:110|82:110,1,35.749998363495,6|0,0:0|0:0,0:0:0:0:
92,168,181589,6,0,B|58:127|58:127,1,27.5,6|0,0:0|0:0,0:0:0:0:
112,266,181762,6,0,B|92:234|92:234|92:146,1,104.499997209549,4|2,0:1|0:0,0:0:0:0:
248,192,182106,1,2,0:0:0:0:
292,344,182279,1,2,0:0:0:0:
380,128,182451,1,4,0:0:0:0:
392,120,182796,2,0,L|296:108,1,71.4999967269899,6|2,0:0|0:0,0:0:0:0:
194,233,183141,2,0,P|234:213|254:173,1,71.4999967269899,8|2,0:0|0:0,0:0:0:0:
236,36,183486,1,2,0:0:0:0:
171,144,183658,1,10,0:0:0:0:
392,120,183831,6,0,P|416:172|392:248,1,107.249995090485,12|0,0:3|0:0,0:0:0:0:
400,232,184175,2,0,P|436:240|468:276,1,71.4999967269899,2|4,0:0|0:0,0:0:0:0:
304,368,184520,1,10,0:0:0:0:
397,312,184693,1,2,0:0:0:0:
232,332,184865,1,2,0:0:0:0:
404,328,185038,1,2,0:0:0:0:
155,343,185210,2,0,P|163:295|195:263,1,71.4999967269899,6|8,0:0|0:0,0:0:0:0:
304,168,185555,2,0,B|257:178|224:152|224:152|180:164|168:208,2,142.99999345398,4|8|2,0:0|0:0|0:0,0:0:0:0:
289,40,186417,1,8,0:0:0:0:
244,243,186589,6,0,P|296:247|341:231,1,71.4999967269899,2|0,3:2|0:0,0:0:0:0:
432,84,186934,2,0,L|344:100,1,71.4999967269899,2|0,0:0|0:0,0:0:0:0:
376,292,187279,2,0,P|392:252|377:196,1,71.4999967269899,10|0,0:0|0:0,0:0:0:0:
362,97,187624,2,0,L|474:117,1,107.249995090485,2|0,0:0|0:0,0:0:0:0:
484,108,187969,2,0,P|468:148|483:204,1,71.4999967269899,4|8,0:0|0:0,0:0:0:0:
429,373,188313,2,0,P|439:308|376:292,2,142.99999345398,6|10|0,0:0|0:0|0:0,0:0:0:0:
300,272,189175,1,8,0:0:0:0:
220,364,189348,6,0,B|208:332|228:316|228:316|260:364|326:355,1,142.99999345398,14|2,0:0|0:0,0:0:0:0:
320,192,189865,1,6,0:0:0:0:
189,251,190038,2,0,P|155:288|141:338,1,71.4999967269899,10|2,0:0|0:0,0:0:0:0:
236,172,190382,2,0,L|228:84,1,71.4999967269899,2|0,0:0|0:0,0:0:0:0:
236,92,190641,1,0,3:0:0:0:
244,84,190727,1,6,0:0:0:0:
100,96,190900,6,0,P|56:100|116:56,1,176,8|4,0:0|0:0,0:0:0:0:
128,168,191417,6,0,B|76:191|26:170|26:170|76:208|64:280,1,208.999994419098,8|6,0:0|0:0,0:0:0:0:
196,368,191934,1,8,0:0:0:0:
197,172,192106,6,0,P|141:164|105:184,1,71.4999967269899,2|0,3:2|0:0,0:0:0:0:
272,308,192451,2,0,L|268:208,1,71.4999967269899,2|0,0:0|0:0,0:0:0:0:
256,36,192796,2,0,P|248:92|268:128,1,71.4999967269899,10|0,0:0|0:0,0:0:0:0:
348,232,193141,2,0,P|292:224|256:244,1,71.4999967269899,2|0,0:0|0:0,0:0:0:0:
269,236,193400,1,0,0:0:0:0:
260,244,193486,1,4,0:0:0:0:
308,344,193658,1,8,0:0:0:0:
432,296,193831,2,0,B|432:265|432:265|452:229|452:229|432:197|432:197|432:161,1,142.99999345398,6|10,0:0|0:0,0:0:0:0:
257,56,194348,2,0,B|257:131|257:131,1,71.4999967269899,2|8,0:0|0:0,0:0:0:0:
232,319,194693,1,8,0:0:0:0:
104,184,194865,6,0,B|92:148|116:116|116:116|116:176|180:200,1,156.749995814324,6|0,0:0|0:0,0:0:0:0:
257,128,195210,6,0,P|209:116|185:124,1,66,0|0,3:0|0:0,0:0:0:0:
86,44,195555,6,0,P|161:52|194:120,1,156.749995814324,6|0,0:0|0:0,0:0:0:0:
204,244,195900,6,0,B|217:215|217:215|244:243,1,66,8|0,3:2|0:0,0:0:0:0:
389,263,196244,6,0,B|341:251|341:251|317:227|317:227|325:279|277:311,1,156.749995814324,6|0,0:0|0:0,0:0:0:0:
435,327,196589,2,0,P|466:273|399:185,1,156.749995814324,8|0,0:0|0:0,0:0:0:0:
304,140,196934,2,0,B|371:157,1,52.2499986047745,8|0,0:0|0:0,0:0:0:0:
476,72,197106,2,0,B|409:89,1,52.2499986047745,8|0,0:0|0:0,0:0:0:0:
260,56,197279,2,0,B|310:43,1,52.2499986047745,10|0,0:0|0:0,0:0:0:0:
476,98,197451,2,0,B|425:85,1,52.2499986047745,8|0,0:0|0:0,0:0:0:0:
224,131,197624,6,0,P|188:159|132:155,2,88,2|2|2,0:0|0:0|0:0,0:0:0:0:
336,240,198658,1,2,0:0:0:0:
360,84,199003,2,0,P|396:56|452:60,2,88,4|2|2,0:0|0:0|0:0,0:0:0:0:
422,128,199865,2,0,B|415:163|415:163|421:178|421:178|412:227,1,88,2|0,0:0|0:0,0:0:0:0:
348,256,200382,6,0,B|312:248|312:248|283:261|244:248,1,88,2|2,0:0|0:0,0:0:0:0:
279,177,200900,2,0,P|296:135|280:81,1,88,2|2,0:0|0:0,0:0:0:0:
219,128,201417,2,0,P|179:112|127:124,1,88,2|0,0:0|0:0,0:0:0:0:
164,276,202106,2,0,L|168:304,6,14.6666666666667,0|0|0|0|0|0|2,0:0|0:0|0:0|0:0|0:0|0:0|0:0,0:0:0:0:
