osu file format v14

[General]
AudioFilename: audio.mp3
AudioLeadIn: 0
PreviewTime: 169348
Countdown: 0
SampleSet: Soft
StackLeniency: 0.7
Mode: 0
LetterboxInBreaks: 0
WidescreenStoryboard: 0

[Editor]
DistanceSpacing: 1.2
BeatDivisor: 4
GridSize: 4
TimelineZoom: 1

[Metadata]
Title:Eine Kleine
TitleUnicode:アイネクライネ
Artist:Kenshi Yonezu
ArtistUnicode:米津玄師
Creator:Modem
Version:Easy
Source:
Tags:cut version
BeatmapID:1959040
BeatmapSetID:937854

[Difficulty]
HPDrainRate:2
CircleSize:3
OverallDifficulty:2
ApproachRate:2
SliderMultiplier:1.4
SliderTickRate:1

[Events]
//Background and Video events
Video,0,"Video.mp4"
0,0,"bg.jpg",0,0
//Break Periods
//Storyboard Layer 0 (Background)
//Storyboard Layer 1 (Fail)
//Storyboard Layer 2 (Pass)
//Storyboard Layer 3 (Foreground)
//Storyboard Layer 4 (Overlay)
//Storyboard Sound Samples

[TimingPoints]
2455,689.655172413793,4,2,2,30,1,0
3144,-100,4,2,2,50,0,0
3834,-100,4,2,2,30,0,0
4523,-100,4,2,2,50,0,0
5213,-100,4,2,2,30,0,0
5903,-100,4,2,2,50,0,0
6592,-100,4,2,2,30,0,0
7627,-100,4,2,2,50,0,0
7972,-100,4,2,2,30,0,0
8661,-100,4,2,2,50,0,0
9351,-100,4,2,2,30,0,0
10041,-100,4,2,2,50,0,0
10730,-100,4,2,2,30,0,0
13489,-100,4,2,2,40,0,0
14179,-100,4,2,2,50,0,0
14868,-100,4,2,2,40,0,0
15558,-100,4,2,2,50,0,0
16248,-100,4,2,2,40,0,0
16592,-100,4,2,2,50,0,0
16937,-100,4,2,2,40,0,0
17282,-100,4,2,2,50,0,0
17627,-100,4,2,2,40,0,0
18661,-100,4,2,2,50,0,0
19006,-100,4,2,2,40,0,0
19351,-100,4,2,2,50,0,0
20386,-100,4,2,2,40,0,0
20730,-100,4,2,2,50,0,0
21765,-100,4,2,2,40,0,0
22110,-100,4,2,2,50,0,0
23144,-100,4,2,2,30,0,0
27282,-100,4,2,1,50,0,0
37972,-100,4,2,2,50,0,0
38317,-100,4,2,1,60,0,0
43489,-100,4,2,2,60,0,0
43834,-100,4,2,1,60,0,0
52110,-100,4,2,1,70,0,0
72799,689.655172413793,4,2,1,75,1,0
78316,-100,4,2,1,95,0,1
81074,-100,4,2,2,95,0,1
81419,-100,4,2,1,95,0,1
86592,-100,4,2,2,95,0,1
86850,-100,4,2,1,5,0,1
86936,-100,4,2,1,95,0,1
92109,-100,4,2,2,95,0,1
92454,-100,4,2,1,95,0,1
103143,-100,4,2,2,70,0,0
105212,689.655172413793,4,2,1,100,1,1
105901,-100,4,2,1,55,0,1
106591,-100,4,2,1,40,0,1
110729,-100,4,2,1,70,0,0
121074,-100,4,2,2,70,0,0
121418,-100,4,2,1,70,0,0
126591,-100,4,2,2,70,0,0
126936,-100,4,2,1,70,0,0
130729,-100,4,2,1,60,0,0
131074,-100,4,2,1,100,0,0
131418,689.655172413793,4,2,1,90,1,1
131762,-100,4,2,1,65,0,1
142107,-100,4,2,1,65,0,0
142452,-100,4,2,1,90,0,1
142797,-100,4,2,1,65,0,1
147624,-100,4,2,1,65,0,0
147969,-100,4,2,1,90,0,1
148659,-100,4,2,1,65,0,1
150383,-100,4,2,2,70,0,1
150728,-100,4,2,2,70,0,0
152107,689.655172413793,4,2,1,70,1,0
162796,-100,4,2,1,70,0,0
167279,-100,4,2,1,80,0,0
170038,689.655172413793,4,2,1,95,1,1
172796,-100,4,2,2,95,0,1
173141,-100,4,2,1,95,0,1
183831,-100,4,2,2,95,0,1
184175,-100,4,2,1,95,0,1
194865,-100,4,2,1,100,0,1
197624,-100,4,2,2,70,0,0
199003,-100,4,2,2,40,0,0
199693,-100,4,2,2,70,0,0

[Colours]
Combo1 : 153,111,223
Combo2 : 255,128,192
Combo3 : 228,129,254

[HitObjects]
116,164,2455,6,0,P|96:112|152:28,2,140,4|2|4,0:0|0:3|0:0,0:0:0:0:
256,260,4523,1,2,0:3:0:0:
400,172,5213,2,0,B|388:124|408:92|408:92|396:24,2,140,4|2|4,0:0|0:3|0:0,0:0:0:0:
444,244,6937,1,6,0:0:0:0:
388,308,7282,2,0,L|296:332,1,70,4|2,0:0|0:0,0:0:0:0:
264,264,7972,6,0,B|172:248|172:248|108:268,2,140,4|2|4,0:0|0:3|0:0,0:0:0:0:
328,208,9696,1,6,0:0:0:0:
263,154,10041,2,0,B|171:138|171:138,1,70,2|2,0:0|0:0,0:0:0:0:
177,59,10730,2,0,P|119:102|125:190,2,140,4|4|4,0:0|0:0|0:0,0:0:0:0:
260,40,12454,1,4,0:0:0:0:
336,76,12799,2,0,B|428:60|428:60,1,70,4|2,0:0|0:0,0:0:0:0:
436,144,13489,6,0,B|278:171,1,140,4|2,0:0|0:3,0:0:0:0:
252,240,14523,1,2,0:0:0:0:
264,324,14868,2,0,P|197:305|168:236,1,140,4|2,0:0|0:3,0:0:0:0:
132,168,15903,1,2,0:0:0:0:
67,115,16248,6,0,P|95:92|143:87,1,70,4|2,0:0|0:0,0:0:0:0:
204,120,16937,2,0,B|296:104|296:104,1,70,4|2,0:0|0:0,0:0:0:0:
328,172,17627,1,4,0:0:0:0:
404,132,17972,1,4,0:0:0:0:
476,176,18317,2,0,P|482:220|467:259,1,70,4|0,0:0|0:0,0:0:0:0:
436,320,19006,6,0,B|344:304,1,70,4|2,0:0|0:0,0:0:0:0:
300,256,19696,2,0,B|256:268|256:268|196:248|152:276,1,140,2|4,0:3|0:0,0:0:0:0:
100,324,20730,1,0,0:0:0:0:
48,260,21075,2,0,B|39:226|39:226|49:191,1,70,2|2,0:3|0:0,0:0:0:0:
48,108,21765,6,0,B|116:119,1,70,4|2,0:0|0:0,0:0:0:0:
186,70,22455,2,0,P|229:77|269:63,1,70,2|2,0:3|0:0,0:0:0:0:
328,112,23144,1,4,0:0:0:0:
256,264,23834,1,4,0:0:0:0:
392,364,24523,5,4,0:0:0:0:
472,216,25213,1,4,0:0:0:0:
400,64,25903,2,0,L|316:48,1,70,4|4,0:0|0:0,0:0:0:0:
280,120,26592,2,0,L|196:136,1,70,0|0,0:0|0:0,0:0:0:0:
144,80,27282,6,0,P|126:142|174:211,1,140,12|2,0:1|1:3,0:0:0:0:
228,360,28661,2,0,L|304:344,1,70,0|4,0:0|0:0,0:0:0:0:
344,276,29351,1,2,1:3:0:0:
428,292,29696,1,0,0:0:0:0:
472,220,30041,6,0,B|462:168|462:168|473:134|473:134|464:83,1,140,4|2,0:0|1:3,0:0:0:0:
304,36,31420,2,0,B|317:112|317:112,1,70,0|4,0:0|0:0,0:0:0:0:
252,160,32110,1,2,1:3:0:0:
176,125,32455,1,0,0:0:0:0:
135,51,32799,6,0,P|93:112|116:185,1,140,4|2,0:0|1:3,0:0:0:0:
168,328,34179,2,0,L|252:316,1,70,0|4,0:0|0:0,0:0:0:0:
284,248,34868,2,0,L|368:260,1,70,2|0,1:3|0:0,0:0:0:0:
416,316,35558,6,0,P|436:276|396:184,2,140,4|2|0,0:0|1:3|0:0,0:0:0:0:
348,364,37282,1,4,0:0:0:0:
276,320,37627,2,0,P|233:313|193:327,1,70,2|4,1:3|0:1,0:0:0:0:
140,372,38317,6,0,P|125:302|170:242,1,140,4|8,0:0|0:1,0:0:0:0:
192,168,39351,1,2,0:1:0:0:
118,127,39696,2,0,L|38:135,2,70,0|4|8,0:0|0:0|0:1,0:0:0:0:
152,48,40730,1,2,0:1:0:0:
236,52,41075,6,0,L|316:60,1,70,4|2,0:0|0:1,0:0:0:0:
388,44,41765,2,0,P|380:100|348:132,1,70,8|2,0:1|0:1,0:0:0:0:
320,176,42454,1,4,0:0:0:0:
240,152,42799,1,4,0:0:0:0:
176,208,43144,2,0,L|184:296,1,70,8|4,0:1|0:1,0:0:0:0:
140,352,43834,6,0,P|97:359|57:345,1,70,4|2,0:0|0:1,0:0:0:0:
24,284,44523,2,0,P|47:235|13:144,1,140,8|4,0:1|0:0,0:0:0:0:
44,72,45558,1,4,0:0:0:0:
124,44,45903,2,0,B|158:35|158:35|193:45,1,70,8|2,0:1|0:1,0:0:0:0:
260,92,46592,6,0,B|244:148|244:148|280:188|268:252,1,140,4|8,0:0|0:1,0:0:0:0:
272,308,47627,1,2,0:1:0:0:
356,316,47972,2,0,B|376:243,2,70,4|4|8,0:0|0:0|0:1,0:0:0:0:
196,372,49351,6,0,B|175:299,1,70,4|2,0:0|0:1,0:0:0:0:
92,300,50041,2,0,B|112:208|112:208|144:172,1,140,8|4,0:1|0:0,0:0:0:0:
216,132,51075,1,0,3:0:0:0:
293,98,51420,2,0,P|300:141|286:181,1,70,8|0,0:1|0:0,0:0:0:0:
292,252,52110,6,0,L|361:245,1,70,12|4,0:1|0:0,0:0:0:0:
368,328,52799,2,0,L|298:334,1,70,8|4,0:1|0:0,0:0:0:0:
220,368,53489,2,0,L|136:348,1,70,8|4,0:1|0:0,0:0:0:0:
112,276,54179,2,0,L|28:296,1,70,8|4,0:1|0:0,0:0:0:0:
32,208,54868,6,0,P|38:173|31:139,2,70,8|4|8,0:1|0:0|0:1,0:0:0:0:
44,292,55903,1,4,0:0:0:0:
84,368,56248,2,0,P|121:326|110:239,1,140,8|8,0:1|0:1,0:0:0:0:
156,172,57282,1,4,0:0:0:0:
124,92,57627,6,0,P|159:86|195:95,1,70,8|4,0:1|0:0,0:0:0:0:
252,152,58317,2,0,L|244:240,1,70,8|4,0:1|0:0,0:0:0:0:
320,264,59006,2,0,L|328:352,1,70,8|4,0:1|0:0,0:0:0:0:
408,360,59696,2,0,P|443:366|479:357,1,70,8|4,0:1|0:0,0:0:0:0:
440,280,60386,6,0,L|433:210,2,70,8|4|8,0:1|0:0|0:1,0:0:0:0:
408,360,61420,1,4,0:0:0:0:
327,333,61765,2,0,P|279:337|215:269,1,140,8|8,0:1|0:1,0:0:0:0:
180,200,62799,1,4,0:0:0:0:
96,204,63144,6,0,L|40:256,1,70,12|4,0:1|0:0,0:0:0:0:
4,176,63834,2,0,L|55:128,1,70,8|4,0:1|0:0,0:0:0:0:
96,52,64523,2,0,L|176:68,1,70,8|4,0:1|0:0,0:0:0:0:
224,128,65213,2,0,L|304:112,1,70,8|4,0:1|0:0,0:0:0:0:
348,48,65903,6,0,L|428:64,2,70,8|4|8,0:1|0:0|0:1,0:0:0:0:
264,32,66937,1,4,0:0:0:0:
293,114,67282,2,0,P|306:188|239:249,1,140,8|8,0:1|0:1,0:0:0:0:
225,164,68317,1,4,0:0:0:0:
152,208,68661,6,0,L|164:300,1,70,12|4,0:1|0:0,0:0:0:0:
120,352,69351,2,0,P|153:362|217:342,1,70,8|4,0:1|0:0,0:0:0:0:
264,320,70041,2,0,B|304:335|344:320|344:320|408:376,1,140,8|8,0:1|0:1,0:0:0:0:
456,308,71075,1,4,0:0:0:0:
424,228,71420,6,0,P|396:180|424:96,1,140,8|8,0:1|0:1,0:0:0:0:
360,40,72454,1,4,0:0:0:0:
288,84,72799,6,0,L|204:76,1,70,12|4,0:1|0:0,0:0:0:0:
144,116,73488,1,8,0:1:0:0:
180,192,73833,1,4,0:0:0:0:
128,260,74178,2,0,P|121:303|135:343,1,70,8|4,0:1|0:0,0:0:0:0:
201,367,74867,1,8,0:1:0:0:
239,292,75212,1,4,0:0:0:0:
324,300,75557,6,0,L|404:312,1,70,8|4,0:1|0:0,0:0:0:0:
464,264,76247,1,8,0:1:0:0:
432,184,76592,1,4,0:0:0:0:
410,102,76936,2,0,P|366:130|354:154,1,70,8|0,0:1|0:0,0:0:0:0:
312,216,77626,1,8,0:1:0:0:
208,348,78316,6,0,B|168:328|168:328|120:348|68:328,1,140,4|8,0:1|0:0,0:0:0:0:
28,260,79350,1,0,0:0:0:0:
36,176,79695,2,0,P|72:136|168:140,1,140,4|8,0:0|0:0,0:0:0:0:
228,172,80730,1,0,0:0:0:0:
284,108,81074,6,0,L|368:104,1,70,12|0,0:3|0:0,0:0:0:0:
376,188,81764,2,0,L|313:190,2,35,8|0|0,0:0|0:0|0:0,0:0:0:0:
460,180,82454,2,0,L|444:280,1,70,4|4,0:0|0:0,0:0:0:0:
372,288,83143,2,0,L|388:388,1,70,8|0,0:0|0:0,0:0:0:0:
300,364,83833,6,0,P|240:356|208:272,1,140,4|8,0:1|0:0,0:0:0:0:
156,220,84867,1,0,0:0:0:0:
204,148,85212,2,0,B|252:136|252:136|348:168,1,140,4|8,0:0|0:0,0:0:0:0:
412,124,86247,1,0,0:0:0:0:
344,72,86592,6,0,B|258:43|258:43,1,70,12|0,0:3|0:0,0:0:0:0:
195,66,87281,2,0,B|147:78,2,35,8|0|0,0:0|0:0|0:0,0:0:0:0:
228,144,87971,2,0,B|155:162,1,70,4|4,0:0|0:0,0:0:0:0:
96,216,88661,2,0,B|10:187|10:187,1,70,8|4,0:0|0:0,0:0:0:0:
16,276,89350,6,0,B|86:299|86:299|176:288,1,140,4|8,0:1|0:0,0:0:0:0:
228,256,90385,1,0,0:0:0:0:
288,196,90730,2,0,P|312:266|260:336,1,140,4|8,0:0|0:0,0:0:0:0:
206,356,91764,1,0,0:0:0:0:
152,291,92109,6,0,L|140:208,1,70,12|0,0:3|0:0,0:0:0:0:
208,168,92799,2,0,L|217:101,2,35,8|0|0,0:0|0:0|0:0,0:0:0:0:
288,188,93488,2,0,L|299:108,1,70,4|4,0:0|0:0,0:0:0:0:
334,40,94178,2,0,P|291:33|251:47,1,70,8|0,0:0|0:0,0:0:0:0:
183,54,94867,6,0,L|99:42,2,70,4|0|8,0:1|0:0|0:0,0:0:0:0:
213,133,95902,1,0,0:0:0:0:
148,188,96247,2,0,P|141:231|155:271,1,70,4|4,0:0|0:0,0:0:0:0:
113,335,96936,2,0,P|156:342|201:323,1,70,8|0,0:0|0:0,0:0:0:0:
264,348,97626,6,0,L|252:256,1,70,4|0,0:0|0:0,0:0:0:0:
296,204,98316,1,8,0:0:0:0:
376,232,98661,1,0,0:0:0:0:
420,160,99005,2,0,P|452:196|456:240,2,70,4|4|8,0:0|0:0|0:0,0:0:0:0:
356,104,100040,1,4,0:0:0:0:
272,120,100385,6,0,L|176:140,2,70,4|0|8,0:1|0:0|0:0,0:0:0:0:
300,40,101419,1,0,0:0:0:0:
216,36,101764,2,0,L|120:56,1,70,4|4,0:0|0:0,0:0:0:0:
64,68,102454,1,8,0:0:0:0:
96,148,102799,1,8,0:0:0:0:
180,164,103143,6,0,B|226:140|272:176|260:244|200:244|200:244|200:292,1,210,2|2,0:0|0:0,0:0:0:0:
200,368,104523,1,8,0:3:0:0:
321,252,105212,2,0,P|329:175|284:101,2,140,4|8|8,0:1|0:1|0:0,0:0:0:0:
200,368,107280,1,8,0:1:0:0:
96,236,107970,6,0,B|88:197|104:168|104:168|120:132|103:95,2,140,8|8|8,0:0|0:0|0:0,0:0:0:0:
200,368,110039,1,8,0:0:0:0:
321,252,110729,6,0,L|309:176,1,70,4|0,0:1|0:0,0:0:0:0:
384,140,111418,2,0,L|396:64,1,70,2|0,1:3|0:0,0:0:0:0:
316,40,112108,2,0,P|273:33|233:47,1,70,2|4,1:3|0:0,0:0:0:0:
184,96,112798,1,2,1:3:0:0:
106,64,113143,1,4,0:0:0:0:
85,146,113487,6,0,B|102:176|102:176|134:194,1,70,2|0,1:3|0:0,0:0:0:0:
145,276,114177,2,0,B|178:266|178:266|204:240,1,70,2|0,1:3|0:0,0:0:0:0:
280,208,114867,2,0,B|262:177|262:177|230:159,2,70,2|4|2,1:3|0:0|1:3,0:0:0:0:
271,292,115901,1,4,0:0:0:0:
325,357,116246,6,0,P|350:321|353:279,1,70,2|0,1:3|0:0,0:0:0:0:
434,270,116936,2,0,P|410:232|363:212,1,70,2|0,1:3|0:0,0:0:0:0:
368,136,117625,1,2,1:3:0:0:
284,128,117970,1,4,0:0:0:0:
259,47,118315,2,0,P|221:71|201:118,1,70,2|4,1:3|0:0,0:0:0:0:
192,174,119005,6,0,L|112:162,2,70,2|0|2,1:3|0:0|1:3,0:0:0:0:
240,244,120039,1,0,0:0:0:0:
296,308,120384,2,0,L|376:296,2,70,2|4|4,1:3|0:0|1:1,0:0:0:0:
224,352,121418,1,4,0:0:0:0:
144,328,121763,6,0,P|119:292|116:250,1,70,4|0,1:1|0:0,0:0:0:0:
49,211,122453,2,0,P|85:186|127:183,1,70,2|0,1:3|0:0,0:0:0:0:
120,96,123143,2,0,L|200:116,1,70,2|4,1:3|0:0,0:0:0:0:
240,180,123832,2,0,L|320:160,1,70,2|4,1:3|0:0,0:0:0:0:
348,88,124522,6,0,P|391:95|431:81,2,70,2|0|2,1:3|0:0|1:3,0:0:0:0:
275,45,125556,1,0,0:0:0:0:
202,88,125901,2,0,P|159:95|119:81,1,70,2|4,1:3|0:0,0:0:0:0:
51,71,126591,1,4,1:1:0:0:
24,152,126936,1,4,0:0:0:0:
88,208,127280,6,0,L|76:308,1,70,4|0,1:1|0:0,0:0:0:0:
162,299,127970,2,0,L|174:399,1,70,4|0,1:1|0:0,0:0:0:0:
256,368,128660,2,0,L|264:298,1,70,2|4,1:3|0:0,0:0:0:0:
346,277,129350,2,0,L|337:207,1,70,2|4,1:3|0:0,0:0:0:0:
408,160,130039,6,0,P|401:117|415:77,1,70,2|0,1:3|0:0,0:0:0:0:
485,124,130729,1,8,0:1:0:0:
477,208,131074,1,8,3:3:0:0:
464,292,131418,6,0,L|376:272,1,70,4|4,0:3|0:0,0:0:0:0:
336,336,132107,2,0,B|301:349|267:337|267:337|228:326|195:348,1,140,8|8,0:1|0:1,0:0:0:0:
116,360,133142,1,4,0:0:0:0:
76,284,133486,2,0,L|88:208,1,70,8|4,0:1|0:0,0:0:0:0:
154,160,134176,6,0,B|127:136|127:136|91:128,2,70,8|4|8,0:1|0:0|0:1,0:0:0:0:
204,228,135211,1,4,0:0:0:0:
228,308,135555,2,0,P|266:284|286:237,1,70,8|4,0:1|0:0,0:0:0:0:
326,193,136245,1,8,0:1:0:0:
273,128,136590,1,4,0:0:0:0:
219,64,136935,6,0,L|127:84,1,70,8|4,0:1|0:0,0:0:0:0:
96,144,137624,2,0,B|96:172|112:192|112:192|72:232|92:304,1,140,8|8,0:1|0:1,0:0:0:0:
134,344,138659,1,4,0:0:0:0:
204,296,139004,2,0,L|216:204,1,70,8|4,0:1|0:0,0:0:0:0:
264,160,139693,6,0,P|271:117|257:77,2,70,8|4|8,0:1|0:0|0:1,0:0:0:0:
188,124,140728,1,4,0:0:0:0:
135,57,141073,2,0,B|111:84|111:84|103:120,1,70,8|4,0:1|0:0,0:0:0:0:
32,164,141762,2,0,L|44:252,1,70,8|4,0:1|0:0,0:0:0:0:
120,266,142452,6,0,B|135:197|135:197,1,70,4|4,0:3|0:0,0:0:0:0:
220,196,143142,2,0,B|210:243|210:243|230:335,1,140,8|8,0:1|0:1,0:0:0:0:
308,364,144176,1,4,0:0:0:0:
380,320,144521,2,0,P|423:327|463:313,1,70,8|4,0:1|0:0,0:0:0:0:
415,243,145211,6,0,B|395:153|395:153,2,70,8|4|8,0:1|0:0|0:1,0:0:0:0:
332,252,146245,1,4,0:0:0:0:
248,243,146590,2,0,B|268:153|268:153,1,70,8|4,0:1|0:0,0:0:0:0:
192,128,147280,2,0,B|172:38|172:38,1,70,8|4,0:1|0:0,0:0:0:0:
92,56,147969,6,0,P|40:92|36:176,1,140,4|8,0:3|0:1,0:0:0:0:
68,240,149004,1,4,0:0:0:0:
152,252,149349,2,0,L|244:244,1,70,8|4,0:1|0:0,0:0:0:0:
272,312,150038,1,8,0:1:0:0:
352,284,150383,1,10,0:0:0:0:
412,344,150728,5,8,0:3:0:0:
272,40,152107,6,0,L|202:46,1,70,4|4,0:1|0:0,0:0:0:0:
122,72,152796,2,0,P|146:110|198:129,1,70,8|4,0:1|0:0,0:0:0:0:
192,204,153486,2,0,L|172:300,1,70,8|4,0:1|0:0,0:0:0:0:
260,296,154175,2,0,L|280:392,1,70,8|4,0:1|0:0,0:0:0:0:
356,348,154865,6,0,L|341:279,1,70,8|4,0:1|0:0,0:0:0:0:
305,203,155555,2,0,P|353:195|388:210,1,70,8|4,0:1|0:0,0:0:0:0:
440,252,156244,2,0,P|456:212|444:161,1,70,8|4,0:1|0:0,0:0:0:0:
452,100,156934,2,0,L|360:120,1,70,8|4,0:1|0:0,0:0:0:0:
320,60,157624,6,0,L|228:40,1,70,12|4,0:1|0:0,0:0:0:0:
172,76,158313,2,0,B|190:107|190:107|222:125,1,70,8|4,0:1|0:0,0:0:0:0:
280,184,159003,2,0,P|273:227|287:267,1,70,8|4,0:1|0:0,0:0:0:0:
219,312,159693,2,0,B|190:329|190:329|172:361,1,70,8|4,0:1|0:0,0:0:0:0:
96,324,160382,6,0,B|131:260|131:260,1,70,8|4,0:1|0:0,0:0:0:0:
60,216,161072,2,0,P|67:173|53:133,1,70,8|4,0:1|0:0,0:0:0:0:
40,64,161762,2,0,P|84:64|119:84,1,70,12|4,0:1|0:0,0:0:0:0:
168,132,162451,2,0,L|260:116,1,70,8|8,0:1|0:3,0:0:0:0:
264,200,163141,6,0,B|233:218|233:218|215:250,1,70,12|4,0:1|0:0,0:0:0:0:
144,291,163831,2,0,P|175:322|208:331,1,70,8|4,0:1|0:0,0:0:0:0:
283,331,164520,2,0,B|354:289,1,70,8|4,0:1|0:0,0:0:0:0:
416,252,165210,2,0,P|385:221|352:212,1,70,8|4,0:1|0:0,0:0:0:0:
277,216,165900,6,0,P|289:168|326:139,1,70,8|4,0:1|0:0,0:0:0:0:
268,76,166589,2,0,B|207:111,1,70,8|4,0:1|0:0,0:0:0:0:
140,164,167279,22,0,B|205:109|216:54|172:10|129:32|118:54|118:54|107:32|63:10|20:54|30:109|96:164,1,420,4|4,0:1|0:0,0:0:0:0:
212,284,170038,6,0,P|212:240|304:192,1,140,4|8,0:1|0:0,0:0:0:0:
368,188,171072,1,0,0:0:0:0:
412,260,171417,2,0,P|448:212|431:134,1,140,4|8,0:0|0:0,0:0:0:0:
376,76,172451,1,4,0:0:0:0:
301,38,172796,6,0,P|293:90|308:125,1,70,12|0,0:3|0:0,0:0:0:0:
264,184,173486,2,0,L|216:176,2,35,8|0|0,0:0|0:0|0:0,0:0:0:0:
260,268,174175,2,0,L|183:255,1,70,4|4,0:0|0:0,0:0:0:0:
118,299,174865,2,0,P|107:257|123:209,1,70,8|0,0:0|0:0,0:0:0:0:
52,172,175555,6,0,P|63:130|47:82,1,70,4|10,0:0|0:0,0:0:0:0:
33,24,176244,2,0,P|90:25|117:44,1,70,10|0,0:0|0:0,0:0:0:0:
160,92,176934,2,0,L|252:80,1,70,4|4,0:0|0:0,0:0:0:0:
304,124,177624,1,8,0:0:0:0:
272,204,177969,1,0,0:0:0:0:
244,284,178313,6,0,P|288:288|332:264,1,70,6|0,0:0|0:0,0:0:0:0:
396,276,179003,2,0,L|387:242,2,35,10|0|0,0:0|0:0|0:0,0:0:0:0:
476,248,179693,2,0,L|458:176,1,70,4|4,0:0|0:0,0:0:0:0:
463,96,180382,2,0,P|414:108|388:137,1,70,8|8,0:0|0:0,0:0:0:0:
326,80,181072,6,0,B|295:80|264:49|264:49|233:80|203:80,1,140,8|4,0:3|0:1,0:0:0:0:
132,124,182106,1,0,0:0:0:0:
68,68,182451,2,0,P|49:140|108:207,1,140,4|8,0:0|0:0,0:0:0:0:
148,244,183486,1,0,0:0:0:0:
217,292,183831,6,0,P|232:245|221:207,1,70,12|0,0:3|0:0,0:0:0:0:
284,160,184520,2,0,L|292:104,2,35,8|0|0,0:0|0:0|0:0,0:0:0:0:
364,184,185210,2,0,L|376:99,1,70,4|4,0:0|0:0,0:0:0:0:
340,36,185900,2,0,P|296:40|264:32,1,70,8|4,0:0|0:0,0:0:0:0:
200,80,186589,6,0,B|166:71|166:71|131:81,2,70,4|0|8,0:1|0:0|0:0,0:0:0:0:
167,158,187624,1,0,0:0:0:0:
144,240,187969,2,0,B|74:260,1,70,4|4,0:0|0:0,0:0:0:0:
84,344,188658,2,0,P|128:340|160:348,1,70,8|0,0:0|0:0,0:0:0:0:
235,368,189348,6,0,P|235:324|215:288,1,70,6|0,0:0|0:0,0:0:0:0:
224,216,190038,1,10,0:0:0:0:
300,180,190382,1,0,0:0:0:0:
364,236,190727,2,0,L|456:248,2,70,6|0|8,0:0|0:0|0:0,0:0:0:0:
320,308,191762,1,4,0:0:0:0:
236,316,192106,6,0,P|203:327|179:353,2,70,6|0|8,0:0|0:0|0:0,0:0:0:0:
272,239,193141,1,0,0:0:0:0:
328,176,193486,2,0,L|320:92,1,70,4|4,0:0|0:0,0:0:0:0:
252,56,194175,1,8,0:0:0:0:
176,92,194520,1,8,0:0:0:0:
118,30,194865,6,0,P|94:71|95:112,1,70,6|0,0:0|3:0,0:0:0:0:
76,176,195555,2,0,L|164:192,1,70,6|8,0:0|3:2,0:0:0:0:
204,248,196244,2,0,L|292:232,1,70,6|8,0:0|0:0,0:0:0:0:
340,288,196934,1,8,0:0:0:0:
412,244,197279,1,8,0:0:0:0:
424,161,197624,6,0,P|464:177|488:213,2,70,2|2|2,0:0|0:0|0:0,0:0:0:0:
340,160,198658,1,2,0:0:0:0:
290,92,199003,2,0,L|221:104,1,70,4|6,0:0|0:0,0:0:0:0:
145,68,199693,2,0,P|140:127|154:154,1,70,2|0,0:0|0:0,0:0:0:0:
88,200,200382,6,0,L|100:280,1,70,2|2,0:0|0:0,0:0:0:0:
180,296,201072,2,0,L|190:226,1,70,0|2,0:0|0:0,0:0:0:0:
268,192,201762,1,2,0:0:0:0:
380,316,202451,5,0,0:0:0:0:
