osu file format v14

[General]
AudioFilename: audio.mp3
AudioLeadIn: 1000
PreviewTime: 15473
Countdown: 0
SampleSet: Normal
StackLeniency: 0.7
Mode: 0
LetterboxInBreaks: 0
WidescreenStoryboard: 1

[Editor]
Bookmarks: 15473
DistanceSpacing: 2
BeatDivisor: 2
GridSize: 4
TimelineZoom: 1.7

[Metadata]
Title:chara.
TitleUnicode:chara.
Artist:Keno9988ii
ArtistUnicode:Keno9988ii
Creator:Cosmolade
Version:normal.
Source:Storyshift
Tags:Undertale AU sans. megalovania toby fox skeleton human pc rpg fallen child pacifist genocide
BeatmapID:1084442
BeatmapSetID:510004

[Difficulty]
HPDrainRate:5
CircleSize:3
OverallDifficulty:5
ApproachRate:5.5
SliderMultiplier:1
SliderTickRate:1

[Events]
//Background and Video events
0,0,"BG-chara.jpg",0,0
//Break Periods
//Storyboard Layer 0 (Background)
//Storyboard Layer 1 (Fail)
//Storyboard Layer 2 (Pass)
//Storyboard Layer 3 (Foreground)
//Storyboard Sound Samples

[TimingPoints]
473,468.75,4,1,0,35,1,0
45707,-100,4,2,0,5,0,0

[Colours]
Combo1 : 224,79,71
Combo2 : 0,202,0
Combo3 : 128,64,64
Combo4 : 242,24,57

[HitObjects]
132,44,473,6,0,L|188:92,1,50,8|0,0:0|0:0,0:0:0:0:
244,144,941,2,0,P|308:160|344:140,2,100,2|2|0,2:0|2:0|2:0,2:0:0:0:
169,76,2113,2,0,P|144:116|144:172,1,100,0|0,0:0|0:0,2:0:0:0:
300,300,3051,1,0,0:0:0:0:
276,100,3519,2,0,P|308:96|336:104,2,50,0|8|0,0:0|0:0|0:0,0:0:0:0:
212,176,4223,5,8,0:0:0:0:
140,108,4457,1,0,0:0:0:0:
44,136,4691,1,2,2:0:0:0:
56,336,5160,2,0,P|112:348|164:328,1,100,2|0,2:0|2:0,2:0:0:0:
216,260,5863,5,0,0:0:0:0:
400,340,6332,1,0,0:0:0:0:
300,168,6801,1,0,0:0:0:0:
104,136,7269,2,0,P|76:140|40:128,2,50,0|8|0,0:0|0:0|0:0,0:0:0:0:
180,68,7973,5,8,0:0:0:0:
276,44,8207,1,0,0:0:0:0:
372,72,8441,1,2,2:0:0:0:
432,264,8910,2,0,P|388:280|324:252,1,100,2|0,2:0|2:0,2:0:0:0:
244,300,9613,2,0,P|196:288|136:312,2,100,0|0|0,0:0|0:0|0:0,2:0:0:0:
420,204,11019,2,0,P|444:196|476:168,2,50,0|8|0,0:0|0:0|0:0,0:0:0:0:
328,160,11723,6,0,P|296:168|268:192,1,50,8|0,0:0|0:0,0:0:0:0:
184,152,12191,2,0,P|140:164|76:144,2,100,2|2|0,2:0|2:0|2:0,2:0:0:0:
208,56,13363,2,0,P|256:44|316:64,1,100,0|0,0:0|0:0,2:0:0:0:
448,196,14301,1,0,0:0:0:0:
260,268,14769,2,0,L|200:248,2,50,0|8|0,0:0|0:0|0:0,0:0:0:0:
360,288,15473,6,0,P|352:312|320:340,2,50,8|0|2,0:0|0:0|2:0,0:0:0:0:
292,100,16410,2,0,P|248:88|196:100,1,100,2|0,2:0|2:0,2:0:0:0:
165,200,17113,1,0,0:0:0:0:
44,40,17582,1,0,0:0:0:0:
60,240,18051,1,0,0:0:0:0:
256,284,18519,2,0,P|228:292|192:280,2,50,0|8|0,0:0|0:0|0:0,0:0:0:0:
344,236,19223,5,8,0:0:0:0:
408,160,19457,1,0,0:0:0:0:
348,80,19691,1,2,2:0:0:0:
152,108,20160,2,0,P|103:119|40:96,1,100,2|0,2:0|2:0,2:0:0:0:
40,204,20863,2,0,P|24:256|39:316,2,100,0|0|0,0:0|0:0|0:0,2:0:0:0:
204,92,22269,2,0,P|228:104|252:132,2,50,0|8|0,0:0|0:0|0:0,0:0:0:0:
104,96,22973,6,0,P|80:80|56:44,2,50,8|0|2,0:0|0:0|2:0,0:0:0:0:
200,272,23910,2,0,P|252:284|296:272,1,100,2|0,2:0|2:0,2:0:0:0:
344,184,24613,1,0,0:0:0:0:
492,316,25082,1,0,0:0:0:0:
296,271,25551,1,0,0:0:0:0:
112,192,26019,2,0,P|100:216|60:232,2,50,0|8|0,0:0|0:0|0:0,0:0:0:0:
180,120,26723,5,8,0:0:0:0:
92,72,26957,1,0,0:0:0:0:
24,144,27191,1,2,2:0:0:0:
168,284,27660,2,0,P|180:328|224:384,1,100,2|0,2:0|2:0,2:0:0:0:
312,372,28363,2,0,P|341:331|355:284,2,100,0|0|0,0:0|0:0|0:0,2:0:0:0:
236,188,29769,2,0,P|204:184|168:200,2,50,0|8|0,0:0|0:0|0:0,0:0:0:0:
336,208,30473,6,0,P|368:212|404:196,1,50,8|0,0:0|0:0,0:0:0:0:
448,132,30941,1,2,2:0:0:0:
468,332,31410,2,0,P|416:320|364:336,1,100,2|0,2:0|2:0,2:0:0:0:
276,360,32113,1,0,0:0:0:0:
136,220,32582,1,0,0:0:0:0:
256,60,33051,1,0,0:0:0:0:
356,232,33519,2,0,P|368:256|396:280,2,50,0|8|0,0:0|0:0|0:0,0:0:0:0:
380,132,34223,6,0,P|372:108|336:80,1,50,8|0,0:0|0:0,0:0:0:0:
256,60,34691,1,2,2:0:0:0:
96,180,35160,2,0,P|76:228|24:268,1,100,2|0,2:0|2:0,2:0:0:0:
116,328,35863,2,0,B|168:360|228:324,2,100,0|0|0,0:0|0:0|0:0,2:0:0:0:
72,132,37269,2,0,P|52:116|20:100,2,50,0|8|0,0:0|0:0|0:0,0:0:0:0:
128,212,37973,5,8,0:0:0:0:
228,212,38207,1,0,0:0:0:0:
304,140,38441,1,2,2:0:0:0:
376,328,38910,2,0,P|428:340|480:324,1,100,2|0,2:0|2:0,2:0:0:0:
424,240,39613,1,0,0:0:0:0:
356,52,40082,1,0,0:0:0:0:
288,240,40551,1,0,0:0:0:0:
224,52,41019,2,0,P|192:56|160:44,2,50,0|8|0,0:0|0:0|0:0,0:0:0:0:
268,144,41723,6,0,P|304:140|332:152,2,50,8|0|2,0:0|0:0|2:0,0:0:0:0:
144,304,42660,2,0,P|120:268|56:236,1,100,2|0,2:0|2:0,2:0:0:0:
68,140,43363,2,0,P|111:115|140:75,2,100,0|0|0,0:0|0:0|0:0,2:0:0:0:
160,316,44769,2,0,P|140:320|108:344,2,50,0|8|0,0:0|0:0|0:0,0:0:0:0:
256,348,45473,1,4,0:0:0:0:
256,192,45590,12,0,48754,0:0:0:0:
