osu file format v14

[General]
AudioFilename: audio.mp3
AudioLeadIn: 1000
PreviewTime: 15473
Countdown: 0
SampleSet: Soft
StackLeniency: 0.4
Mode: 0
LetterboxInBreaks: 0
WidescreenStoryboard: 1

[Editor]
DistanceSpacing: 2.4
BeatDivisor: 2
GridSize: 4
TimelineZoom: 1.7

[Metadata]
Title:chara.
TitleUnicode:chara.
Artist:Keno9988ii
ArtistUnicode:Keno9988ii
Creator:Cosmolade
Version:hey mirror you want a dog?
Source:Storyshift
Tags:Undertale AU sans. megalovania toby fox skeleton human pc rpg fallen child pacifist genocide
BeatmapID:1084441
BeatmapSetID:510004

[Difficulty]
HPDrainRate:6
CircleSize:4
OverallDifficulty:7
ApproachRate:7
SliderMultiplier:1.1
SliderTickRate:1

[Events]
//Background and Video events
0,0,"BG-chara.jpg",0,0
//Break Periods
//Storyboard Layer 0 (Background)
//Storyboard Layer 1 (Fail)
//Storyboard Layer 2 (Pass)
//Storyboard Layer 3 (Foreground)
//Storyboard Sound Samples

[TimingPoints]
473,468.75,4,1,0,35,1,0
45707,-100,4,2,0,5,0,0

[Colours]
Combo1 : 224,79,71
Combo2 : 0,202,0
Combo3 : 128,64,64
Combo4 : 242,24,57

[HitObjects]
256,72,473,5,8,0:0:0:0:
340,84,707,1,0,0:0:0:0:
420,112,941,2,0,P|408:140|368:160,1,55,2|0,2:0|2:0,2:0:0:0:
264,240,1410,2,0,B|296:236|296:236|316:228|316:228|336:236|336:236|372:240,1,110,0|0,0:0|0:0,2:0:0:0:
208,332,2113,6,0,L|140:320,1,55,0|0,0:0|0:0,2:0:0:0:
136,240,2582,2,0,L|68:216,1,55,0|0,0:0|1:0,2:0:0:0:
36,148,3051,2,0,P|72:132|92:104,1,55,0|0,0:0|2:0,2:0:0:0:
180,64,3519,1,0,0:0:0:0:
256,100,3754,1,8,0:0:0:0:
328,64,3988,1,0,0:0:0:0:
425,125,4223,5,8,0:0:0:0:
468,196,4457,1,0,0:0:0:0:
424,264,4691,2,0,P|376:264|352:252,1,55,2|0,2:0|2:0,2:0:0:0:
240,168,5160,2,0,L|368:168,1,110,0|0,0:0|0:0,2:0:0:0:
425,125,5863,6,0,P|399:99|387:71,1,55,0|0,0:0|0:0,2:0:0:0:
328,28,6332,2,0,P|314:51|293:69,1,55,0|0,1:0|1:0,2:0:0:0:
252,152,6801,2,0,L|180:120,1,55,0|0,0:0|2:0,2:0:0:0:
42,49,7269,1,0,0:0:0:0:
82,121,7504,1,8,0:0:0:0:
126,193,7738,1,0,0:0:0:0:
200,324,7973,5,8,0:0:0:0:
256,264,8207,1,0,0:0:0:0:
312,324,8441,2,0,P|336:288|332:260,1,55,2|0,2:0|2:0,2:0:0:0:
180,223,8910,2,0,P|185:307|204:327,1,110,0|0,0:0|0:0,2:0:0:0:
264,168,9613,6,0,L|324:144,1,55,0|0,0:0|0:0,2:0:0:0:
320,60,10082,2,0,L|396:68,1,55,0|0,0:0|0:0,2:0:0:0:
440,8,10551,2,0,L|504:48,1,55,0|0,0:0|2:0,2:0:0:0:
316,148,11019,1,0,0:0:0:0:
252,96,11254,1,8,0:0:0:0:
192,40,11488,1,0,0:0:0:0:
32,32,11723,5,8,0:0:0:0:
104,80,11957,1,0,0:0:0:0:
120,168,12191,2,0,P|93:161|67:169,1,55,2|0,2:0|2:0,2:0:0:0:
32,336,12660,2,0,L|108:228,1,110,0|0,0:0|0:0,2:0:0:0:
180,228,13363,6,0,P|200:264|224:280,1,55,0|0,0:0|0:0,2:0:0:0:
300,272,13832,2,0,P|320:253|331:228,1,55,0|0,0:0|0:0,2:0:0:0:
256,112,14301,2,0,L|256:184,1,55,0|0,1:0|2:0,2:0:0:0:
252,332,14769,1,0,0:0:0:0:
330,228,15004,1,8,0:0:0:0:
368,352,15238,1,0,0:0:0:0:
428,192,15473,5,8,0:0:0:0:
392,112,15707,1,0,0:0:0:0:
308,84,15941,2,0,P|276:80|240:88,1,55,2|0,2:0|2:0,2:0:0:0:
108,160,16410,2,0,B|164:176|164:176|216:160,1,110,0|0,0:0|0:0,2:0:0:0:
308,84,17113,6,0,L|364:104,1,55,0|0,0:0|0:0,2:0:0:0:
265,179,17582,2,0,L|213:160,1,55,0|0,0:0|0:0,2:0:0:0:
120,256,18051,2,0,P|146:261|173:256,1,55,0|0,0:0|2:0,2:0:0:0:
216,80,18519,1,0,0:0:0:0:
152,184,18754,1,8,0:0:0:0:
96,80,18988,1,0,0:0:0:0:
120,256,19223,5,8,0:0:0:0:
184,316,19457,1,0,0:0:0:0:
272,324,19691,2,0,P|304:320|344:332,1,55,2|0,2:0|2:0,2:0:0:0:
480,312,20160,2,0,B|452:320|440:336|440:336|412:256,1,110,0|0,0:0|0:0,2:0:0:0:
420,144,20863,6,0,P|388:148|344:136,1,55,0|0,0:0|0:0,2:0:0:0:
272,60,21332,2,0,P|304:56|348:68,1,55,0|0,0:0|0:0,2:0:0:0:
269,152,21801,2,0,L|216:200,1,55,0|0,0:0|2:0,2:0:0:0:
52,324,22269,1,0,0:0:0:0:
112,184,22504,1,8,0:0:0:0:
144,284,22738,1,0,0:0:0:0:
40,124,22973,5,8,0:0:0:0:
108,68,23207,1,0,0:0:0:0:
192,48,23441,2,0,L|272:48,1,55,2|0,2:0|2:0,2:0:0:0:
392,132,23910,2,0,B|360:136|360:136|316:124|316:124|280:132,1,110,0|0,1:0|2:0,2:0:0:0:
216,192,24613,6,0,P|248:236|248:244,1,55,0|0,0:0|0:0,2:0:0:0:
80,228,25082,2,0,P|90:203|112:187,1,55,0|0,0:0|0:0,2:0:0:0:
247,233,25551,2,0,P|237:258|215:274,1,55,0|0,0:0|2:0,2:0:0:0:
112,186,26019,1,0,0:0:0:0:
268,128,26254,1,8,0:0:0:0:
214,274,26488,1,0,0:0:0:0:
156,132,26723,5,8,0:0:0:0:
208,60,26957,1,0,0:0:0:0:
292,32,27191,2,0,P|316:28|356:36,1,55,2|0,2:0|2:0,2:0:0:0:
444,164,27660,2,0,B|428:140|388:140|388:140|352:140|328:112,1,110,0|0,1:0|1:0,2:0:0:0:
196,52,28363,6,0,P|224:88|228:116,1,55,0|0,0:0|0:0,2:0:0:0:
84,168,28832,2,0,L|104:96,1,55,0|0,0:0|0:0,2:0:0:0:
176,224,29301,2,0,L|156:296,1,55,0|0,0:0|2:0,2:0:0:0:
268,192,29769,1,0,0:0:0:0:
352,264,30004,1,8,0:0:0:0:
268,192,30238,1,0,0:0:0:0:
408,60,30473,5,8,0:0:0:0:
268,192,30707,1,0,0:0:0:0:
238,101,30941,2,0,P|264:95|292:100,1,55,2|0,2:0|2:0,2:0:0:0:
319,277,31410,2,0,P|267:292|216:276,1,110,0|0,0:0|0:0,2:0:0:0:
212,144,32113,6,0,L|160:200,1,55,0|0,0:0|0:0,2:0:0:0:
120,108,32582,2,0,L|72:136,1,55,0|0,0:0|0:0,2:0:0:0:
9,27,33051,2,0,L|68:36,1,55,0|0,0:0|2:0,2:0:0:0:
72,135,33519,1,0,0:0:0:0:
192,32,33754,1,8,0:0:0:0:
208,40,33988,1,0,0:0:0:0:
136,224,34223,5,8,0:0:0:0:
156,212,34457,1,0,0:0:0:0:
280,132,34691,2,0,B|308:128|308:128|352:136,1,55,2|0,2:0|2:0,2:0:0:0:
428,148,35160,2,0,P|412:204|432:252,1,110,0|0,0:0|0:0,2:0:0:0:
340,300,35863,6,0,B|313:304|313:304|285:300,1,55,0|0,0:0|0:0,2:0:0:0:
196,300,36332,2,0,B|168:304|168:304|141:299,1,55,0|0,0:0|0:0,2:0:0:0:
36,272,36801,2,0,L|96:232,1,55,0|0,0:0|2:0,2:0:0:0:
108,92,37269,1,0,0:0:0:0:
160,172,37504,1,8,0:0:0:0:
136,16,37738,1,0,0:0:0:0:
36,140,37973,5,8,0:0:0:0:
36,140,38207,1,0,0:0:0:0:
108,92,38441,2,0,P|140:96|176:88,1,55,2|0,2:0|2:0,2:0:0:0:
312,172,38910,2,0,B|288:176|256:160|256:160|228:176|200:172,1,110,0|0,0:0|0:0,2:0:0:0:
168,256,39613,6,0,P|200:288|216:320,1,55,0|0,0:0|0:0,2:0:0:0:
306,296,40082,2,0,P|323:273|344:256,1,55,0|0,0:0|0:0,2:0:0:0:
168,256,40551,2,0,L|104:244,1,55,0|0,0:0|2:0,2:0:0:0:
52,184,41019,1,0,0:0:0:0:
108,116,41254,1,8,0:0:0:0:
192,136,41488,1,0,0:0:0:0:
48,52,41723,5,8,0:0:0:0:
108,116,41957,1,0,0:0:0:0:
168,52,42191,2,0,P|196:48|236:56,1,55,2|0,2:0|2:0,2:0:0:0:
108,116,42660,2,0,B|55:131|55:131|2:114,1,110,0|0,0:0|0:0,2:0:0:0:
0,208,43363,6,0,L|68:232,1,55,0|0,0:0|0:0,2:0:0:0:
60,316,43832,2,0,L|132:308,1,55,0|0,0:0|0:0,2:0:0:0:
184,364,44301,2,0,L|236:316,1,55,0|0,0:0|2:0,2:0:0:0:
312,236,44769,5,0,0:0:0:0:
400,228,45004,1,8,0:0:0:0:
452,160,45238,1,0,0:0:0:0:
256,80,45473,5,4,0:0:0:0:
256,192,45590,12,0,48754,0:0:0:0:
