osu file format v14

[General]
AudioFilename: audio.mp3
AudioLeadIn: 0
PreviewTime: 23457
Countdown: 0
SampleSet: Soft
StackLeniency: 0.7
Mode: 2
LetterboxInBreaks: 0
WidescreenStoryboard: 1

[Editor]
Bookmarks: 185,23457,46730,70003,81639,93275,116548
DistanceSpacing: 1
BeatDivisor: 4
GridSize: 16
TimelineZoom: 1.199999

[Metadata]
Title:Wildflower
TitleUnicode:Wildflower
Artist:Kenneyon and Kara
ArtistUnicode:Kenneyon and Kara
Creator:Deif
Version:Salad
Source:
Tags:Wild Flower Kawaii Future Bass Piano Electronic Instrumental
BeatmapID:3949369
BeatmapSetID:1914385

[Difficulty]
HPDrainRate:3
CircleSize:3
OverallDifficulty:7
ApproachRate:7
SliderMultiplier:1.3
SliderTickRate:2

[Events]
//Background and Video events
0,0,"BG.jpg",0,0
//Break Periods
2,49839,51648
2,70203,74921
2,119657,121466
//Storyboard Layer 0 (Background)
//Storyboard Layer 1 (Fail)
//Storyboard Layer 2 (Pass)
//Storyboard Layer 3 (Foreground)
//Storyboard Layer 4 (Overlay)
//Storyboard Sound Samples

[TimingPoints]
185,363.636363636364,4,2,0,50,1,0
7457,-100,4,2,0,55,0,0
8912,-100,4,2,0,60,0,0
10366,-100,4,2,0,65,0,0
10730,-100,4,2,0,70,0,0
11094,-100,4,2,0,75,0,0
11457,-100,4,2,0,80,0,0
11821,-100,4,1,1,80,0,0
17821,-100,4,1,0,70,0,0
17912,-100,4,1,1,80,0,0
18003,-100,4,1,0,70,0,0
18094,-100,4,1,1,80,0,0
18366,-100,4,1,0,70,0,0
18457,-100,4,1,1,80,0,0
19275,-100,4,1,0,70,0,0
19366,-100,4,1,1,80,0,0
19457,-100,4,1,0,70,0,0
19548,-100,4,1,1,80,0,0
19821,-100,4,1,0,70,0,0
19912,-100,4,1,1,80,0,0
20639,-100,4,1,0,70,0,0
21094,-100,4,1,1,80,0,0
21185,-100,4,1,0,70,0,0
21457,-100,4,1,1,80,0,0
21548,-100,4,1,0,70,0,0
21639,-100,4,1,1,80,0,0
22094,-100,4,1,0,70,0,0
22548,-100,4,1,1,80,0,0
22639,-100,4,1,0,70,0,0
22730,-76.9230769230769,4,2,0,60,0,0
22912,-76.9230769230769,4,1,0,30,0,0
23094,-76.9230769230769,4,1,0,60,0,0
23276,-100,4,2,0,30,0,0
23457,-100,4,3,1,80,0,0
24003,-34.8432055749129,4,3,1,80,0,0
24185,-100,4,3,2,80,0,0
24275,-100,4,3,1,80,0,0
25275,-100,4,3,1,80,0,0
25639,-100,4,3,2,80,0,0
25730,-100,4,3,1,80,0,0
26003,-100,4,3,1,80,0,0
27094,-100,4,3,2,80,0,0
27184,-100,4,3,1,80,0,0
28548,-100,4,3,2,80,0,0
28638,-100,4,3,1,80,0,0
30003,-100,4,3,2,80,0,0
30093,-100,4,3,1,80,0,0
31094,-100,4,3,1,80,0,0
31457,-100,4,3,2,80,0,0
31548,-100,4,3,1,80,0,0
31821,-100,4,3,1,80,0,0
32185,-100,4,3,1,80,0,0
32912,-100,4,3,2,80,0,0
33002,-100,4,3,1,80,0,0
34366,-100,4,3,2,80,0,0
34456,-100,4,3,1,80,0,0
35094,-100,4,3,3,90,0,1
35821,-100,4,1,0,80,0,1
35912,-100,4,3,3,90,0,1
37275,-100,4,1,0,80,0,1
37366,-100,4,3,3,90,0,1
38730,-100,4,1,0,80,0,1
38821,-100,4,3,3,90,0,1
40185,-100,4,1,0,80,0,1
40366,-100,4,3,3,90,0,1
40457,-100,4,1,0,80,0,1
40548,-100,4,3,3,90,0,1
40639,-100,4,1,0,80,0,1
40730,-100,4,3,3,90,0,1
40821,-100,4,1,0,80,0,1
40912,-100,4,3,3,90,0,1
41639,-100,4,1,0,80,0,1
41730,-100,4,3,3,90,0,1
43093,-100,4,1,0,80,0,1
43184,-100,4,3,3,90,0,1
43457,-100,4,3,3,90,0,1
43639,-100,4,3,3,90,0,1
44548,-100,4,1,0,80,0,1
44639,-100,4,3,3,90,0,1
46003,-100,4,1,0,80,0,1
46184,-100,4,3,3,90,0,1
46275,-100,4,1,0,80,0,1
46366,-100,4,3,3,90,0,1
46457,-100,4,1,0,80,0,1
46548,-100,4,3,3,90,0,1
46639,-100,4,1,0,80,0,1
46730,-100,4,1,2,80,0,0
46912,-100,4,2,0,50,0,0
51094,-100,4,2,0,55,0,0
52548,-100,4,2,0,60,0,0
54003,-100,4,2,0,65,0,0
55457,-100,4,2,0,70,0,0
56912,-100,4,2,0,75,0,0
57639,-100,4,2,0,80,0,0
58003,-100,4,2,0,85,0,0
58366,-100,4,1,1,80,0,0
58548,-100,4,2,1,60,0,0
69275,-100,4,2,1,70,0,0
69639,-100,4,2,1,80,0,0
70003,-100,4,1,1,80,0,0
70185,-100,4,2,1,50,0,0
70548,-100,4,3,0,50,0,0
71457,-100,4,2,1,50,0,0
72003,-100,4,3,0,50,0,0
72912,-100,4,2,1,60,0,0
73457,-100,4,3,0,50,0,0
74366,-100,4,2,1,60,0,0
74912,-100,4,3,0,50,0,0
75094,-100,4,2,1,60,0,0
75275,-100,4,3,0,50,0,0
75457,-100,4,2,1,60,0,0
75639,-100,4,3,0,50,0,0
75821,-100,4,2,1,70,0,0
76003,-100,4,3,0,50,0,0
76185,-100,4,2,1,70,0,0
76366,-100,4,3,0,50,0,0
76548,-100,4,2,1,70,0,0
76730,-100,4,3,0,50,0,0
76912,-100,4,2,1,70,0,0
77094,-100,4,3,0,50,0,0
77275,-100,4,2,1,70,0,0
77457,-100,4,3,0,50,0,0
77639,-100,4,2,1,70,0,0
77820,-100,4,3,0,50,0,0
78002,-100,4,2,1,70,0,0
78184,-100,4,3,0,50,0,0
78366,-100,4,2,1,70,0,0
78548,-100,4,3,0,50,0,0
78730,-100,4,2,1,75,0,0
78912,-100,4,3,0,50,0,0
79094,-100,4,2,1,75,0,0
79275,-100,4,3,0,50,0,0
79457,-100,4,2,1,75,0,0
79639,-100,4,3,0,50,0,0
79821,-100,4,2,1,75,0,0
80003,-100,4,3,0,50,0,0
80185,-100,4,2,1,75,0,0
80367,-100,4,3,0,50,0,0
80549,-100,4,2,1,75,0,0
80730,-100,4,3,0,50,0,0
80912,-100,4,2,1,80,0,0
81094,-100,4,3,0,50,0,0
81276,-100,4,2,1,80,0,0
81458,-100,4,3,0,50,0,0
81639,-100,4,1,1,80,0,0
87639,-100,4,1,0,70,0,0
87730,-100,4,1,1,80,0,0
87821,-100,4,1,0,70,0,0
87912,-100,4,1,1,80,0,0
88184,-100,4,1,0,70,0,0
88275,-100,4,1,1,80,0,0
89093,-100,4,1,0,70,0,0
89184,-100,4,1,1,80,0,0
89275,-100,4,1,0,70,0,0
89366,-100,4,1,1,80,0,0
89639,-100,4,1,0,70,0,0
89730,-100,4,1,1,80,0,0
90457,-100,4,1,0,70,0,0
90912,-100,4,1,1,80,0,0
91003,-100,4,1,0,70,0,0
91275,-100,4,1,1,80,0,0
91366,-100,4,1,0,70,0,0
91457,-100,4,1,1,80,0,0
91912,-100,4,1,0,70,0,0
92366,-100,4,1,1,80,0,0
92457,-100,4,1,0,70,0,0
92548,-76.9230769230769,4,2,0,60,0,0
92594,-76.9230769230769,4,2,0,30,0,0
92730,-76.9230769230769,4,1,0,60,0,0
92776,-76.9230769230769,4,2,0,30,0,0
92912,-76.9230769230769,4,1,0,60,0,0
92958,-76.9230769230769,4,2,0,30,0,0
93094,-76.9230769230769,4,2,0,60,0,0
93140,-76.9230769230769,4,2,0,30,0,0
93275,-100,4,3,1,80,0,0
93821,-34.8432055749129,4,3,1,80,0,0
94003,-100,4,3,2,80,0,0
94093,-100,4,3,1,80,0,0
95094,-100,4,3,1,80,0,0
95457,-100,4,3,2,80,0,0
95548,-100,4,3,1,80,0,0
95821,-100,4,3,1,80,0,0
96912,-100,4,3,2,80,0,0
97002,-100,4,3,1,80,0,0
98366,-100,4,3,2,80,0,0
98456,-100,4,3,1,80,0,0
99821,-100,4,3,2,80,0,0
99911,-100,4,3,1,80,0,0
100912,-100,4,3,1,80,0,0
101275,-100,4,3,2,80,0,0
101366,-100,4,3,1,80,0,0
101639,-100,4,3,1,80,0,0
102003,-100,4,3,1,80,0,0
102730,-100,4,3,2,80,0,0
102820,-100,4,3,1,80,0,0
104184,-100,4,3,2,80,0,0
104274,-100,4,3,1,80,0,0
104912,-100,4,3,3,90,0,1
105639,-100,4,1,0,80,0,1
105730,-100,4,3,3,90,0,1
107093,-100,4,1,0,80,0,1
107184,-100,4,3,3,90,0,1
108548,-100,4,1,0,80,0,1
108639,-100,4,3,3,90,0,1
110003,-100,4,1,0,80,0,1
110184,-100,4,3,3,90,0,1
110275,-100,4,1,0,80,0,1
110366,-100,4,3,3,90,0,1
110457,-100,4,1,0,80,0,1
110548,-100,4,3,3,90,0,1
110639,-100,4,1,0,80,0,1
110730,-100,4,3,3,90,0,1
111457,-100,4,1,0,80,0,1
111548,-100,4,3,3,90,0,1
112911,-100,4,1,0,80,0,1
113002,-100,4,3,3,90,0,1
113275,-100,4,3,3,90,0,1
113457,-100,4,3,3,90,0,1
114366,-100,4,1,0,80,0,1
114457,-100,4,3,3,90,0,1
115821,-100,4,1,0,80,0,1
116002,-100,4,3,3,90,0,1
116093,-100,4,1,0,80,0,1
116184,-100,4,3,3,90,0,1
116275,-100,4,1,0,80,0,1
116366,-100,4,3,3,90,0,1
116457,-100,4,1,0,80,0,1
116548,-100,4,1,2,80,0,0
116730,-100,4,2,0,50,0,0
120912,-100,4,2,0,55,0,0
122366,-100,4,2,0,60,0,0
123821,-100,4,2,0,65,0,0
125275,-100,4,2,0,70,0,0
126730,-100,4,2,0,75,0,0
127457,-100,4,2,0,80,0,0
127821,-100,4,2,0,85,0,0
128184,-100,4,1,1,80,0,0
128366,-100,4,2,1,60,0,0
139093,-100,4,2,1,70,0,0
139457,-100,4,2,1,80,0,0
139821,-100,4,1,1,80,0,0
140003,-100,4,2,1,50,0,0
140548,-100,4,2,1,45,0,0
140912,-100,4,2,1,40,0,0
141275,-100,4,2,1,35,0,0
141639,-100,4,2,1,30,0,0
142003,-100,4,2,1,25,0,0
142366,-100,4,2,1,20,0,0
142730,-100,4,2,1,15,0,0
143094,-100,4,2,1,10,0,0
143457,-100,4,2,1,5,0,0

[Colours]
Combo1 : 159,64,255
Combo2 : 243,89,34
Combo3 : 255,96,255
Combo4 : 255,255,0

[HitObjects]
96,192,6003,5,2,0:0:0:0:
128,192,6366,1,0,0:0:0:0:
96,192,6730,1,2,0:0:0:0:
128,192,7094,1,0,0:0:0:0:
240,192,7457,5,2,0:0:0:0:
272,192,7821,1,0,0:0:0:0:
240,192,8185,1,2,0:0:0:0:
272,192,8548,1,0,0:0:0:0:
384,192,8912,5,2,0:0:0:0:
416,192,9275,1,0,0:0:0:0:
384,192,9639,1,2,0:0:0:0:
416,192,10003,1,0,0:0:0:0:
256,192,10366,12,2,11457,0:0:0:0:
160,192,11821,6,0,L|176:128,1,65,14|0,0:0|0:0,0:0:0:0:
144,112,12185,1,0,0:0:0:0:
80,112,12366,1,2,0:0:0:0:
208,112,12730,1,2,0:0:0:0:
144,112,12912,2,0,L|128:176,1,65,2|2,0:0|0:0,0:0:0:0:
288,192,13275,5,10,0:0:0:0:
352,192,13457,1,0,0:0:0:0:
288,192,13639,2,0,L|272:128,1,65,0|2,0:0|0:0,0:0:0:0:
336,128,14003,1,0,0:0:0:0:
272,128,14185,1,2,0:0:0:0:
208,128,14366,1,2,0:0:0:0:
272,128,14548,1,2,0:0:0:0:
432,192,14730,6,0,L|448:128,1,65,10|0,0:0|0:0,0:0:0:0:
416,112,15094,1,0,0:0:0:0:
352,112,15275,1,2,0:0:0:0:
224,112,15639,1,2,0:0:0:0:
288,112,15821,2,0,L|304:176,1,65,2|2,0:0|0:0,0:0:0:0:
144,192,16185,5,10,0:0:0:0:
80,192,16366,1,0,0:0:0:0:
144,192,16548,2,0,L|160:128,1,65,0|2,0:0|0:0,0:0:0:0:
96,144,16912,1,0,0:0:0:0:
32,144,17094,1,2,0:0:0:0:
32,80,17275,1,2,0:0:0:0:
96,80,17457,1,2,0:0:0:0:
256,192,17639,6,0,L|288:128,1,65,10|0,0:0|0:0,0:0:0:0:
224,112,18003,1,0,0:0:0:0:
288,112,18185,1,2,0:0:0:0:
160,112,18548,1,2,0:0:0:0:
96,112,18730,2,0,L|80:176,1,65,2|2,0:0|0:0,0:0:0:0:
240,192,19094,5,10,0:0:0:0:
304,192,19275,1,0,0:0:0:0:
240,192,19457,2,0,L|224:128,1,65,0|2,0:0|0:0,0:0:0:0:
288,128,19821,1,0,0:0:0:0:
224,128,20003,1,2,0:0:0:0:
160,128,20185,1,2,0:0:0:0:
224,128,20366,1,2,0:0:0:0:
384,192,20548,6,0,L|416:128,1,65,10|0,0:0|0:0,0:0:0:0:
352,112,20912,1,0,0:0:0:0:
416,112,21094,1,2,0:0:0:0:
288,112,21457,1,2,0:0:0:0:
224,112,21639,2,0,L|208:176,1,65,2|2,0:0|0:0,0:0:0:0:
368,192,22003,5,10,0:0:0:0:
432,192,22185,1,0,0:0:0:0:
368,192,22366,2,0,L|352:128,1,65,0|2,0:0|0:0,0:0:0:0:
416,64,22730,6,0,B|480:120|480:120|416:64|416:64|480:120,1,253.499988395691,2|2,0:0|0:0,0:0:0:0:
320,192,23457,6,0,L|256:192,2,65,12|2|2,0:0|0:0|0:0,0:0:0:0:
384,192,24003,2,0,B|308:364|308:364|240:192,1,373.100011528435,8|2,0:0|0:0,0:0:0:0:
304,160,24548,2,0,L|320:96,1,65,0|2,0:0|0:0,0:0:0:0:
256,64,24912,5,8,0:0:0:0:
192,64,25094,1,2,0:0:0:0:
128,64,25275,1,2,0:0:0:0:
192,64,25457,1,8,0:0:0:0:
32,192,25639,2,0,L|16:128,1,65,8|2,0:0|2:0,0:0:0:0:
80,192,26003,2,0,L|96:128,1,65,2|2,0:0|2:0,0:0:0:0:
32,80,26366,5,8,0:0:0:0:
96,80,26548,2,0,L|112:144,1,65,2|2,0:0|0:0,0:0:0:0:
48,128,26912,1,8,0:0:0:0:
208,192,27094,1,10,0:0:0:0:
272,192,27275,1,2,0:0:0:0:
336,192,27457,1,0,0:0:0:0:
272,192,27639,1,2,0:0:0:0:
336,192,27821,6,0,L|352:128,1,65,8|2,0:0|0:0,0:0:0:0:
320,144,28185,1,2,0:0:0:0:
256,144,28366,1,8,0:0:0:0:
96,144,28548,1,10,0:0:0:0:
32,144,28730,1,10,0:0:0:0:
96,208,28912,1,8,0:0:0:0:
32,208,29094,1,10,0:0:0:0:
192,192,29275,5,12,0:0:0:0:
272,192,29457,1,2,0:0:0:0:
272,112,29639,1,2,0:0:0:0:
192,112,29821,1,8,0:0:0:0:
352,112,30003,1,10,0:0:0:0:
432,112,30185,1,2,0:0:0:0:
352,112,30366,1,0,0:0:0:0:
352,192,30548,1,2,0:0:0:0:
432,192,30730,5,8,0:0:0:0:
432,112,30912,1,2,0:0:0:0:
400,64,31094,1,2,0:0:0:0:
320,64,31275,1,8,0:0:0:0:
480,192,31457,2,0,L|496:128,1,65,8|2,0:0|2:0,0:0:0:0:
432,144,31821,1,2,0:0:0:0:
496,144,32003,1,2,2:0:0:0:
432,80,32185,5,8,0:0:0:0:
368,80,32366,2,0,L|384:144,1,65,2|2,0:0|0:0,0:0:0:0:
448,128,32730,1,8,0:0:0:0:
288,192,32912,1,10,0:0:0:0:
224,192,33094,1,2,0:0:0:0:
160,192,33275,1,0,0:0:0:0:
224,192,33457,1,2,0:0:0:0:
160,192,33639,6,0,L|160:128,1,65,8|2,0:0|0:0,0:0:0:0:
192,144,34003,1,2,0:0:0:0:
256,144,34185,1,8,0:0:0:0:
416,144,34366,1,10,0:0:0:0:
352,144,34548,1,0,0:0:0:0:
192,208,34730,1,10,0:0:0:0:
256,208,34912,1,0,0:0:0:0:
424,208,35094,5,12,0:0:0:0:
488,208,35275,1,2,0:0:0:0:
424,208,35457,1,8,0:0:0:0:
128,192,35821,2,0,L|112:128,1,65,8|2,0:0|0:0,0:0:0:0:
152,128,36094,1,2,0:0:0:0:
192,192,36185,2,0,L|208:128,1,65,8|2,0:0|0:0,0:0:0:0:
40,192,36548,6,0,L|24:128,1,65,8|2,0:0|0:0,0:0:0:0:
40,192,36912,1,8,0:0:0:0:
104,192,37094,1,2,0:0:0:0:
272,192,37275,2,0,L|272:128,1,65,8|2,0:0|0:0,0:0:0:0:
232,128,37548,1,2,0:0:0:0:
192,192,37639,2,0,L|176:128,1,65,8|2,0:0|0:0,0:0:0:0:
344,304,38003,5,8,0:0:0:0:
408,304,38185,1,2,0:0:0:0:
344,304,38366,2,0,L|328:240,1,65,8|0,0:0|0:0,0:0:0:0:
496,192,38730,2,0,L|512:152,2,32.5,8|0|2,0:0|0:0|0:0,0:0:0:0:
432,192,39094,1,8,0:0:0:0:
496,192,39275,1,2,0:0:0:0:
328,192,39457,5,8,0:0:0:0:
264,192,39639,1,2,0:0:0:0:
328,192,39821,1,8,0:0:0:0:
392,192,40003,1,2,0:0:0:0:
224,192,40185,2,0,L|224:152,1,32.5,8|0,0:0|0:0,0:0:0:0:
256,144,40366,1,2,0:0:0:0:
320,192,40548,1,8,0:0:0:0:
280,192,40639,1,0,0:0:0:0:
240,192,40730,1,2,0:0:0:0:
72,192,40912,5,12,0:0:0:0:
72,144,41094,1,2,0:0:0:0:
104,112,41275,1,8,0:0:0:0:
168,112,41457,1,0,0:0:0:0:
336,192,41639,2,0,L|352:128,1,65,8|2,0:0|0:0,0:0:0:0:
312,128,41912,1,2,0:0:0:0:
272,192,42003,2,0,L|256:128,1,65,8|2,0:0|0:0,0:0:0:0:
424,192,42366,5,8,0:0:0:0:
488,192,42548,1,2,0:0:0:0:
424,192,42730,1,8,0:0:0:0:
360,192,42912,1,2,0:0:0:0:
192,192,43094,2,0,L|192:128,1,65,8|2,0:0|0:0,0:0:0:0:
232,128,43366,1,2,0:0:0:0:
272,192,43457,2,0,L|288:128,1,65,8|2,0:0|0:0,0:0:0:0:
120,304,43821,5,8,0:0:0:0:
56,304,44003,1,2,0:0:0:0:
120,304,44185,1,8,0:0:0:0:
184,304,44366,1,2,0:0:0:0:
16,192,44548,2,0,L|16:120,1,65,8|2,0:0|0:0,0:0:0:0:
48,112,44821,1,0,0:0:0:0:
80,120,44912,2,0,L|16:120,1,65,8|2,0:0|0:0,0:0:0:0:
184,192,45275,5,8,0:0:0:0:
248,192,45457,1,2,0:0:0:0:
184,192,45639,2,0,L|168:128,1,65,8|2,0:0|0:0,0:0:0:0:
336,128,46003,2,0,L|336:176,1,32.5,8|0,0:0|0:0,0:0:0:0:
304,176,46185,1,2,0:0:0:0:
136,128,46366,1,8,0:0:0:0:
176,128,46457,1,0,0:0:0:0:
216,128,46548,1,2,0:0:0:0:
384,128,46730,5,12,0:0:0:0:
256,192,47094,12,2,49639,0:0:0:0:
448,192,52548,5,2,0:0:0:0:
480,192,52912,1,2,0:0:0:0:
448,192,53275,1,0,0:0:0:0:
480,192,53639,1,2,0:0:0:0:
224,192,54003,5,2,0:0:0:0:
288,192,54366,1,2,0:0:0:0:
224,192,54730,1,2,0:0:0:0:
288,192,55094,1,2,0:0:0:0:
32,192,55457,5,2,0:0:0:0:
128,192,55821,1,2,0:0:0:0:
32,192,56185,1,0,0:0:0:0:
128,192,56548,1,2,0:0:0:0:
256,192,56912,12,2,58003,0:0:0:0:
192,64,58366,5,12,0:0:0:0:
256,64,58548,1,2,0:0:0:0:
320,64,58730,2,0,L|320:136,1,65,8|2,0:0|0:0,0:0:0:0:
256,112,59094,2,0,L|240:176,2,65,2|2|8,3:0|0:0|0:0,0:0:0:0:
320,112,59639,1,2,0:0:0:0:
480,112,59821,6,0,L|496:176,1,65,2|2,3:0|0:0,0:0:0:0:
432,112,60185,1,8,0:0:0:0:
368,112,60366,1,2,0:0:0:0:
432,272,60548,2,0,L|448:208,1,65,2|2,3:0|0:0,0:0:0:0:
384,272,60912,1,10,0:0:0:0:
447,224,61094,1,10,0:0:0:0:
288,192,61275,6,0,L|288:128,1,65,2|2,3:0|0:0,0:0:0:0:
352,144,61639,1,8,0:0:0:0:
288,144,61821,1,2,0:0:0:0:
224,144,62003,2,0,L|208:208,2,65,2|2|8,3:0|0:0|0:0,0:0:0:0:
288,144,62548,1,2,0:0:0:0:
128,144,62730,5,2,3:0:0:0:
64,144,62912,1,2,0:0:0:0:
128,144,63094,2,0,L|144:208,1,65,8|2,0:0|0:0,0:0:0:0:
80,192,63457,1,2,3:0:0:0:
16,192,63639,1,2,0:0:0:0:
80,256,63821,1,10,0:0:0:0:
16,256,64003,1,10,0:0:0:0:
176,64,64185,5,2,3:0:0:0:
240,64,64366,1,2,0:0:0:0:
176,64,64548,1,8,0:0:0:0:
112,64,64730,2,0,L|96:128,1,65,2|2,0:0|3:0,0:0:0:0:
160,112,65094,1,2,0:0:0:0:
224,112,65275,2,0,L|240:48,1,65,8|2,0:0|0:0,0:0:0:0:
80,112,65639,6,0,L|64:176,1,65,2|2,3:0|0:0,0:0:0:0:
128,112,66003,1,8,0:0:0:0:
192,112,66185,1,2,0:0:0:0:
128,272,66366,1,2,3:0:0:0:
64,272,66548,1,2,0:0:0:0:
128,272,66730,1,10,0:0:0:0:
64,272,66912,1,10,0:0:0:0:
224,192,67094,6,0,L|240:128,1,65,2|2,3:0|0:0,0:0:0:0:
176,144,67457,1,8,0:0:0:0:
240,144,67639,1,2,0:0:0:0:
304,144,67821,2,0,L|320:208,2,65,2|2|8,3:0|0:0|0:0,0:0:0:0:
240,144,68366,1,2,0:0:0:0:
400,144,68548,5,2,3:0:0:0:
464,144,68730,2,0,L|464:192,1,32.5,8|2,0:0|0:0,0:0:0:0:
400,144,69003,2,0,L|368:144,1,32.5,2|10,0:0|0:0,0:0:0:0:
304,256,69275,1,2,3:0:0:0:
368,256,69457,1,10,0:0:0:0:
448,256,69639,1,10,0:0:0:0:
368,256,69821,1,10,0:0:0:0:
208,256,70003,5,12,0:0:0:0:
392,192,75821,5,10,0:0:0:0:
344,192,76185,1,10,0:0:0:0:
296,192,76548,1,2,0:0:0:0:
344,192,76912,1,2,0:0:0:0:
88,192,77275,5,10,0:0:0:0:
168,192,77639,1,10,0:0:0:0:
248,192,78003,1,2,0:0:0:0:
168,192,78366,1,2,0:0:0:0:
424,192,78730,5,10,0:0:0:0:
312,192,79094,1,10,0:0:0:0:
200,192,79457,1,2,0:0:0:0:
312,192,79821,1,2,0:0:0:0:
256,192,80185,12,10,81275,0:0:0:0:
288,192,81639,6,0,L|272:128,1,65,14|0,0:0|0:0,0:0:0:0:
304,112,82003,1,0,0:0:0:0:
368,112,82185,1,2,0:0:0:0:
240,112,82548,1,2,0:0:0:0:
304,112,82730,2,0,L|320:176,1,65,2|2,0:0|0:0,0:0:0:0:
176,192,83094,5,10,0:0:0:0:
112,192,83275,1,0,0:0:0:0:
176,192,83457,2,0,L|192:128,1,65,0|2,0:0|0:0,0:0:0:0:
128,128,83821,1,0,0:0:0:0:
192,128,84003,1,2,0:0:0:0:
256,128,84185,1,2,0:0:0:0:
192,128,84366,1,2,0:0:0:0:
48,192,84548,6,0,L|32:128,1,65,10|0,0:0|0:0,0:0:0:0:
64,112,84912,1,0,0:0:0:0:
128,112,85094,1,2,0:0:0:0:
256,112,85457,1,2,0:0:0:0:
192,112,85639,2,0,L|176:176,1,65,2|2,0:0|0:0,0:0:0:0:
320,192,86003,5,10,0:0:0:0:
384,192,86185,1,0,0:0:0:0:
320,192,86366,2,0,L|304:128,1,65,0|2,0:0|0:0,0:0:0:0:
368,144,86730,1,0,0:0:0:0:
432,144,86912,1,2,0:0:0:0:
432,80,87094,1,2,0:0:0:0:
368,80,87275,1,2,0:0:0:0:
224,192,87457,6,0,L|192:128,1,65,10|0,0:0|0:0,0:0:0:0:
256,112,87821,1,0,0:0:0:0:
192,112,88003,1,2,0:0:0:0:
320,112,88366,1,2,0:0:0:0:
384,112,88548,2,0,L|400:176,1,65,2|2,0:0|0:0,0:0:0:0:
256,192,88912,5,10,0:0:0:0:
192,192,89094,1,0,0:0:0:0:
256,192,89275,2,0,L|272:128,1,65,0|2,0:0|0:0,0:0:0:0:
208,128,89639,1,0,0:0:0:0:
272,128,89821,1,2,0:0:0:0:
336,128,90003,1,2,0:0:0:0:
272,128,90185,1,2,0:0:0:0:
128,192,90366,6,0,L|96:128,1,65,10|0,0:0|0:0,0:0:0:0:
160,112,90730,1,0,0:0:0:0:
96,112,90912,1,2,0:0:0:0:
224,112,91275,1,2,0:0:0:0:
288,112,91457,2,0,L|304:176,1,65,2|2,0:0|0:0,0:0:0:0:
160,192,91821,5,10,0:0:0:0:
96,192,92003,1,0,0:0:0:0:
160,192,92185,2,0,L|176:128,1,65,0|2,0:0|0:0,0:0:0:0:
112,64,92548,6,0,B|176:120|176:120|112:64|112:64|48:120,1,253.499988395691,2|2,0:0|0:0,0:0:0:0:
192,192,93275,6,0,L|256:192,2,65,12|2|2,0:0|0:0|0:0,0:0:0:0:
128,192,93821,2,0,B|204:364|204:364|272:192,1,373.100011528435,8|2,0:0|0:0,0:0:0:0:
208,160,94366,2,0,L|192:96,1,65,0|2,0:0|0:0,0:0:0:0:
256,64,94730,5,8,0:0:0:0:
320,64,94912,1,2,0:0:0:0:
384,64,95094,1,2,0:0:0:0:
320,64,95275,1,8,0:0:0:0:
480,192,95457,2,0,L|496:128,1,65,8|2,0:0|2:0,0:0:0:0:
432,192,95821,2,0,L|416:128,1,65,2|2,0:0|2:0,0:0:0:0:
480,80,96185,5,8,0:0:0:0:
416,80,96366,2,0,L|400:144,1,65,2|2,0:0|0:0,0:0:0:0:
464,128,96730,1,8,0:0:0:0:
304,192,96912,1,10,0:0:0:0:
240,192,97094,1,2,0:0:0:0:
176,192,97275,1,0,0:0:0:0:
240,192,97457,1,2,0:0:0:0:
176,192,97639,6,0,L|160:128,1,65,8|2,0:0|0:0,0:0:0:0:
192,144,98003,1,2,0:0:0:0:
256,144,98185,1,8,0:0:0:0:
416,144,98366,1,10,0:0:0:0:
480,144,98548,1,10,0:0:0:0:
416,208,98730,1,8,0:0:0:0:
480,208,98912,1,10,0:0:0:0:
320,192,99094,5,12,0:0:0:0:
240,192,99275,1,2,0:0:0:0:
240,112,99457,1,2,0:0:0:0:
320,112,99639,1,8,0:0:0:0:
160,112,99821,1,10,0:0:0:0:
80,112,100003,1,2,0:0:0:0:
160,112,100185,1,0,0:0:0:0:
160,192,100366,1,2,0:0:0:0:
80,192,100548,5,8,0:0:0:0:
80,112,100730,1,2,0:0:0:0:
112,64,100912,1,2,0:0:0:0:
192,64,101094,1,8,0:0:0:0:
32,192,101275,2,0,L|16:128,1,65,8|2,0:0|2:0,0:0:0:0:
80,144,101639,1,2,0:0:0:0:
16,144,101821,1,2,2:0:0:0:
80,80,102003,5,8,0:0:0:0:
144,80,102185,2,0,L|128:144,1,65,2|2,0:0|0:0,0:0:0:0:
64,128,102548,1,8,0:0:0:0:
224,192,102730,1,10,0:0:0:0:
288,192,102912,1,2,0:0:0:0:
352,192,103094,1,0,0:0:0:0:
288,192,103275,1,2,0:0:0:0:
352,192,103457,6,0,L|352:128,1,65,8|2,0:0|0:0,0:0:0:0:
320,144,103821,1,2,0:0:0:0:
256,144,104003,1,8,0:0:0:0:
96,144,104185,1,10,0:0:0:0:
160,144,104366,1,0,0:0:0:0:
320,208,104548,1,10,0:0:0:0:
256,208,104730,1,0,0:0:0:0:
88,208,104912,5,12,0:0:0:0:
24,208,105094,1,2,0:0:0:0:
88,208,105275,1,8,0:0:0:0:
384,192,105639,2,0,L|400:128,1,65,8|2,0:0|0:0,0:0:0:0:
360,128,105912,1,2,0:0:0:0:
320,192,106003,2,0,L|304:128,1,65,8|2,0:0|0:0,0:0:0:0:
472,192,106366,6,0,L|488:128,1,65,8|2,0:0|0:0,0:0:0:0:
472,192,106730,1,8,0:0:0:0:
408,192,106912,1,2,0:0:0:0:
240,192,107094,2,0,L|240:128,1,65,8|2,0:0|0:0,0:0:0:0:
280,128,107366,1,2,0:0:0:0:
320,192,107457,2,0,L|336:128,1,65,8|2,0:0|0:0,0:0:0:0:
168,304,107821,5,8,0:0:0:0:
104,304,108003,1,2,0:0:0:0:
168,304,108185,2,0,L|184:240,1,65,8|0,0:0|0:0,0:0:0:0:
16,192,108548,2,0,L|0:152,2,32.5,8|0|2,0:0|0:0|0:0,0:0:0:0:
80,192,108912,1,8,0:0:0:0:
16,192,109094,1,2,0:0:0:0:
184,192,109275,5,8,0:0:0:0:
248,192,109457,1,2,0:0:0:0:
184,192,109639,1,8,0:0:0:0:
120,192,109821,1,2,0:0:0:0:
288,192,110003,2,0,L|288:152,1,32.5,8|0,0:0|0:0,0:0:0:0:
256,144,110185,1,2,0:0:0:0:
192,192,110366,1,8,0:0:0:0:
232,192,110457,1,0,0:0:0:0:
272,192,110548,1,2,0:0:0:0:
440,192,110730,5,12,0:0:0:0:
440,144,110912,1,2,0:0:0:0:
408,112,111094,1,8,0:0:0:0:
344,112,111275,1,0,0:0:0:0:
176,192,111457,2,0,L|160:128,1,65,8|2,0:0|0:0,0:0:0:0:
200,128,111730,1,2,0:0:0:0:
240,192,111821,2,0,L|256:128,1,65,8|2,0:0|0:0,0:0:0:0:
88,192,112185,5,8,0:0:0:0:
24,192,112366,1,2,0:0:0:0:
88,192,112548,1,8,0:0:0:0:
152,192,112730,1,2,0:0:0:0:
320,192,112912,2,0,L|320:128,1,65,8|2,0:0|0:0,0:0:0:0:
280,128,113185,1,2,0:0:0:0:
240,192,113275,2,0,L|224:128,1,65,8|2,0:0|0:0,0:0:0:0:
392,304,113639,5,8,0:0:0:0:
456,304,113821,1,2,0:0:0:0:
392,304,114003,1,8,0:0:0:0:
328,304,114185,1,2,0:0:0:0:
496,192,114366,2,0,L|496:120,1,65,8|2,0:0|0:0,0:0:0:0:
464,112,114639,1,0,0:0:0:0:
432,120,114730,2,0,L|496:120,1,65,8|2,0:0|0:0,0:0:0:0:
328,192,115094,5,8,0:0:0:0:
264,192,115275,1,2,0:0:0:0:
328,192,115457,2,0,L|344:128,1,65,8|2,0:0|0:0,0:0:0:0:
176,128,115821,2,0,L|176:176,1,32.5,8|0,0:0|0:0,0:0:0:0:
208,176,116003,1,2,0:0:0:0:
376,128,116185,1,8,0:0:0:0:
336,128,116275,1,0,0:0:0:0:
296,128,116366,1,2,0:0:0:0:
128,128,116548,5,12,0:0:0:0:
256,192,116912,12,2,119457,0:0:0:0:
64,192,122366,5,2,0:0:0:0:
32,192,122730,1,2,0:0:0:0:
64,192,123094,1,0,0:0:0:0:
32,192,123457,1,2,0:0:0:0:
288,192,123821,5,2,0:0:0:0:
224,192,124185,1,2,0:0:0:0:
288,192,124548,1,2,0:0:0:0:
224,192,124912,1,2,0:0:0:0:
480,192,125275,5,2,0:0:0:0:
384,192,125639,1,2,0:0:0:0:
480,192,126003,1,0,0:0:0:0:
384,192,126366,1,2,0:0:0:0:
256,192,126730,12,2,127821,0:0:0:0:
320,64,128185,5,12,0:0:0:0:
256,64,128366,1,2,0:0:0:0:
192,64,128548,2,0,L|192:136,1,65,8|2,0:0|0:0,0:0:0:0:
256,112,128912,2,0,L|272:176,2,65,2|2|8,3:0|0:0|0:0,0:0:0:0:
192,112,129457,1,2,0:0:0:0:
32,112,129639,6,0,L|16:176,1,65,2|2,3:0|0:0,0:0:0:0:
80,112,130003,1,8,0:0:0:0:
144,112,130185,1,2,0:0:0:0:
80,272,130366,2,0,L|64:208,1,65,2|2,3:0|0:0,0:0:0:0:
128,272,130730,1,10,0:0:0:0:
65,224,130912,1,10,0:0:0:0:
224,192,131094,6,0,L|224:128,1,65,2|2,3:0|0:0,0:0:0:0:
160,144,131457,1,8,0:0:0:0:
224,144,131639,1,2,0:0:0:0:
288,144,131821,2,0,L|304:208,2,65,2|2|8,3:0|0:0|0:0,0:0:0:0:
224,144,132366,1,2,0:0:0:0:
384,144,132548,5,2,3:0:0:0:
448,144,132730,1,2,0:0:0:0:
384,144,132912,2,0,L|368:208,1,65,8|2,0:0|0:0,0:0:0:0:
432,192,133275,1,2,3:0:0:0:
496,192,133457,1,2,0:0:0:0:
432,256,133639,1,10,0:0:0:0:
496,256,133821,1,10,0:0:0:0:
336,64,134003,5,2,3:0:0:0:
272,64,134185,1,2,0:0:0:0:
336,64,134366,1,8,0:0:0:0:
400,64,134548,2,0,L|416:128,1,65,2|2,0:0|3:0,0:0:0:0:
352,112,134912,1,2,0:0:0:0:
288,112,135094,2,0,L|272:48,1,65,8|2,0:0|0:0,0:0:0:0:
432,112,135457,6,0,L|448:176,1,65,2|2,3:0|0:0,0:0:0:0:
384,112,135821,1,8,0:0:0:0:
320,112,136003,1,2,0:0:0:0:
384,272,136185,1,2,3:0:0:0:
448,272,136366,1,2,0:0:0:0:
384,272,136548,1,10,0:0:0:0:
448,272,136730,1,10,0:0:0:0:
288,192,136912,6,0,L|272:128,1,65,2|2,3:0|0:0,0:0:0:0:
336,144,137275,1,8,0:0:0:0:
272,144,137457,1,2,0:0:0:0:
208,144,137639,2,0,L|192:208,2,65,2|2|8,3:0|0:0|0:0,0:0:0:0:
272,144,138185,1,2,0:0:0:0:
112,144,138366,5,2,3:0:0:0:
48,144,138548,2,0,L|48:192,1,32.5,8|2,0:0|0:0,0:0:0:0:
112,144,138821,2,0,L|144:144,1,32.5,2|10,0:0|0:0,0:0:0:0:
208,256,139094,1,2,3:0:0:0:
144,256,139275,1,10,0:0:0:0:
64,256,139457,1,10,0:0:0:0:
144,256,139639,1,10,0:0:0:0:
304,256,139821,5,12,0:0:0:0:
256,192,140185,12,0,143457,0:0:0:0:
