osu file format v14

[General]
AudioFilename: audio.mp3
AudioLeadIn: 0
PreviewTime: 23457
Countdown: 0
SampleSet: Drum
StackLeniency: 0.7
Mode: 2
LetterboxInBreaks: 0
WidescreenStoryboard: 1

[Editor]
Bookmarks: 185,23457,46730,70003,81639,93275,116548
DistanceSpacing: 1
BeatDivisor: 8
GridSize: 16
TimelineZoom: 2.799999

[Metadata]
Title:Wildflower
TitleUnicode:Wildflower
Artist:Kenneyon and Kara
ArtistUnicode:Kenneyon and Kara
Creator:Deif
Version:Rain
Source:
Tags:Wild Flower Kawaii Future Bass Piano Electronic Instrumental
BeatmapID:3949368
BeatmapSetID:1914385

[Difficulty]
HPDrainRate:5
CircleSize:4
OverallDifficulty:9
ApproachRate:9
SliderMultiplier:1.9
SliderTickRate:2

[Events]
//Background and Video events
0,0,"BG.jpg",0,0
//Break Periods
//Storyboard Layer 0 (Background)
//Storyboard Layer 1 (Fail)
//Storyboard Layer 2 (Pass)
//Storyboard Layer 3 (Foreground)
//Storyboard Layer 4 (Overlay)
//Storyboard Sound Samples

[TimingPoints]
185,363.636363636364,4,2,0,50,1,0
7457,-100,4,2,0,55,0,0
8912,-100,4,2,0,60,0,0
10366,-100,4,2,0,65,0,0
10730,-100,4,2,0,70,0,0
11094,-100,4,2,0,75,0,0
11457,-100,4,2,0,80,0,0
11821,-100,4,1,1,80,0,0
17821,-100,4,1,0,70,0,0
17912,-100,4,1,1,80,0,0
18003,-100,4,1,0,70,0,0
18094,-100,4,1,1,80,0,0
18366,-100,4,1,0,70,0,0
18457,-100,4,1,1,80,0,0
19275,-100,4,1,0,70,0,0
19366,-100,4,1,1,80,0,0
19457,-100,4,1,0,70,0,0
19548,-100,4,1,1,80,0,0
19821,-100,4,1,0,70,0,0
19912,-100,4,1,1,80,0,0
20639,-100,4,1,0,70,0,0
21094,-100,4,1,1,80,0,0
21185,-100,4,1,0,70,0,0
21457,-100,4,1,1,80,0,0
21548,-100,4,1,0,70,0,0
21639,-100,4,1,1,80,0,0
22094,-100,4,1,0,70,0,0
22548,-100,4,1,1,80,0,0
22639,-100,4,1,0,70,0,0
22730,-100,4,2,0,60,0,0
22912,-100,4,2,0,30,0,0
23094,-100,4,2,0,60,0,0
23276,-100,4,2,0,30,0,0
23457,-100,4,3,1,80,0,0
24185,-100,4,3,2,80,0,0
24275,-100,4,3,1,80,0,0
25275,-100,4,3,1,80,0,0
25639,-100,4,3,2,80,0,0
25730,-100,4,3,1,80,0,0
26003,-100,4,3,1,80,0,0
27094,-100,4,3,2,80,0,0
27184,-100,4,3,1,80,0,0
28548,-100,4,3,2,80,0,0
28638,-100,4,3,1,80,0,0
28912,-59.8802395209581,4,3,1,80,0,0
29275,-100,4,3,1,80,0,0
30003,-100,4,3,2,80,0,0
30093,-100,4,3,1,80,0,0
31094,-100,4,3,1,80,0,0
31457,-100,4,3,2,80,0,0
31548,-100,4,3,1,80,0,0
31821,-59.8802395209581,4,3,1,80,0,0
32185,-100,4,3,1,80,0,0
32912,-100,4,3,2,80,0,0
33002,-100,4,3,1,80,0,0
34366,-100,4,3,2,80,0,0
34456,-100,4,3,1,80,0,0
35094,-100,4,3,3,90,0,1
35821,-100,4,1,0,80,0,1
35912,-100,4,3,3,90,0,1
37275,-100,4,1,0,80,0,1
37366,-100,4,3,3,90,0,1
38730,-100,4,1,0,80,0,1
38821,-100,4,3,3,90,0,1
40185,-100,4,1,0,80,0,1
40366,-100,4,3,3,90,0,1
40457,-100,4,1,0,80,0,1
40548,-100,4,3,3,90,0,1
40639,-100,4,1,0,80,0,1
40730,-100,4,3,3,90,0,1
40821,-100,4,1,0,80,0,1
40912,-100,4,3,3,90,0,1
41639,-100,4,1,0,80,0,1
41730,-100,4,3,3,90,0,1
43093,-100,4,1,0,80,0,1
43184,-100,4,3,3,90,0,1
43457,-100,4,3,3,90,0,1
43639,-100,4,3,3,90,0,1
44548,-100,4,1,0,80,0,1
44639,-100,4,3,3,90,0,1
46003,-100,4,1,0,80,0,1
46184,-100,4,3,3,90,0,1
46275,-100,4,1,0,80,0,1
46366,-100,4,3,3,90,0,1
46457,-100,4,1,0,80,0,1
46548,-100,4,3,3,90,0,1
46639,-100,4,1,0,80,0,1
46730,-100,4,1,2,80,0,0
46912,-100,4,2,0,50,0,0
51094,-100,4,2,0,55,0,0
52548,-100,4,2,0,60,0,0
54003,-100,4,2,0,65,0,0
55457,-100,4,2,0,70,0,0
56912,-100,4,2,0,75,0,0
57639,-100,4,2,0,80,0,0
58003,-100,4,2,0,85,0,0
58366,-100,4,1,1,80,0,0
58548,-100,4,2,1,60,0,0
69275,-100,4,2,1,70,0,0
69639,-100,4,2,1,80,0,0
70003,-100,4,1,1,80,0,0
70185,-100,4,2,1,50,0,0
70548,-100,4,3,0,50,0,0
71457,-100,4,2,1,50,0,0
72003,-100,4,3,0,50,0,0
72912,-100,4,2,1,60,0,0
73457,-100,4,3,0,50,0,0
74366,-100,4,2,1,60,0,0
74912,-100,4,3,0,50,0,0
75094,-100,4,2,1,60,0,0
75275,-100,4,3,0,50,0,0
75457,-100,4,2,1,60,0,0
75639,-100,4,3,0,50,0,0
75821,-100,4,2,1,70,0,0
76003,-100,4,3,0,50,0,0
76185,-100,4,2,1,70,0,0
76366,-100,4,3,0,50,0,0
76548,-100,4,2,1,70,0,0
76730,-100,4,3,0,50,0,0
76912,-100,4,2,1,70,0,0
77094,-100,4,3,0,50,0,0
77275,-100,4,2,1,70,0,0
77457,-100,4,3,0,50,0,0
77639,-100,4,2,1,70,0,0
77820,-100,4,3,0,50,0,0
78002,-100,4,2,1,70,0,0
78184,-100,4,3,0,50,0,0
78366,-100,4,2,1,70,0,0
78548,-100,4,3,0,50,0,0
78730,-100,4,2,1,75,0,0
78912,-100,4,3,0,50,0,0
79094,-100,4,2,1,75,0,0
79275,-100,4,3,0,50,0,0
79457,-100,4,2,1,75,0,0
79639,-100,4,3,0,50,0,0
79821,-100,4,2,1,75,0,0
80003,-100,4,3,0,50,0,0
80185,-100,4,2,1,75,0,0
80367,-100,4,3,0,50,0,0
80549,-100,4,2,1,75,0,0
80730,-100,4,3,0,50,0,0
80912,-100,4,2,1,80,0,0
81094,-100,4,3,0,50,0,0
81276,-100,4,2,1,80,0,0
81458,-100,4,3,0,50,0,0
81639,-100,4,1,1,80,0,0
87639,-100,4,1,0,70,0,0
87730,-100,4,1,1,80,0,0
87821,-100,4,1,0,70,0,0
87912,-100,4,1,1,80,0,0
88184,-100,4,1,0,70,0,0
88275,-100,4,1,1,80,0,0
89093,-100,4,1,0,70,0,0
89184,-100,4,1,1,80,0,0
89275,-100,4,1,0,70,0,0
89366,-100,4,1,1,80,0,0
89639,-100,4,1,0,70,0,0
89730,-100,4,1,1,80,0,0
90457,-100,4,1,0,70,0,0
90912,-100,4,1,1,80,0,0
91003,-100,4,1,0,70,0,0
91275,-100,4,1,1,80,0,0
91366,-100,4,1,0,70,0,0
91457,-100,4,1,1,80,0,0
91912,-100,4,1,0,70,0,0
92366,-100,4,1,1,80,0,0
92457,-100,4,1,0,70,0,0
92548,-66.6666666666667,4,2,0,60,0,0
92594,-100,4,2,0,30,0,0
92730,-100,4,2,0,60,0,0
92776,-100,4,2,0,30,0,0
92912,-100,4,2,0,60,0,0
92958,-100,4,2,0,30,0,0
93094,-100,4,2,0,60,0,0
93140,-100,4,2,0,30,0,0
93275,-100,4,3,1,80,0,0
94003,-100,4,3,2,80,0,0
94093,-100,4,3,1,80,0,0
95094,-100,4,3,1,80,0,0
95457,-100,4,3,2,80,0,0
95548,-100,4,3,1,80,0,0
95821,-100,4,3,1,80,0,0
96912,-100,4,3,2,80,0,0
97002,-100,4,3,1,80,0,0
98366,-100,4,3,2,80,0,0
98456,-100,4,3,1,80,0,0
98730,-33.3333333333333,4,3,1,80,0,0
99094,-100,4,3,1,80,0,0
99821,-100,4,3,2,80,0,0
99911,-100,4,3,1,80,0,0
100912,-100,4,3,1,80,0,0
101275,-100,4,3,2,80,0,0
101366,-100,4,3,1,80,0,0
101639,-59.8802395209581,4,3,1,80,0,0
102003,-100,4,3,1,80,0,0
102730,-100,4,3,2,80,0,0
102820,-100,4,3,1,80,0,0
104184,-100,4,3,2,80,0,0
104274,-100,4,3,1,80,0,0
104912,-100,4,3,3,90,0,1
105639,-100,4,1,0,80,0,1
105730,-100,4,3,3,90,0,1
107093,-100,4,1,0,80,0,1
107184,-100,4,3,3,90,0,1
108548,-100,4,1,0,80,0,1
108639,-100,4,3,3,90,0,1
110003,-100,4,1,0,80,0,1
110184,-100,4,3,3,90,0,1
110275,-100,4,1,0,80,0,1
110366,-100,4,3,3,90,0,1
110457,-100,4,1,0,80,0,1
110548,-100,4,3,3,90,0,1
110639,-100,4,1,0,80,0,1
110730,-100,4,3,3,90,0,1
111457,-100,4,1,0,80,0,1
111548,-100,4,3,3,90,0,1
112911,-100,4,1,0,80,0,1
113002,-100,4,3,3,90,0,1
113275,-100,4,3,3,90,0,1
113457,-100,4,3,3,90,0,1
114366,-100,4,1,0,80,0,1
114457,-100,4,3,3,90,0,1
115821,-100,4,1,0,80,0,1
116002,-100,4,3,3,90,0,1
116093,-100,4,1,0,80,0,1
116184,-100,4,3,3,90,0,1
116275,-100,4,1,0,80,0,1
116366,-100,4,3,3,90,0,1
116457,-100,4,1,0,80,0,1
116548,-100,4,1,2,80,0,0
116730,-100,4,2,0,50,0,0
120912,-100,4,2,0,55,0,0
122366,-100,4,2,0,60,0,0
123821,-100,4,2,0,65,0,0
125275,-100,4,2,0,70,0,0
126730,-100,4,2,0,75,0,0
127457,-100,4,2,0,80,0,0
127821,-100,4,2,0,85,0,0
128184,-100,4,1,1,80,0,0
128366,-100,4,2,1,60,0,0
139093,-100,4,2,1,70,0,0
139457,-100,4,2,1,80,0,0
139821,-100,4,1,1,80,0,0
140003,-100,4,2,1,50,0,0
140548,-100,4,2,1,45,0,0
140912,-100,4,2,1,40,0,0
141275,-100,4,2,1,35,0,0
141639,-100,4,2,1,30,0,0
142003,-100,4,2,1,25,0,0
142366,-100,4,2,1,20,0,0
142730,-100,4,2,1,15,0,0
143094,-100,4,2,1,10,0,0
143457,-100,4,2,1,5,0,0

[Colours]
Combo1 : 159,64,255
Combo2 : 243,89,34
Combo3 : 255,96,255
Combo4 : 255,255,0

[HitObjects]
64,192,6003,5,2,0:0:0:0:
256,192,6366,1,0,0:0:0:0:
64,192,6730,1,2,0:0:0:0:
256,192,7094,1,0,0:0:0:0:
448,192,7457,5,2,0:0:0:0:
256,192,7821,1,0,0:0:0:0:
448,192,8185,1,2,0:0:0:0:
256,192,8548,1,0,0:0:0:0:
64,192,8912,6,0,L|48:96,1,95,2|0,0:0|0:0,0:0:0:0:
144,96,9275,1,0,0:0:0:0:
336,192,9639,2,0,L|352:96,1,95,2|0,0:0|0:0,0:0:0:0:
256,96,10003,1,0,0:0:0:0:
448,192,10366,6,0,L|464:288,1,95,2|0,0:0|0:0,0:0:0:0:
368,288,10730,1,2,0:0:0:0:
463,285,10912,1,0,0:0:0:0:
368,192,11094,2,0,L|352:287,1,95,2|0,0:0|0:0,0:0:0:0:
448,287,11457,1,2,0:0:0:0:
288,288,11639,1,2,0:0:0:0:
32,192,11821,5,14,0:0:0:0:
160,192,12003,2,0,L|144:144,1,47.5,0|0,0:0|0:0,0:0:0:0:
80,128,12185,1,0,0:0:0:0:
240,128,12366,2,0,P|288:176|240:272,1,190,2|2,0:0|0:0,0:0:0:0:
176,272,12821,1,0,0:0:0:0:
240,272,12912,1,2,0:0:0:0:
368,272,13094,1,2,0:0:0:0:
112,192,13275,6,0,L|96:144,1,47.5,10|0,0:0|0:0,0:0:0:0:
192,128,13457,1,0,0:0:0:0:
320,128,13639,1,0,0:0:0:0:
384,128,13730,1,0,0:0:0:0:
320,128,13821,2,0,L|304:176,2,47.5,2|0|0,0:0|0:0|0:0,0:0:0:0:
480,128,14185,1,2,0:0:0:0:
352,192,14366,2,0,L|352:240,1,47.5,2|0,0:0|0:0,0:0:0:0:
416,240,14548,1,2,0:0:0:0:
160,192,14730,5,10,0:0:0:0:
288,192,14912,2,0,L|272:144,1,47.5,0|0,0:0|0:0,0:0:0:0:
208,128,15094,1,0,0:0:0:0:
368,128,15275,2,0,P|416:176|368:272,1,190,2|2,0:0|0:0,0:0:0:0:
304,272,15730,1,0,0:0:0:0:
368,272,15821,1,2,0:0:0:0:
496,272,16003,1,2,0:0:0:0:
224,192,16185,6,0,L|208:144,1,47.5,10|0,0:0|0:0,0:0:0:0:
304,128,16366,1,0,0:0:0:0:
432,128,16548,1,0,0:0:0:0:
496,128,16639,1,0,0:0:0:0:
432,128,16730,2,0,L|416:176,1,47.5,2|0,0:0|0:0,0:0:0:0:
432,128,16912,2,0,L|480:128,1,47.5,0|0,0:0|0:0,0:0:0:0:
432,128,17094,2,0,L|384:128,1,47.5,2|0,0:0|0:0,0:0:0:0:
432,64,17275,1,2,0:0:0:0:
496,64,17366,1,0,0:0:0:0:
432,0,17457,1,2,0:0:0:0:
368,0,17548,1,0,0:0:0:0:
208,0,17639,5,10,0:0:0:0:
80,48,17821,2,0,L|96:96,1,47.5,0|0,0:0|0:0,0:0:0:0:
160,112,18003,1,0,0:0:0:0:
320,192,18185,2,0,B|225:192|225:192|320:192,1,190,2|2,0:0|0:0,0:0:0:0:
384,192,18639,1,0,0:0:0:0:
320,192,18730,1,2,0:0:0:0:
192,192,18912,1,2,0:0:0:0:
448,192,19094,6,0,L|464:144,1,47.5,10|0,0:0|0:0,0:0:0:0:
368,128,19275,1,0,0:0:0:0:
240,128,19457,1,0,0:0:0:0:
176,128,19548,1,0,0:0:0:0:
240,128,19639,2,0,L|256:176,2,47.5,2|0|0,0:0|0:0|0:0,0:0:0:0:
80,128,20003,1,2,0:0:0:0:
208,192,20185,2,0,L|208:240,1,47.5,2|0,0:0|0:0,0:0:0:0:
144,240,20366,1,2,0:0:0:0:
400,64,20548,6,0,L|416:112,1,47.5,10|0,0:0|0:0,0:0:0:0:
352,64,20730,1,0,0:0:0:0:
288,64,20821,1,0,0:0:0:0:
352,64,20912,1,0,0:0:0:0:
192,192,21094,2,0,B|97:192|97:192|192:192,1,190,2|2,0:0|0:0,0:0:0:0:
256,192,21548,1,0,0:0:0:0:
192,192,21639,1,2,0:0:0:0:
64,192,21821,1,2,0:0:0:0:
320,192,22003,6,0,L|336:144,1,47.5,10|0,0:0|0:0,0:0:0:0:
240,192,22185,2,0,L|224:144,1,47.5,0|0,0:0|0:0,0:0:0:0:
288,112,22366,1,0,0:0:0:0:
352,112,22457,1,0,0:0:0:0:
288,112,22548,1,2,0:0:0:0:
224,112,22639,1,0,0:0:0:0:
288,112,22730,6,0,L|304:16,3,95,2|2|2|2,0:0|0:0|0:0|0:0,0:0:0:0:
48,16,23457,5,12,0:0:0:0:
176,16,23639,2,0,L|192:64,1,47.5,2|0,0:0|0:0,0:0:0:0:
128,96,23821,1,2,0:0:0:0:
288,96,24003,1,8,0:0:0:0:
32,192,24185,2,0,L|16:96,1,95,10|2,0:0|0:0,0:0:0:0:
48,64,24457,1,0,0:0:0:0:
112,64,24548,1,0,0:0:0:0:
240,64,24730,1,2,0:0:0:0:
496,64,24912,6,0,L|496:112,1,47.5,8|0,0:0|0:0,0:0:0:0:
464,160,25094,1,2,0:0:0:0:
400,160,25185,1,0,0:0:0:0:
464,160,25275,1,2,0:0:0:0:
336,160,25457,1,8,0:0:0:0:
80,192,25639,2,0,L|176:192,1,95,8|2,0:0|2:0,0:0:0:0:
48,128,26003,2,0,L|32:32,1,95,2|2,0:0|2:0,0:0:0:0:
288,32,26366,5,8,0:0:0:0:
352,32,26457,1,0,0:0:0:0:
288,32,26548,2,0,L|240:80,2,47.5,2|0|2,0:0|0:0|0:0,0:0:0:0:
448,32,26912,1,8,0:0:0:0:
192,192,27094,2,0,L|96:192,1,95,10|2,0:0|0:0,0:0:0:0:
224,192,27457,1,0,0:0:0:0:
288,192,27548,1,0,0:0:0:0:
288,128,27639,1,2,0:0:0:0:
224,128,27730,1,0,0:0:0:0:
64,128,27821,6,0,L|48:32,1,95,8|2,0:0|0:0,0:0:0:0:
176,32,28185,2,0,L|192:80,1,47.5,2|0,0:0|0:0,0:0:0:0:
128,32,28366,2,0,L|112:80,1,47.5,8|0,0:0|0:0,0:0:0:0:
272,32,28548,2,0,L|368:32,1,95,10|10,0:0|0:0,0:0:0:0:
240,96,28912,2,0,L|400:96,1,158.649995037346,8|10,0:0|0:0,0:0:0:0:
144,192,29275,5,12,0:0:0:0:
272,192,29457,2,0,L|288:144,1,47.5,2|0,0:0|0:0,0:0:0:0:
224,144,29639,2,0,L|176:144,2,47.5,2|0|8,0:0|0:0|0:0,0:0:0:0:
480,192,30003,1,10,0:0:0:0:
352,192,30185,1,2,0:0:0:0:
288,192,30275,2,0,L|288:144,1,47.5,0|0,0:0|0:0,0:0:0:0:
416,144,30548,1,2,0:0:0:0:
160,64,30730,6,0,L|160:112,1,47.5,8|0,0:0|0:0,0:0:0:0:
192,160,30912,1,2,0:0:0:0:
256,160,31003,1,0,0:0:0:0:
192,160,31094,1,2,0:0:0:0:
320,160,31275,1,8,0:0:0:0:
64,192,31457,2,0,L|160:192,1,95,8|2,0:0|2:0,0:0:0:0:
317,192,31821,2,0,L|159:192,1,158.649995037346,2|2,0:0|2:0,0:0:0:0:
416,32,32185,5,8,0:0:0:0:
480,32,32275,1,0,0:0:0:0:
504,96,32366,1,2,0:0:0:0:
480,160,32457,1,0,0:0:0:0:
416,160,32548,1,2,0:0:0:0:
288,160,32730,1,8,0:0:0:0:
32,192,32912,2,0,L|128:192,1,95,10|2,0:0|0:0,0:0:0:0:
256,192,33275,2,0,L|256:144,1,47.5,0|0,0:0|0:0,0:0:0:0:
192,192,33457,2,0,L|192:144,1,47.5,2|0,0:0|0:0,0:0:0:0:
352,192,33639,6,0,L|368:96,1,95,8|2,0:0|0:0,0:0:0:0:
240,96,34003,2,0,L|224:144,1,47.5,2|0,0:0|0:0,0:0:0:0:
288,96,34185,2,0,L|304:144,1,47.5,8|0,0:0|0:0,0:0:0:0:
144,96,34366,2,0,L|64:96,2,71.25,10|2|2,0:0|2:0|2:0,0:0:0:0:
224,192,34730,2,0,L|304:192,2,71.25,10|2|2,0:0|2:0|2:0,0:0:0:0:
32,192,35094,6,0,L|16:144,1,47.5,12|0,0:0|0:0,0:0:0:0:
80,128,35275,1,2,0:0:0:0:
240,128,35457,2,0,L|144:128,1,95,8|0,0:0|0:0,0:0:0:0:
416,192,35821,1,8,0:0:0:0:
256,192,36003,1,2,0:0:0:0:
320,192,36094,1,2,0:0:0:0:
496,192,36185,2,0,L|512:96,1,95,8|2,0:0|0:0,0:0:0:0:
240,96,36548,5,8,0:0:0:0:
176,96,36639,1,0,0:0:0:0:
240,96,36730,1,2,0:0:0:0:
400,96,36912,2,0,L|448:96,2,47.5,8|0|2,0:0|0:0|0:0,0:0:0:0:
144,192,37275,1,8,0:0:0:0:
304,192,37457,2,0,L|288:144,1,47.5,2|2,0:0|0:0,0:0:0:0:
112,80,37639,2,0,L|16:80,1,95,8|2,0:0|0:0,0:0:0:0:
17,80,37912,1,0,0:0:0:0:
192,80,38003,5,8,0:0:0:0:
320,80,38185,2,0,L|368:80,2,47.5,2|0|8,0:0|0:0|0:0,0:0:0:0:
192,80,38548,1,0,0:0:0:0:
464,192,38730,2,0,L|448:144,1,47.5,8|0,0:0|0:0,0:0:0:0:
384,128,38912,1,2,0:0:0:0:
112,128,39094,2,0,L|208:128,1,95,8|2,0:0|0:0,0:0:0:0:
480,192,39457,6,0,L|480:144,1,47.5,8|0,0:0|0:0,0:0:0:0:
416,112,39639,1,2,0:0:0:0:
256,112,39821,1,8,0:0:0:0:
192,112,39912,1,0,0:0:0:0:
192,176,40003,1,2,0:0:0:0:
256,176,40094,1,0,0:0:0:0:
432,176,40185,1,8,0:0:0:0:
456,224,40275,1,0,0:0:0:0:
432,272,40366,1,2,0:0:0:0:
368,272,40457,1,0,0:0:0:0:
192,272,40548,1,8,0:0:0:0:
176,224,40639,1,0,0:0:0:0:
352,272,40730,1,2,0:0:0:0:
416,272,40821,1,0,0:0:0:0:
240,192,40912,6,0,L|192:192,2,47.5,12|0|2,0:0|0:0|0:0,0:0:0:0:
400,128,41275,2,0,L|304:128,1,95,8|0,0:0|0:0,0:0:0:0:
32,192,41639,1,8,0:0:0:0:
192,192,41821,1,2,0:0:0:0:
256,192,41912,1,2,0:0:0:0:
80,192,42003,2,0,L|64:96,1,95,8|2,0:0|0:0,0:0:0:0:
336,96,42366,6,0,L|336:144,1,47.5,8|0,0:0|0:0,0:0:0:0:
272,160,42548,1,2,0:0:0:0:
192,160,42639,1,0,0:0:0:0:
112,96,42730,2,0,L|112:144,1,47.5,8|0,0:0|0:0,0:0:0:0:
176,160,42912,1,2,0:0:0:0:
448,192,43094,1,8,0:0:0:0:
288,192,43275,2,0,L|240:192,1,47.5,2|2,0:0|0:0,0:0:0:0:
400,80,43457,2,0,L|496:80,1,95,8|2,0:0|0:0,0:0:0:0:
495,80,43730,1,0,0:0:0:0:
320,192,43821,6,0,L|304:96,1,95,8|2,0:0|0:0,0:0:0:0:
464,96,44185,2,0,L|368:96,1,95,8|2,0:0|0:0,0:0:0:0:
96,192,44548,1,8,0:0:0:0:
224,192,44730,2,0,L|272:192,2,47.5,2|0|8,0:0|0:0|0:0,0:0:0:0:
96,192,45094,1,2,0:0:0:0:
368,96,45275,5,8,0:0:0:0:
432,96,45366,1,0,0:0:0:0:
368,96,45457,1,2,0:0:0:0:
208,96,45639,1,8,0:0:0:0:
144,96,45730,1,0,0:0:0:0:
120,128,45821,1,2,0:0:0:0:
144,160,45912,1,0,0:0:0:0:
320,192,46003,1,8,0:0:0:0:
384,192,46094,1,0,0:0:0:0:
384,256,46185,1,2,0:0:0:0:
320,256,46275,1,0,0:0:0:0:
144,192,46366,1,8,0:0:0:0:
208,192,46457,1,0,0:0:0:0:
384,128,46548,1,2,0:0:0:0:
320,128,46639,1,0,0:0:0:0:
144,128,46730,5,12,0:0:0:0:
256,192,46912,12,0,49275,0:0:0:0:
144,192,49639,6,0,L|128:96,1,95,2|0,0:0|0:0,0:0:0:0:
256,192,50003,2,0,L|240:96,1,95,2|0,0:0|0:0,0:0:0:0:
240,96,50548,1,2,0:0:0:0:
368,192,50730,2,0,L|352:96,1,95,2|0,0:0|0:0,0:0:0:0:
224,192,51094,6,0,L|240:96,1,95,2|0,0:0|0:0,0:0:0:0:
368,192,51457,2,0,L|384:96,1,95,2|0,0:0|0:0,0:0:0:0:
256,192,51821,1,2,0:0:0:0:
480,192,52185,1,10,0:0:0:0:
32,192,52548,6,0,L|128:192,1,95,2|0,0:0|0:0,0:0:0:0:
32,112,52912,2,0,L|128:112,1,95,2|0,0:0|0:0,0:0:0:0:
128,192,53457,1,2,0:0:0:0:
224,192,53639,2,0,L|224:96,1,95,2|0,0:0|0:0,0:0:0:0:
384,192,54003,6,0,L|288:192,1,95,2|0,0:0|0:0,0:0:0:0:
384,112,54366,2,0,L|288:112,1,95,2|0,0:0|0:0,0:0:0:0:
384,192,54730,2,0,L|400:96,1,95,2|0,0:0|0:0,0:0:0:0:
304,192,55094,2,0,L|320:96,1,95,2|0,0:0|0:0,0:0:0:0:
480,192,55457,6,0,L|384:192,1,95,2|0,0:0|0:0,0:0:0:0:
480,112,55821,2,0,L|384:112,1,95,2|0,0:0|0:0,0:0:0:0:
384,192,56366,1,2,0:0:0:0:
288,192,56548,2,0,L|288:96,1,95,2|0,0:0|0:0,0:0:0:0:
128,192,56912,6,0,L|224:192,1,95,2|0,0:0|0:0,0:0:0:0:
128,112,57275,2,0,L|224:112,1,95,2|0,0:0|0:0,0:0:0:0:
320,112,57639,2,0,L|224:112,1,95,2|2,0:0|0:0,0:0:0:0:
352,192,58003,1,2,0:0:0:0:
192,192,58185,1,2,0:0:0:0:
448,192,58366,6,0,L|464:96,1,95,12|2,0:0|0:0,0:0:0:0:
400,80,58639,1,0,0:0:0:0:
368,32,58730,1,8,0:0:0:0:
496,32,58912,1,2,0:0:0:0:
368,32,59094,2,0,L|352:80,1,47.5,2|0,3:0|0:0,0:0:0:0:
416,32,59275,2,0,L|432:80,1,47.5,2|0,0:0|0:0,0:0:0:0:
368,32,59457,1,8,0:0:0:0:
240,32,59639,1,2,0:0:0:0:
112,32,59821,6,0,L|112:80,1,47.5,2|0,3:0|0:0,0:0:0:0:
176,96,60003,1,2,0:0:0:0:
304,96,60185,1,8,0:0:0:0:
368,96,60275,1,0,0:0:0:0:
304,96,60366,1,2,0:0:0:0:
176,96,60548,2,0,L|176:144,1,47.5,2|0,3:0|0:0,0:0:0:0:
240,160,60730,1,2,0:0:0:0:
368,192,60912,1,10,0:0:0:0:
240,224,61094,1,10,0:0:0:0:
368,256,61275,6,0,L|384:160,1,95,2|2,3:0|0:0,0:0:0:0:
352,96,61548,1,0,0:0:0:0:
288,96,61639,1,8,0:0:0:0:
416,96,61821,1,2,0:0:0:0:
288,96,62003,1,2,3:0:0:0:
224,96,62094,1,0,0:0:0:0:
192,144,62185,1,2,0:0:0:0:
192,192,62275,1,0,0:0:0:0:
224,240,62366,1,8,0:0:0:0:
352,240,62548,1,2,0:0:0:0:
224,240,62730,5,2,3:0:0:0:
96,240,62912,1,2,0:0:0:0:
224,240,63094,2,0,L|224:192,1,47.5,8|0,0:0|0:0,0:0:0:0:
160,160,63275,1,2,0:0:0:0:
32,160,63457,1,2,3:0:0:0:
160,160,63639,1,2,0:0:0:0:
288,160,63821,1,10,0:0:0:0:
160,160,64003,1,10,0:0:0:0:
288,160,64185,6,0,L|304:256,1,95,2|2,3:0|0:0,0:0:0:0:
240,272,64457,1,0,0:0:0:0:
208,320,64548,1,8,0:0:0:0:
336,320,64730,2,0,L|352:224,1,95,2|2,0:0|3:0,0:0:0:0:
224,192,65094,2,0,L|224:144,1,47.5,2|0,0:0|0:0,0:0:0:0:
288,112,65275,1,8,0:0:0:0:
416,112,65457,1,2,0:0:0:0:
288,112,65639,6,0,L|240:112,2,47.5,2|0|2,3:0|0:0|0:0,0:0:0:0:
416,112,66003,1,8,0:0:0:0:
352,112,66094,1,0,0:0:0:0:
288,112,66185,1,2,0:0:0:0:
416,112,66366,1,2,3:0:0:0:
480,112,66457,1,0,0:0:0:0:
416,112,66548,1,2,0:0:0:0:
256,112,66730,1,10,0:0:0:0:
416,112,66912,1,10,0:0:0:0:
288,256,67094,6,0,L|272:160,1,95,2|2,3:0|0:0,0:0:0:0:
304,96,67366,1,0,0:0:0:0:
368,96,67457,1,8,0:0:0:0:
240,96,67639,1,2,0:0:0:0:
368,96,67821,1,2,3:0:0:0:
432,96,67912,1,0,0:0:0:0:
464,144,68003,1,2,0:0:0:0:
464,192,68094,1,0,0:0:0:0:
432,240,68185,1,8,0:0:0:0:
304,240,68366,1,2,0:0:0:0:
432,240,68548,5,2,3:0:0:0:
304,192,68730,2,0,L|256:192,1,47.5,8|2,0:0|0:0,0:0:0:0:
384,112,69003,1,2,0:0:0:0:
304,112,69094,1,10,0:0:0:0:
176,112,69275,1,2,3:0:0:0:
48,112,69457,1,10,0:0:0:0:
176,112,69639,1,10,0:0:0:0:
336,112,69821,1,10,0:0:0:0:
80,192,70003,5,12,0:0:0:0:
272,192,70366,2,0,L|240:96,1,95,8|8,0:0|3:0,0:0:0:0:
336,192,70912,1,0,3:0:0:0:
384,144,71094,1,0,3:0:0:0:
336,96,71275,1,0,3:0:0:0:
80,192,71457,5,8,0:0:0:0:
288,192,71821,2,0,L|224:120,1,95,8|8,0:0|0:0,0:0:0:0:
352,192,72366,1,0,0:0:0:0:
416,144,72548,1,0,0:0:0:0:
352,96,72730,1,0,0:0:0:0:
80,192,72912,5,8,0:0:0:0:
304,192,73275,2,0,L|208:192,1,95,8|8,0:0|0:0,0:0:0:0:
368,192,73821,1,0,0:0:0:0:
448,144,74003,1,0,0:0:0:0:
368,96,74185,1,0,0:0:0:0:
80,192,74366,5,8,0:0:0:0:
320,192,74730,1,8,0:0:0:0:
192,192,74912,1,8,0:0:0:0:
352,192,75094,2,0,L|336:96,1,95,8|8,0:0|0:0,0:0:0:0:
207,98,75457,2,0,L|192:192,1,95,8|8,0:0|0:0,0:0:0:0:
448,96,75821,6,0,L|352:96,1,95,10|0,0:0|0:0,0:0:0:0:
448,192,76185,2,0,L|352:192,1,95,10|0,0:0|0:0,0:0:0:0:
256,192,76548,2,0,L|256:96,1,95,2|0,0:0|0:0,0:0:0:0:
352,192,76912,2,0,L|352:96,1,95,2|0,0:0|0:0,0:0:0:0:
192,96,77275,6,0,L|288:96,1,95,10|0,0:0|0:0,0:0:0:0:
192,192,77639,2,0,L|288:192,1,95,10|0,0:0|0:0,0:0:0:0:
384,192,78003,1,2,0:0:0:0:
288,192,78185,1,0,0:0:0:0:
192,192,78366,1,2,0:0:0:0:
288,192,78548,1,0,0:0:0:0:
128,96,78730,6,0,L|224:96,1,95,10|0,0:0|0:0,0:0:0:0:
128,192,79094,2,0,L|224:192,1,95,10|0,0:0|0:0,0:0:0:0:
320,192,79457,1,2,0:0:0:0:
224,192,79639,1,0,0:0:0:0:
320,192,79821,1,2,0:0:0:0:
224,192,80003,1,0,0:0:0:0:
64,96,80185,6,0,L|160:96,1,95,10|0,0:0|0:0,0:0:0:0:
64,192,80548,2,0,L|160:192,1,95,10|0,0:0|0:0,0:0:0:0:
320,192,80912,2,0,L|224:192,1,95,10|0,0:0|0:0,0:0:0:0:
384,192,81275,1,10,0:0:0:0:
225,192,81457,1,0,0:0:0:0:
480,192,81639,5,14,0:0:0:0:
352,192,81821,2,0,L|368:144,1,47.5,0|0,0:0|0:0,0:0:0:0:
432,128,82003,1,0,0:0:0:0:
272,128,82185,2,0,P|224:176|272:272,1,190,2|2,0:0|0:0,0:0:0:0:
336,272,82639,1,0,0:0:0:0:
272,272,82730,1,2,0:0:0:0:
144,272,82912,1,2,0:0:0:0:
400,192,83094,6,0,L|416:144,1,47.5,10|0,0:0|0:0,0:0:0:0:
320,128,83275,1,0,0:0:0:0:
192,128,83457,1,0,0:0:0:0:
128,128,83548,1,0,0:0:0:0:
192,128,83639,2,0,L|208:176,2,47.5,2|0|0,0:0|0:0|0:0,0:0:0:0:
32,128,84003,1,2,0:0:0:0:
160,192,84185,2,0,L|160:240,1,47.5,2|0,0:0|0:0,0:0:0:0:
96,240,84366,1,2,0:0:0:0:
352,192,84548,5,10,0:0:0:0:
224,192,84730,2,0,L|240:144,1,47.5,0|0,0:0|0:0,0:0:0:0:
304,128,84912,1,0,0:0:0:0:
144,128,85094,2,0,P|96:176|144:272,1,190,2|2,0:0|0:0,0:0:0:0:
208,272,85548,1,0,0:0:0:0:
144,272,85639,1,2,0:0:0:0:
16,272,85821,1,2,0:0:0:0:
288,192,86003,6,0,L|304:144,1,47.5,10|0,0:0|0:0,0:0:0:0:
208,128,86185,1,0,0:0:0:0:
80,128,86366,1,0,0:0:0:0:
16,128,86457,1,0,0:0:0:0:
80,128,86548,2,0,L|96:176,1,47.5,2|0,0:0|0:0,0:0:0:0:
80,128,86730,2,0,L|32:128,1,47.5,0|0,0:0|0:0,0:0:0:0:
80,128,86912,2,0,L|128:128,1,47.5,2|0,0:0|0:0,0:0:0:0:
80,64,87094,1,2,0:0:0:0:
16,64,87185,1,0,0:0:0:0:
80,0,87275,1,2,0:0:0:0:
144,0,87366,1,0,0:0:0:0:
304,0,87457,5,10,0:0:0:0:
432,48,87639,2,0,L|416:96,1,47.5,0|0,0:0|0:0,0:0:0:0:
352,112,87821,1,0,0:0:0:0:
192,192,88003,2,0,B|287:192|287:192|192:192,1,190,2|2,0:0|0:0,0:0:0:0:
128,192,88457,1,0,0:0:0:0:
192,192,88548,1,2,0:0:0:0:
320,192,88730,1,2,0:0:0:0:
64,192,88912,6,0,L|48:144,1,47.5,10|0,0:0|0:0,0:0:0:0:
144,128,89094,1,0,0:0:0:0:
272,128,89275,1,0,0:0:0:0:
336,128,89366,1,0,0:0:0:0:
272,128,89457,2,0,L|256:176,2,47.5,2|0|0,0:0|0:0|0:0,0:0:0:0:
432,128,89821,1,2,0:0:0:0:
304,192,90003,2,0,L|304:240,1,47.5,2|0,0:0|0:0,0:0:0:0:
368,240,90185,1,2,0:0:0:0:
112,64,90366,6,0,L|96:112,1,47.5,10|0,0:0|0:0,0:0:0:0:
160,64,90548,1,0,0:0:0:0:
224,64,90639,1,0,0:0:0:0:
160,64,90730,1,0,0:0:0:0:
320,192,90912,2,0,B|415:192|415:192|320:192,1,190,2|2,0:0|0:0,0:0:0:0:
256,192,91366,1,0,0:0:0:0:
320,192,91457,1,2,0:0:0:0:
448,192,91639,1,2,0:0:0:0:
192,192,91821,6,0,L|176:144,1,47.5,10|0,0:0|0:0,0:0:0:0:
272,192,92003,2,0,L|288:144,1,47.5,0|0,0:0|0:0,0:0:0:0:
224,112,92185,1,0,0:0:0:0:
160,112,92275,1,0,0:0:0:0:
224,112,92366,1,2,0:0:0:0:
288,112,92457,1,0,0:0:0:0:
352,16,92548,6,0,L|208:16,3,142.500005435944,2|2|2|2,0:0|0:0|0:0|0:0,0:0:0:0:
464,16,93275,5,12,0:0:0:0:
336,16,93457,2,0,L|320:64,1,47.5,2|0,0:0|0:0,0:0:0:0:
384,96,93639,1,2,0:0:0:0:
224,96,93821,1,8,0:0:0:0:
480,192,94003,2,0,L|496:96,1,95,10|2,0:0|0:0,0:0:0:0:
464,64,94275,1,0,0:0:0:0:
400,64,94366,1,0,0:0:0:0:
272,64,94548,1,2,0:0:0:0:
16,64,94730,6,0,L|16:112,1,47.5,8|0,0:0|0:0,0:0:0:0:
48,160,94912,1,2,0:0:0:0:
112,160,95003,1,0,0:0:0:0:
48,160,95094,1,2,0:0:0:0:
176,160,95275,1,8,0:0:0:0:
432,192,95457,2,0,L|336:192,1,95,8|2,0:0|2:0,0:0:0:0:
464,128,95821,2,0,L|480:32,1,95,2|2,0:0|2:0,0:0:0:0:
224,32,96185,5,8,0:0:0:0:
160,32,96275,1,0,0:0:0:0:
224,32,96366,2,0,L|272:80,2,47.5,2|0|2,0:0|0:0|0:0,0:0:0:0:
64,32,96730,1,8,0:0:0:0:
320,192,96912,2,0,L|416:192,1,95,10|2,0:0|0:0,0:0:0:0:
288,192,97275,1,0,0:0:0:0:
224,192,97366,1,0,0:0:0:0:
224,128,97457,1,2,0:0:0:0:
288,128,97548,1,0,0:0:0:0:
448,128,97639,6,0,L|464:32,1,95,8|2,0:0|0:0,0:0:0:0:
336,32,98003,2,0,L|320:80,1,47.5,2|0,0:0|0:0,0:0:0:0:
384,32,98185,2,0,L|400:80,1,47.5,8|0,0:0|0:0,0:0:0:0:
240,32,98366,2,0,L|144:32,1,95,10|10,0:0|0:0,0:0:0:0:
398,96,98730,2,0,L|113:96,1,285.000010871888,8|10,0:0|0:0,0:0:0:0:
368,192,99094,5,12,0:0:0:0:
240,192,99275,2,0,L|224:144,1,47.5,2|0,0:0|0:0,0:0:0:0:
288,144,99457,2,0,L|336:144,2,47.5,2|0|8,0:0|0:0|0:0,0:0:0:0:
32,192,99821,1,10,0:0:0:0:
160,192,100003,1,2,0:0:0:0:
224,192,100094,2,0,L|224:144,1,47.5,0|0,0:0|0:0,0:0:0:0:
96,144,100366,1,2,0:0:0:0:
352,64,100548,6,0,L|352:112,1,47.5,8|0,0:0|0:0,0:0:0:0:
320,160,100730,1,2,0:0:0:0:
256,160,100821,1,0,0:0:0:0:
320,160,100912,1,2,0:0:0:0:
192,160,101094,1,8,0:0:0:0:
448,192,101275,1,8,0:0:0:0:
352,192,101412,1,0,0:0:0:0:
256,192,101548,1,0,0:0:0:0:
195,192,101639,2,0,L|353:192,1,158.649995037346,2|2,0:0|2:0,0:0:0:0:
96,32,102003,5,8,0:0:0:0:
32,32,102094,1,0,0:0:0:0:
8,96,102185,1,2,0:0:0:0:
32,160,102275,1,0,0:0:0:0:
96,160,102366,1,2,0:0:0:0:
224,160,102548,1,8,0:0:0:0:
480,192,102730,2,0,L|384:192,1,95,10|2,0:0|0:0,0:0:0:0:
256,192,103094,2,0,L|256:144,1,47.5,0|0,0:0|0:0,0:0:0:0:
320,192,103275,2,0,L|320:144,1,47.5,2|0,0:0|0:0,0:0:0:0:
160,192,103457,6,0,L|144:96,1,95,8|2,0:0|0:0,0:0:0:0:
272,96,103821,2,0,L|288:144,1,47.5,2|0,0:0|0:0,0:0:0:0:
224,96,104003,2,0,L|208:144,1,47.5,8|0,0:0|0:0,0:0:0:0:
368,96,104185,2,0,L|448:96,2,71.25,10|2|2,0:0|2:0|2:0,0:0:0:0:
288,192,104548,2,0,L|368:192,2,71.25,10|2|2,0:0|2:0|2:0,0:0:0:0:
480,192,104912,6,0,L|496:144,1,47.5,12|0,0:0|0:0,0:0:0:0:
432,128,105094,1,2,0:0:0:0:
272,128,105275,2,0,L|368:128,1,95,8|0,0:0|0:0,0:0:0:0:
96,192,105639,1,8,0:0:0:0:
256,192,105821,1,2,0:0:0:0:
192,192,105912,1,2,0:0:0:0:
16,192,106003,2,0,L|0:96,1,95,8|2,0:0|0:0,0:0:0:0:
272,96,106366,5,8,0:0:0:0:
336,96,106457,1,0,0:0:0:0:
272,96,106548,1,2,0:0:0:0:
112,96,106730,2,0,L|64:96,2,47.5,8|0|2,0:0|0:0|0:0,0:0:0:0:
368,192,107094,1,8,0:0:0:0:
208,192,107275,2,0,L|224:144,1,47.5,2|2,0:0|0:0,0:0:0:0:
400,80,107457,2,0,L|496:80,1,95,8|2,0:0|0:0,0:0:0:0:
495,80,107730,1,0,0:0:0:0:
320,80,107821,5,8,0:0:0:0:
192,80,108003,2,0,L|144:80,2,47.5,2|0|8,0:0|0:0|0:0,0:0:0:0:
320,80,108366,1,0,0:0:0:0:
48,192,108548,2,0,L|64:144,1,47.5,8|0,0:0|0:0,0:0:0:0:
128,128,108730,1,2,0:0:0:0:
400,128,108912,2,0,L|304:128,1,95,8|2,0:0|0:0,0:0:0:0:
32,192,109275,6,0,L|32:144,1,47.5,8|0,0:0|0:0,0:0:0:0:
96,112,109457,1,2,0:0:0:0:
256,112,109639,1,8,0:0:0:0:
320,112,109730,1,0,0:0:0:0:
320,176,109821,1,2,0:0:0:0:
256,176,109912,1,0,0:0:0:0:
80,176,110003,1,8,0:0:0:0:
56,224,110094,1,0,0:0:0:0:
80,272,110185,1,2,0:0:0:0:
144,272,110275,1,0,0:0:0:0:
320,272,110366,1,8,0:0:0:0:
336,224,110457,1,0,0:0:0:0:
160,272,110548,1,2,0:0:0:0:
96,272,110639,1,0,0:0:0:0:
272,192,110730,5,12,0:0:0:0:
336,192,110821,1,0,0:0:0:0:
272,192,110912,1,2,0:0:0:0:
112,128,111094,2,0,L|208:128,1,95,8|0,0:0|0:0,0:0:0:0:
480,192,111457,1,8,0:0:0:0:
320,192,111639,1,2,0:0:0:0:
256,192,111730,1,2,0:0:0:0:
432,192,111821,2,0,L|448:96,1,95,8|2,0:0|0:0,0:0:0:0:
176,96,112185,6,0,L|176:144,1,47.5,8|0,0:0|0:0,0:0:0:0:
240,160,112366,1,2,0:0:0:0:
320,160,112457,1,0,0:0:0:0:
400,96,112548,2,0,L|400:144,1,47.5,8|0,0:0|0:0,0:0:0:0:
336,160,112730,1,2,0:0:0:0:
64,192,112912,1,8,0:0:0:0:
224,192,113094,2,0,L|272:192,1,47.5,2|2,0:0|0:0,0:0:0:0:
112,80,113275,2,0,L|16:80,1,95,8|2,0:0|0:0,0:0:0:0:
17,80,113548,1,0,0:0:0:0:
192,192,113639,6,0,L|208:96,1,95,8|2,0:0|0:0,0:0:0:0:
48,96,114003,2,0,L|144:96,1,95,8|2,0:0|0:0,0:0:0:0:
416,192,114366,1,8,0:0:0:0:
288,192,114548,2,0,L|240:192,2,47.5,2|0|8,0:0|0:0|0:0,0:0:0:0:
416,192,114912,1,2,0:0:0:0:
144,96,115094,5,8,0:0:0:0:
80,96,115185,1,0,0:0:0:0:
144,96,115275,1,2,0:0:0:0:
304,96,115457,1,8,0:0:0:0:
368,96,115548,1,0,0:0:0:0:
392,128,115639,1,2,0:0:0:0:
368,160,115730,1,0,0:0:0:0:
192,192,115821,1,8,0:0:0:0:
128,192,115912,1,0,0:0:0:0:
128,256,116003,1,2,0:0:0:0:
192,256,116094,1,0,0:0:0:0:
368,192,116185,1,8,0:0:0:0:
304,192,116275,1,0,0:0:0:0:
128,128,116366,1,2,0:0:0:0:
192,128,116457,1,0,0:0:0:0:
368,128,116548,5,12,0:0:0:0:
256,192,116730,12,0,119094,0:0:0:0:
368,192,119457,6,0,L|384:96,1,95,2|0,0:0|0:0,0:0:0:0:
256,192,119821,2,0,L|272:96,1,95,2|0,0:0|0:0,0:0:0:0:
272,96,120366,1,2,0:0:0:0:
144,192,120548,2,0,L|160:96,1,95,2|0,0:0|0:0,0:0:0:0:
288,192,120912,6,0,L|272:96,1,95,2|0,0:0|0:0,0:0:0:0:
144,192,121275,2,0,L|128:96,1,95,2|0,0:0|0:0,0:0:0:0:
256,192,121639,1,2,0:0:0:0:
32,192,122003,1,10,0:0:0:0:
480,192,122366,6,0,L|384:192,1,95,2|0,0:0|0:0,0:0:0:0:
480,112,122730,2,0,L|384:112,1,95,2|0,0:0|0:0,0:0:0:0:
384,192,123275,1,2,0:0:0:0:
288,192,123457,2,0,L|288:96,1,95,2|0,0:0|0:0,0:0:0:0:
128,192,123821,6,0,L|224:192,1,95,2|0,0:0|0:0,0:0:0:0:
128,112,124185,2,0,L|224:112,1,95,2|0,0:0|0:0,0:0:0:0:
128,192,124548,2,0,L|112:96,1,95,2|0,0:0|0:0,0:0:0:0:
208,192,124912,2,0,L|192:96,1,95,2|0,0:0|0:0,0:0:0:0:
32,192,125275,6,0,L|128:192,1,95,2|0,0:0|0:0,0:0:0:0:
32,112,125639,2,0,L|128:112,1,95,2|0,0:0|0:0,0:0:0:0:
128,192,126185,1,2,0:0:0:0:
224,192,126366,2,0,L|224:96,1,95,2|0,0:0|0:0,0:0:0:0:
384,192,126730,6,0,L|288:192,1,95,2|0,0:0|0:0,0:0:0:0:
384,112,127094,2,0,L|288:112,1,95,2|0,0:0|0:0,0:0:0:0:
192,112,127457,2,0,L|288:112,1,95,2|2,0:0|0:0,0:0:0:0:
160,192,127821,1,2,0:0:0:0:
320,192,128003,1,2,0:0:0:0:
64,192,128185,6,0,L|48:96,1,95,12|2,0:0|0:0,0:0:0:0:
112,80,128457,1,0,0:0:0:0:
144,32,128548,1,8,0:0:0:0:
16,32,128730,1,2,0:0:0:0:
144,32,128912,2,0,L|160:80,1,47.5,2|0,3:0|0:0,0:0:0:0:
96,32,129094,2,0,L|80:80,1,47.5,2|0,0:0|0:0,0:0:0:0:
144,32,129275,1,8,0:0:0:0:
272,32,129457,1,2,0:0:0:0:
400,32,129639,6,0,L|400:80,1,47.5,2|0,3:0|0:0,0:0:0:0:
336,96,129821,1,2,0:0:0:0:
208,96,130003,1,8,0:0:0:0:
144,96,130094,1,0,0:0:0:0:
208,96,130185,1,2,0:0:0:0:
336,96,130366,2,0,L|336:144,1,47.5,2|0,3:0|0:0,0:0:0:0:
272,160,130548,1,2,0:0:0:0:
144,192,130730,1,10,0:0:0:0:
272,224,130912,1,10,0:0:0:0:
144,256,131094,6,0,L|128:160,1,95,2|2,3:0|0:0,0:0:0:0:
160,96,131366,1,0,0:0:0:0:
224,96,131457,1,8,0:0:0:0:
96,96,131639,1,2,0:0:0:0:
224,96,131821,1,2,3:0:0:0:
288,96,131912,1,0,0:0:0:0:
320,144,132003,1,2,0:0:0:0:
320,192,132094,1,0,0:0:0:0:
288,240,132185,1,8,0:0:0:0:
160,240,132366,1,2,0:0:0:0:
288,240,132548,5,2,3:0:0:0:
416,240,132730,1,2,0:0:0:0:
288,240,132912,2,0,L|288:192,1,47.5,8|0,0:0|0:0,0:0:0:0:
352,160,133094,1,2,0:0:0:0:
480,160,133275,5,2,3:0:0:0:
352,160,133457,1,2,0:0:0:0:
224,160,133639,1,10,0:0:0:0:
352,160,133821,1,10,0:0:0:0:
224,160,134003,6,0,L|208:256,1,95,2|2,3:0|0:0,0:0:0:0:
272,272,134275,1,0,0:0:0:0:
304,320,134366,1,8,0:0:0:0:
176,320,134548,2,0,L|160:224,1,95,2|2,0:0|3:0,0:0:0:0:
288,192,134912,2,0,L|288:144,1,47.5,2|0,0:0|0:0,0:0:0:0:
224,112,135094,1,8,0:0:0:0:
96,112,135275,1,2,0:0:0:0:
224,112,135457,6,0,L|272:112,2,47.5,2|0|2,3:0|0:0|0:0,0:0:0:0:
96,112,135821,1,8,0:0:0:0:
160,112,135912,1,0,0:0:0:0:
224,112,136003,1,2,0:0:0:0:
96,112,136185,1,2,3:0:0:0:
32,112,136275,1,0,0:0:0:0:
96,112,136366,1,2,0:0:0:0:
256,112,136548,1,10,0:0:0:0:
96,112,136730,1,10,0:0:0:0:
224,256,136912,6,0,L|240:160,1,95,2|2,3:0|0:0,0:0:0:0:
208,96,137185,1,0,0:0:0:0:
144,96,137275,1,8,0:0:0:0:
272,96,137457,1,2,0:0:0:0:
144,96,137639,1,2,3:0:0:0:
80,96,137730,1,0,0:0:0:0:
48,144,137821,1,2,0:0:0:0:
48,192,137912,1,0,0:0:0:0:
80,240,138003,1,8,0:0:0:0:
208,240,138185,1,2,0:0:0:0:
80,240,138366,5,2,3:0:0:0:
208,192,138548,2,0,L|256:192,1,47.5,8|2,0:0|0:0,0:0:0:0:
128,112,138821,1,2,0:0:0:0:
208,112,138912,1,10,0:0:0:0:
336,112,139094,1,2,3:0:0:0:
464,112,139275,1,10,0:0:0:0:
304,192,139457,1,10,0:0:0:0:
464,192,139639,1,10,0:0:0:0:
208,192,139821,5,12,0:0:0:0:
256,192,140003,12,0,143457,0:0:0:0:
