osu file format v14

[General]
AudioFilename: audio.mp3
AudioLeadIn: 0
PreviewTime: 23457
Countdown: 0
SampleSet: Normal
StackLeniency: 0.7
Mode: 2
LetterboxInBreaks: 0
WidescreenStoryboard: 1

[Editor]
Bookmarks: 185,23457,46730,70003,81639,93275,116548
DistanceSpacing: 1
BeatDivisor: 4
GridSize: 16
TimelineZoom: 1.099999

[Metadata]
Title:Wildflower
TitleUnicode:Wildflower
Artist:Kenneyon and Kara
ArtistUnicode:Kenneyon and Kara
Creator:Deif
Version:Platter
Source:
Tags:Wild Flower Kawaii Future Bass Piano Electronic Instrumental
BeatmapID:3949367
BeatmapSetID:1914385

[Difficulty]
HPDrainRate:4
CircleSize:3.5
OverallDifficulty:8
ApproachRate:8
SliderMultiplier:1.6
SliderTickRate:2

[Events]
//Background and Video events
0,0,"BG.jpg",0,0
//Break Periods
2,49839,51798
2,70203,75071
//Storyboard Layer 0 (Background)
//Storyboard Layer 1 (Fail)
//Storyboard Layer 2 (Pass)
//Storyboard Layer 3 (Foreground)
//Storyboard Layer 4 (Overlay)
//Storyboard Sound Samples

[TimingPoints]
185,363.636363636364,4,2,0,50,1,0
7457,-100,4,2,0,55,0,0
8912,-100,4,2,0,60,0,0
10366,-100,4,2,0,65,0,0
10730,-100,4,2,0,70,0,0
11094,-100,4,2,0,75,0,0
11457,-100,4,2,0,80,0,0
11821,-100,4,1,1,80,0,0
17821,-100,4,1,0,70,0,0
17912,-100,4,1,1,80,0,0
18003,-100,4,1,0,70,0,0
18094,-100,4,1,1,80,0,0
18366,-100,4,1,0,70,0,0
18457,-100,4,1,1,80,0,0
19275,-100,4,1,0,70,0,0
19366,-100,4,1,1,80,0,0
19457,-100,4,1,0,70,0,0
19548,-100,4,1,1,80,0,0
19821,-100,4,1,0,70,0,0
19912,-100,4,1,1,80,0,0
20639,-100,4,1,0,70,0,0
21094,-100,4,1,1,80,0,0
21185,-100,4,1,0,70,0,0
21457,-100,4,1,1,80,0,0
21548,-100,4,1,0,70,0,0
21639,-100,4,1,1,80,0,0
22094,-100,4,1,0,70,0,0
22548,-100,4,1,1,80,0,0
22639,-100,4,1,0,70,0,0
22730,-100,4,2,0,60,0,0
22912,-100,4,2,0,30,0,0
23094,-100,4,2,0,60,0,0
23276,-100,4,2,0,30,0,0
23457,-100,4,3,1,80,0,0
24185,-100,4,3,2,80,0,0
24275,-100,4,3,1,80,0,0
25275,-100,4,3,1,80,0,0
25639,-100,4,3,2,80,0,0
25730,-100,4,3,1,80,0,0
26003,-100,4,3,1,80,0,0
27094,-100,4,3,2,80,0,0
27184,-100,4,3,1,80,0,0
28548,-100,4,3,2,80,0,0
28638,-100,4,3,1,80,0,0
30003,-100,4,3,2,80,0,0
30093,-100,4,3,1,80,0,0
31094,-100,4,3,1,80,0,0
31457,-100,4,3,2,80,0,0
31548,-100,4,3,1,80,0,0
31821,-100,4,3,1,80,0,0
32185,-100,4,3,1,80,0,0
32912,-100,4,3,2,80,0,0
33002,-100,4,3,1,80,0,0
34366,-100,4,3,2,80,0,0
34456,-100,4,3,1,80,0,0
35094,-100,4,3,3,90,0,1
35821,-100,4,1,0,80,0,1
35912,-100,4,3,3,90,0,1
37275,-100,4,1,0,80,0,1
37366,-100,4,3,3,90,0,1
38730,-100,4,1,0,80,0,1
38821,-100,4,3,3,90,0,1
40185,-100,4,1,0,80,0,1
40366,-100,4,3,3,90,0,1
40457,-100,4,1,0,80,0,1
40548,-100,4,3,3,90,0,1
40639,-100,4,1,0,80,0,1
40730,-100,4,3,3,90,0,1
40821,-100,4,1,0,80,0,1
40912,-100,4,3,3,90,0,1
41639,-100,4,1,0,80,0,1
41730,-100,4,3,3,90,0,1
43093,-100,4,1,0,80,0,1
43184,-100,4,3,3,90,0,1
43457,-100,4,3,3,90,0,1
43639,-100,4,3,3,90,0,1
44548,-100,4,1,0,80,0,1
44639,-100,4,3,3,90,0,1
46003,-100,4,1,0,80,0,1
46184,-100,4,3,3,90,0,1
46275,-100,4,1,0,80,0,1
46366,-100,4,3,3,90,0,1
46457,-100,4,1,0,80,0,1
46548,-100,4,3,3,90,0,1
46639,-100,4,1,0,80,0,1
46730,-100,4,1,2,80,0,0
46912,-100,4,2,0,50,0,0
51094,-100,4,2,0,55,0,0
52548,-100,4,2,0,60,0,0
54003,-100,4,2,0,65,0,0
55457,-100,4,2,0,70,0,0
56912,-100,4,2,0,75,0,0
57639,-100,4,2,0,80,0,0
58003,-100,4,2,0,85,0,0
58366,-100,4,1,1,80,0,0
58548,-100,4,2,1,60,0,0
69275,-100,4,2,1,70,0,0
69639,-100,4,2,1,80,0,0
70003,-100,4,1,1,80,0,0
70185,-100,4,2,1,50,0,0
70548,-100,4,3,0,50,0,0
71457,-100,4,2,1,50,0,0
72003,-100,4,3,0,50,0,0
72912,-100,4,2,1,60,0,0
73457,-100,4,3,0,50,0,0
74366,-100,4,2,1,60,0,0
74912,-100,4,3,0,50,0,0
75094,-100,4,2,1,60,0,0
75275,-100,4,3,0,50,0,0
75457,-100,4,2,1,60,0,0
75639,-100,4,3,0,50,0,0
75821,-100,4,2,1,70,0,0
76003,-100,4,3,0,50,0,0
76185,-100,4,2,1,70,0,0
76366,-100,4,3,0,50,0,0
76548,-100,4,2,1,70,0,0
76730,-100,4,3,0,50,0,0
76912,-100,4,2,1,70,0,0
77094,-100,4,3,0,50,0,0
77275,-100,4,2,1,70,0,0
77457,-100,4,3,0,50,0,0
77639,-100,4,2,1,70,0,0
77820,-100,4,3,0,50,0,0
78002,-100,4,2,1,70,0,0
78184,-100,4,3,0,50,0,0
78366,-100,4,2,1,70,0,0
78548,-100,4,3,0,50,0,0
78730,-100,4,2,1,75,0,0
78912,-100,4,3,0,50,0,0
79094,-100,4,2,1,75,0,0
79275,-100,4,3,0,50,0,0
79457,-100,4,2,1,75,0,0
79639,-100,4,3,0,50,0,0
79821,-100,4,2,1,75,0,0
80003,-100,4,3,0,50,0,0
80185,-100,4,2,1,75,0,0
80367,-100,4,3,0,50,0,0
80549,-100,4,2,1,75,0,0
80730,-100,4,3,0,50,0,0
80912,-100,4,2,1,80,0,0
81094,-100,4,3,0,50,0,0
81276,-100,4,2,1,80,0,0
81458,-100,4,3,0,50,0,0
81639,-100,4,1,1,80,0,0
87639,-100,4,1,0,70,0,0
87730,-100,4,1,1,80,0,0
87821,-100,4,1,0,70,0,0
87912,-100,4,1,1,80,0,0
88184,-100,4,1,0,70,0,0
88275,-100,4,1,1,80,0,0
89093,-100,4,1,0,70,0,0
89184,-100,4,1,1,80,0,0
89275,-100,4,1,0,70,0,0
89366,-100,4,1,1,80,0,0
89639,-100,4,1,0,70,0,0
89730,-100,4,1,1,80,0,0
90457,-100,4,1,0,70,0,0
90912,-100,4,1,1,80,0,0
91003,-100,4,1,0,70,0,0
91275,-100,4,1,1,80,0,0
91366,-100,4,1,0,70,0,0
91457,-100,4,1,1,80,0,0
91912,-100,4,1,0,70,0,0
92366,-100,4,1,1,80,0,0
92457,-100,4,1,0,70,0,0
92548,-100,4,2,0,60,0,0
92594,-100,4,2,0,30,0,0
92730,-100,4,2,0,60,0,0
92776,-100,4,2,0,30,0,0
92912,-100,4,2,0,60,0,0
92958,-100,4,2,0,30,0,0
93094,-100,4,2,0,60,0,0
93140,-100,4,2,0,30,0,0
93275,-100,4,3,1,80,0,0
94003,-100,4,3,2,80,0,0
94093,-100,4,3,1,80,0,0
95094,-100,4,3,1,80,0,0
95457,-100,4,3,2,80,0,0
95548,-100,4,3,1,80,0,0
95821,-100,4,3,1,80,0,0
96912,-100,4,3,2,80,0,0
97002,-100,4,3,1,80,0,0
98366,-80,4,3,2,80,0,0
98456,-80,4,3,1,80,0,0
99094,-100,4,3,1,80,0,0
99821,-100,4,3,2,80,0,0
99911,-100,4,3,1,80,0,0
100912,-100,4,3,1,80,0,0
101275,-100,4,3,2,80,0,0
101366,-100,4,3,1,80,0,0
101639,-100,4,3,1,80,0,0
102003,-100,4,3,1,80,0,0
102730,-100,4,3,2,80,0,0
102820,-100,4,3,1,80,0,0
104184,-100,4,3,2,80,0,0
104274,-100,4,3,1,80,0,0
104912,-100,4,3,3,90,0,1
105639,-100,4,1,0,80,0,1
105730,-100,4,3,3,90,0,1
107093,-100,4,1,0,80,0,1
107184,-100,4,3,3,90,0,1
108548,-100,4,1,0,80,0,1
108639,-100,4,3,3,90,0,1
110003,-100,4,1,0,80,0,1
110184,-100,4,3,3,90,0,1
110275,-100,4,1,0,80,0,1
110366,-100,4,3,3,90,0,1
110457,-100,4,1,0,80,0,1
110548,-100,4,3,3,90,0,1
110639,-100,4,1,0,80,0,1
110730,-100,4,3,3,90,0,1
111457,-100,4,1,0,80,0,1
111548,-100,4,3,3,90,0,1
112911,-100,4,1,0,80,0,1
113002,-100,4,3,3,90,0,1
113275,-100,4,3,3,90,0,1
113457,-100,4,3,3,90,0,1
114366,-100,4,1,0,80,0,1
114457,-100,4,3,3,90,0,1
115821,-100,4,1,0,80,0,1
116002,-100,4,3,3,90,0,1
116093,-100,4,1,0,80,0,1
116184,-100,4,3,3,90,0,1
116275,-100,4,1,0,80,0,1
116366,-100,4,3,3,90,0,1
116457,-100,4,1,0,80,0,1
116548,-100,4,1,2,80,0,0
116730,-100,4,2,0,50,0,0
120912,-100,4,2,0,55,0,0
122366,-100,4,2,0,60,0,0
123821,-100,4,2,0,65,0,0
125275,-100,4,2,0,70,0,0
126730,-100,4,2,0,75,0,0
127457,-100,4,2,0,80,0,0
127821,-100,4,2,0,85,0,0
128184,-100,4,1,1,80,0,0
128366,-100,4,2,1,60,0,0
139093,-100,4,2,1,70,0,0
139457,-100,4,2,1,80,0,0
139821,-100,4,1,1,80,0,0
140003,-100,4,2,1,50,0,0
140548,-100,4,2,1,45,0,0
140912,-100,4,2,1,40,0,0
141275,-100,4,2,1,35,0,0
141639,-100,4,2,1,30,0,0
142003,-100,4,2,1,25,0,0
142366,-100,4,2,1,20,0,0
142730,-100,4,2,1,15,0,0
143094,-100,4,2,1,10,0,0
143457,-100,4,2,1,5,0,0

[Colours]
Combo1 : 159,64,255
Combo2 : 243,89,34
Combo3 : 255,96,255
Combo4 : 255,255,0

[HitObjects]
64,192,6003,5,2,0:0:0:0:
192,192,6366,1,0,0:0:0:0:
64,192,6730,1,2,0:0:0:0:
192,192,7094,1,0,0:0:0:0:
320,192,7457,5,2,0:0:0:0:
192,192,7821,1,0,0:0:0:0:
320,192,8185,1,2,0:0:0:0:
192,192,8548,1,0,0:0:0:0:
320,192,8912,5,2,0:0:0:0:
448,192,9275,1,0,0:0:0:0:
320,192,9639,1,2,0:0:0:0:
448,192,10003,1,0,0:0:0:0:
256,192,10366,12,2,11457,0:0:0:0:
96,192,11821,5,14,0:0:0:0:
176,192,12003,2,0,L|208:160,2,40
64,192,12366,1,2,0:0:0:0:
224,192,12730,2,0,L|252:220,2,40,2|0|2,0:0|0:0|0:0,0:0:0:0:
144,192,13094,1,2,0:0:0:0:
320,192,13275,5,10,0:0:0:0:
368,192,13366,1,0,0:0:0:0:
320,192,13457,1,0,0:0:0:0:
208,192,13639,1,0,0:0:0:0:
160,192,13730,2,0,L|160:144,1,40,0|2,0:0|0:0,0:0:0:0:
240,112,14003,1,0,0:0:0:0:
128,112,14185,1,2,0:0:0:0:
208,112,14366,2,0,L|208:160,1,40,2|0,0:0|0:0,0:0:0:0:
160,192,14548,1,2,0:0:0:0:
336,192,14730,5,10,0:0:0:0:
256,192,14912,2,0,L|224:224,2,40,0|0|0,0:0|0:0|0:0,0:0:0:0:
368,192,15275,1,2,0:0:0:0:
208,192,15639,2,0,L|180:164,2,40,2|0|2,0:0|0:0|0:0,0:0:0:0:
288,192,16003,1,2,0:0:0:0:
112,192,16185,5,10,0:0:0:0:
64,192,16275,1,0,0:0:0:0:
112,192,16366,1,0,0:0:0:0:
224,192,16548,1,0,0:0:0:0:
272,192,16639,2,0,L|272:240,1,40,0|2,0:0|0:0,0:0:0:0:
160,192,16912,1,0,0:0:0:0:
208,192,17003,1,0,0:0:0:0:
256,192,17094,1,2,0:0:0:0:
144,112,17275,1,2,0:0:0:0:
80,112,17366,1,0,0:0:0:0:
144,112,17457,1,2,0:0:0:0:
320,112,17639,5,10,0:0:0:0:
400,112,17821,1,0,0:0:0:0:
352,112,17912,1,0,0:0:0:0:
304,112,18003,1,0,0:0:0:0:
416,112,18185,2,0,B|432:192|432:192|352:192,1,160,2|2,0:0|0:0,0:0:0:0:
400,192,18639,1,0,0:0:0:0:
448,192,18730,1,2,0:0:0:0:
368,192,18912,1,2,0:0:0:0:
192,192,19094,5,10,0:0:0:0:
144,192,19185,1,0,0:0:0:0:
192,192,19275,1,0,0:0:0:0:
304,192,19457,1,0,0:0:0:0:
352,192,19548,2,0,L|352:240,1,40,0|2,0:0|0:0,0:0:0:0:
272,272,19821,1,0,0:0:0:0:
384,272,20003,1,2,0:0:0:0:
304,272,20185,2,0,L|304:224,1,40,2|0,0:0|0:0,0:0:0:0:
352,192,20366,1,2,0:0:0:0:
176,272,20548,5,10,0:0:0:0:
96,272,20730,1,0,0:0:0:0:
144,272,20821,1,0,0:0:0:0:
192,272,20912,1,0,0:0:0:0:
80,272,21094,2,0,B|64:192|64:192|144:192,1,160,2|2,0:0|0:0,0:0:0:0:
96,192,21548,1,0,0:0:0:0:
48,192,21639,1,2,0:0:0:0:
128,192,21821,1,2,0:0:0:0:
304,192,22003,5,10,0:0:0:0:
352,192,22094,1,0,0:0:0:0:
304,192,22185,1,0,0:0:0:0:
192,192,22366,1,0,0:0:0:0:
144,192,22457,2,0,L|144:144,1,40,0|2,0:0|0:0,0:0:0:0:
224,80,22730,6,0,B|144:80|144:80|224:80|224:80|144:80,1,240,2|2,0:0|0:0,0:0:0:0:
400,80,23457,5,12,0:0:0:0:
480,80,23639,2,0,L|480:128,1,40,2|0,0:0|0:0,0:0:0:0:
432,144,23821,1,2,0:0:0:0:
320,144,24003,1,8,0:0:0:0:
64,192,24185,2,0,L|48:112,1,80,10|2,0:0|0:0,0:0:0:0:
96,96,24457,1,0,0:0:0:0:
144,80,24548,1,0,0:0:0:0:
64,80,24730,1,2,0:0:0:0:
240,80,24912,5,8,0:0:0:0:
320,80,25094,2,0,L|368:80,2,40,2|0|2,0:0|0:0|0:0,0:0:0:0:
208,80,25457,1,8,0:0:0:0:
464,192,25639,2,0,L|448:112,1,80,8|2,0:0|2:0,0:0:0:0:
336,192,26003,2,0,L|320:112,1,80,2|2,0:0|2:0,0:0:0:0:
496,48,26366,5,8,0:0:0:0:
416,48,26548,2,0,L|416:96,1,40,2|0,0:0|0:0,0:0:0:0:
464,128,26730,1,2,0:0:0:0:
352,128,26912,1,8,0:0:0:0:
96,128,27094,2,0,L|80:48,1,80,10|2,0:0|0:0,0:0:0:0:
192,48,27457,1,0,0:0:0:0:
240,48,27548,2,0,L|240:96,1,40,0|2,0:0|0:0,0:0:0:0:
64,192,27821,5,8,0:0:0:0:
176,192,28003,1,2,0:0:0:0:
64,192,28185,1,2,0:0:0:0:
16,192,28275,2,0,L|16:144,1,40,0|8,0:0|0:0,0:0:0:0:
272,192,28548,2,0,L|352:192,1,80,10|10,0:0|0:0,0:0:0:0:
240,128,28912,2,0,L|160:128,1,80,8|10,0:0|0:0,0:0:0:0:
416,128,29275,5,12,0:0:0:0:
496,128,29457,2,0,L|496:80,1,40,2|0,0:0|0:0,0:0:0:0:
448,64,29639,1,2,0:0:0:0:
336,64,29821,1,8,0:0:0:0:
80,192,30003,2,0,L|32:128,1,80,10|2,0:0|0:0,0:0:0:0:
32,80,30275,1,0,0:0:0:0:
64,80,30366,1,0,0:0:0:0:
144,80,30548,1,2,0:0:0:0:
320,80,30730,5,8,0:0:0:0:
240,80,30912,2,0,L|192:80,2,40,2|0|2,0:0|0:0|0:0,0:0:0:0:
352,80,31275,1,8,0:0:0:0:
96,192,31457,2,0,L|80:112,1,80,8|2,0:0|2:0,0:0:0:0:
192,112,31821,1,2,0:0:0:0:
80,112,32003,1,2,2:0:0:0:
256,112,32185,5,8,0:0:0:0:
336,112,32366,2,0,L|336:160,1,40,2|0,0:0|0:0,0:0:0:0:
288,192,32548,1,2,0:0:0:0:
400,192,32730,1,8,0:0:0:0:
144,192,32912,2,0,L|128:112,1,80,10|2,0:0|0:0,0:0:0:0:
240,112,33275,1,0,0:0:0:0:
288,112,33366,1,0,0:0:0:0:
240,112,33457,1,2,0:0:0:0:
128,192,33639,5,8,0:0:0:0:
240,192,33821,1,2,0:0:0:0:
128,192,34003,1,2,0:0:0:0:
80,192,34094,2,0,L|80:144,1,40,0|8,0:0|0:0,0:0:0:0:
336,192,34366,2,0,L|416:192,1,80,10|0,0:0|0:0,0:0:0:0:
240,128,34730,2,0,L|160:128,1,80,10|0,0:0|0:0,0:0:0:0:
432,128,35094,6,0,L|432:80,1,40,12|0,0:0|0:0,0:0:0:0:
384,64,35275,1,2,0:0:0:0:
208,64,35457,2,0,L|128:64,1,80,8|0,0:0|0:0,0:0:0:0:
384,192,35821,1,8,0:0:0:0:
464,128,36003,1,2,0:0:0:0:
384,128,36094,1,2,0:0:0:0:
336,128,36185,1,8,0:0:0:0:
448,128,36366,1,2,0:0:0:0:
192,128,36548,6,0,L|144:128,2,40,8|0|2,0:0|0:0|0:0,0:0:0:0:
368,128,36912,1,8,0:0:0:0:
416,144,37003,2,0,L|416:192,1,40,0|2,0:0|0:0,0:0:0:0:
160,192,37275,2,0,L|144:112,1,80,8|2,0:0|0:0,0:0:0:0:
192,80,37548,1,2,0:0:0:0:
272,80,37639,1,8,0:0:0:0:
160,80,37821,1,2,0:0:0:0:
416,192,38003,5,8,0:0:0:0:
496,192,38185,2,0,L|496:144,1,40,2|0,0:0|0:0,0:0:0:0:
416,144,38366,1,8,0:0:0:0:
496,144,38548,1,0,0:0:0:0:
240,144,38730,1,8,0:0:0:0:
192,144,38821,1,0,0:0:0:0:
240,144,38912,1,2,0:0:0:0:
352,144,39094,2,0,L|272:144,1,80,8|2,0:0|0:0,0:0:0:0:
16,192,39457,6,0,L|16:144,1,40,8|0,0:0|0:0,0:0:0:0:
64,128,39639,1,2,0:0:0:0:
240,176,39821,2,0,L|208:144,1,40,8|0,0:0|0:0,0:0:0:0:
160,128,40003,1,2,0:0:0:0:
416,128,40185,1,8,0:0:0:0:
464,128,40275,1,0,0:0:0:0:
416,128,40366,1,2,0:0:0:0:
240,128,40548,1,8,0:0:0:0:
288,128,40639,1,0,0:0:0:0:
336,128,40730,1,2,0:0:0:0:
64,128,40912,6,0,L|64:80,1,40,12|0,0:0|0:0,0:0:0:0:
112,64,41094,1,2,0:0:0:0:
288,64,41275,2,0,L|368:64,1,80,8|0,0:0|0:0,0:0:0:0:
112,192,41639,1,8,0:0:0:0:
32,128,41821,1,2,0:0:0:0:
112,128,41912,1,2,0:0:0:0:
160,128,42003,1,8,0:0:0:0:
48,128,42185,1,2,0:0:0:0:
304,192,42366,6,0,L|384:192,1,80,8|2,0:0|0:0,0:0:0:0:
208,96,42730,2,0,L|128:96,1,80,8|2,0:0|0:0,0:0:0:0:
384,192,43094,2,0,L|400:272,1,80,8|2,0:0|0:0,0:0:0:0:
352,304,43366,1,2,0:0:0:0:
272,304,43457,1,8,0:0:0:0:
384,304,43639,1,2,0:0:0:0:
128,192,43821,5,8,0:0:0:0:
48,192,44003,2,0,L|48:144,1,40,2|0,0:0|0:0,0:0:0:0:
128,144,44185,1,8,0:0:0:0:
48,144,44366,1,2,0:0:0:0:
304,144,44548,1,8,0:0:0:0:
384,144,44730,1,2,0:0:0:0:
336,144,44821,1,0,0:0:0:0:
256,144,44912,1,8,0:0:0:0:
368,144,45094,1,2,0:0:0:0:
112,256,45275,5,8,0:0:0:0:
64,256,45366,1,0,0:0:0:0:
112,256,45457,1,2,0:0:0:0:
288,256,45639,1,8,0:0:0:0:
336,224,45730,2,0,L|336:176,1,40,0|2,0:0|0:0,0:0:0:0:
80,192,46003,2,0,L|80:152,1,40,8|0,0:0|0:0,0:0:0:0:
128,120,46185,1,2,0:0:0:0:
304,128,46366,1,8,0:0:0:0:
256,128,46457,1,0,0:0:0:0:
208,128,46548,1,2,0:0:0:0:
464,192,46730,5,12,0:0:0:0:
256,192,46912,12,2,49639,0:0:0:0:
200,192,52548,6,0,L|184:112,1,80,2|0,0:0|0:0,0:0:0:0:
280,192,52912,2,0,L|264:112,1,80,2|0,0:0|0:0,0:0:0:0:
104,112,53457,1,2,0:0:0:0:
184,113,53639,1,2,0:0:0:0:
344,192,54003,6,0,L|360:112,1,80,2|0,0:0|0:0,0:0:0:0:
256,192,54366,2,0,L|272:112,1,80,2|0,0:0|0:0,0:0:0:0:
448,112,54912,1,0,0:0:0:0:
360,112,55094,1,2,0:0:0:0:
176,192,55457,6,0,L|160:112,1,80,2|0,0:0|0:0,0:0:0:0:
272,192,55821,2,0,L|256:112,1,80,2|0,0:0|0:0,0:0:0:0:
64,112,56366,1,2,0:0:0:0:
160,112,56548,1,2,0:0:0:0:
368,192,56912,6,0,L|384:112,1,80,2|0,0:0|0:0,0:0:0:0:
264,192,57275,2,0,L|280:112,1,80,2|0,0:0|0:0,0:0:0:0:
400,112,57639,2,0,L|320:112,1,80,2|2,0:0|0:0,0:0:0:0:
464,112,58003,1,2,0:0:0:0:
320,112,58185,1,2,0:0:0:0:
144,112,58366,5,12,0:0:0:0:
224,112,58548,2,0,L|272:112,2,40,2|0|8,0:0|0:0|0:0,0:0:0:0:
144,112,58912,1,2,0:0:0:0:
16,192,59094,2,0,L|16:144,1,40,2|0,3:0|0:0,0:0:0:0:
64,112,59275,1,2,0:0:0:0:
144,112,59457,1,8,0:0:0:0:
64,112,59639,1,2,0:0:0:0:
240,192,59821,6,0,L|240:144,1,40,2|0,3:0|0:0,0:0:0:0:
192,128,60003,1,2,0:0:0:0:
80,192,60185,1,8,0:0:0:0:
128,192,60275,1,0,0:0:0:0:
176,192,60366,1,2,0:0:0:0:
64,192,60548,2,0,L|64:144,1,40,2|0,3:0|0:0,0:0:0:0:
112,128,60730,1,2,0:0:0:0:
224,128,60912,2,0,L|144:128,1,80,10|10,0:0|0:0,0:0:0:0:
320,128,61275,5,2,3:0:0:0:
400,128,61457,2,0,L|400:176,1,40,2|0,0:0|0:0,0:0:0:0:
352,192,61639,1,8,0:0:0:0:
432,192,61821,1,2,0:0:0:0:
320,192,62003,2,0,L|320:240,1,40,2|0,3:0|0:0,0:0:0:0:
368,272,62185,1,2,0:0:0:0:
448,272,62366,1,8,0:0:0:0:
368,272,62548,1,2,0:0:0:0:
192,272,62730,5,2,3:0:0:0:
272,272,62912,1,2,0:0:0:0:
192,272,63094,2,0,L|144:272,2,40,8|0|2,0:0|0:0|0:0,0:0:0:0:
304,192,63457,2,0,L|224:192,1,80,2|2,3:0|0:0,0:0:0:0:
112,112,63821,2,0,L|192:112,1,80,10|10,0:0|0:0,0:0:0:0:
368,112,64185,5,2,3:0:0:0:
288,112,64366,2,0,L|240:112,2,40,2|0|8,0:0|0:0|0:0,0:0:0:0:
368,112,64730,1,2,0:0:0:0:
448,192,64912,1,2,3:0:0:0:
368,192,65094,2,0,L|320:192,2,40,2|0|8,0:0|0:0|0:0,0:0:0:0:
448,192,65457,1,2,0:0:0:0:
272,192,65639,6,0,L|272:240,1,40,2|0,3:0|0:0,0:0:0:0:
320,256,65821,1,2,0:0:0:0:
432,192,66003,1,8,0:0:0:0:
384,192,66094,1,0,0:0:0:0:
336,192,66185,1,2,0:0:0:0:
224,112,66366,1,2,3:0:0:0:
272,112,66457,1,0,0:0:0:0:
320,112,66548,1,2,0:0:0:0:
432,112,66730,1,10,0:0:0:0:
320,112,66912,1,10,0:0:0:0:
144,112,67094,5,2,3:0:0:0:
64,112,67275,2,0,L|64:160,1,40,2|0,0:0|0:0,0:0:0:0:
112,176,67457,1,8,0:0:0:0:
192,176,67639,1,2,0:0:0:0:
80,176,67821,2,0,L|96:224,1,40,2|0,3:0|0:0,0:0:0:0:
144,256,68003,1,2,0:0:0:0:
224,256,68185,1,8,0:0:0:0:
144,256,68366,1,2,0:0:0:0:
320,192,68548,5,2,3:0:0:0:
400,112,68730,2,0,L|408:72,1,40,8|2,0:0|0:0,0:0:0:0:
296,64,69003,2,0,L|256:64,1,40,2|10,0:0|0:0,0:0:0:0:
368,192,69275,1,2,3:0:0:0:
256,192,69457,1,10,0:0:0:0:
80,192,69639,1,10,0:0:0:0:
192,192,69821,1,10,0:0:0:0:
448,192,70003,5,12,0:0:0:0:
160,192,75821,6,0,L|80:192,1,80,10|0,0:0|0:0,0:0:0:0:
160,112,76185,2,0,L|80:112,1,80,10|0,0:0|0:0,0:0:0:0:
160,112,76548,1,2,0:0:0:0:
240,112,76730,1,0,0:0:0:0:
240,112,76912,1,2,0:0:0:0:
240,112,77094,1,0,0:0:0:0:
368,192,77275,6,0,L|448:192,1,80,10|0,0:0|0:0,0:0:0:0:
368,112,77639,2,0,L|448:112,1,80,10|0,0:0|0:0,0:0:0:0:
352,112,78003,1,2,0:0:0:0:
256,112,78185,1,0,0:0:0:0:
256,208,78366,1,2,0:0:0:0:
352,208,78548,1,0,0:0:0:0:
176,192,78730,6,0,L|96:192,1,80,10|0,0:0|0:0,0:0:0:0:
176,112,79094,2,0,L|96:112,1,80,10|0,0:0|0:0,0:0:0:0:
192,112,79457,1,2,0:0:0:0:
288,112,79639,1,0,0:0:0:0:
192,208,79821,1,2,0:0:0:0:
288,208,80003,1,0,0:0:0:0:
256,192,80185,12,10,81275,0:0:0:0:
416,192,81639,5,14,0:0:0:0:
336,192,81821,2,0,L|304:160,2,40
448,192,82185,1,2,0:0:0:0:
288,192,82548,2,0,L|260:220,2,40,2|0|2,0:0|0:0|0:0,0:0:0:0:
368,192,82912,1,2,0:0:0:0:
192,192,83094,5,10,0:0:0:0:
144,192,83185,1,0,0:0:0:0:
192,192,83275,1,0,0:0:0:0:
304,192,83457,1,0,0:0:0:0:
352,192,83548,2,0,L|352:144,1,40,0|2,0:0|0:0,0:0:0:0:
272,112,83821,1,0,0:0:0:0:
384,112,84003,1,2,0:0:0:0:
304,112,84185,2,0,L|304:160,1,40,2|0,0:0|0:0,0:0:0:0:
352,192,84366,1,2,0:0:0:0:
176,192,84548,5,10,0:0:0:0:
256,192,84730,2,0,L|288:224,2,40,0|0|0,0:0|0:0|0:0,0:0:0:0:
144,192,85094,1,2,0:0:0:0:
304,192,85457,2,0,L|332:164,2,40,2|0|2,0:0|0:0|0:0,0:0:0:0:
224,192,85821,1,2,0:0:0:0:
400,192,86003,5,10,0:0:0:0:
448,192,86094,1,0,0:0:0:0:
400,192,86185,1,0,0:0:0:0:
288,192,86366,1,0,0:0:0:0:
240,192,86457,2,0,L|240:240,1,40,0|2,0:0|0:0,0:0:0:0:
352,192,86730,1,0,0:0:0:0:
304,192,86821,1,0,0:0:0:0:
256,192,86912,1,2,0:0:0:0:
368,112,87094,1,2,0:0:0:0:
432,112,87185,1,0,0:0:0:0:
368,112,87275,1,2,0:0:0:0:
192,112,87457,5,10,0:0:0:0:
112,112,87639,1,0,0:0:0:0:
160,112,87730,1,0,0:0:0:0:
208,112,87821,1,0,0:0:0:0:
96,112,88003,2,0,B|80:192|80:192|160:192,1,160,2|2,0:0|0:0,0:0:0:0:
112,192,88457,1,0,0:0:0:0:
64,192,88548,1,2,0:0:0:0:
144,192,88730,1,2,0:0:0:0:
320,192,88912,5,10,0:0:0:0:
368,192,89003,1,0,0:0:0:0:
320,192,89094,1,0,0:0:0:0:
208,192,89275,1,0,0:0:0:0:
160,192,89366,2,0,L|160:240,1,40,0|2,0:0|0:0,0:0:0:0:
240,272,89639,1,0,0:0:0:0:
128,272,89821,1,2,0:0:0:0:
208,272,90003,2,0,L|208:224,1,40,2|0,0:0|0:0,0:0:0:0:
160,192,90185,1,2,0:0:0:0:
336,272,90366,5,10,0:0:0:0:
416,272,90548,1,0,0:0:0:0:
368,272,90639,1,0,0:0:0:0:
320,272,90730,1,0,0:0:0:0:
432,272,90912,2,0,B|448:192|448:192|368:192,1,160,2|2,0:0|0:0,0:0:0:0:
416,192,91366,1,0,0:0:0:0:
464,192,91457,1,2,0:0:0:0:
384,192,91639,1,2,0:0:0:0:
208,192,91821,5,10,0:0:0:0:
160,192,91912,1,0,0:0:0:0:
208,192,92003,1,0,0:0:0:0:
320,192,92185,1,0,0:0:0:0:
368,192,92275,2,0,L|368:144,1,40,0|2,0:0|0:0,0:0:0:0:
288,80,92548,6,0,B|208:80|208:80|288:80|288:80|368:80,1,240,2|2,0:0|0:0,0:0:0:0:
112,80,93275,5,12,0:0:0:0:
32,80,93457,2,0,L|32:128,1,40,2|0,0:0|0:0,0:0:0:0:
80,144,93639,1,2,0:0:0:0:
192,144,93821,1,8,0:0:0:0:
448,192,94003,2,0,L|464:112,1,80,10|2,0:0|0:0,0:0:0:0:
416,96,94275,1,0,0:0:0:0:
368,80,94366,1,0,0:0:0:0:
448,80,94548,1,2,0:0:0:0:
272,80,94730,5,8,0:0:0:0:
192,80,94912,2,0,L|144:80,2,40,2|0|2,0:0|0:0|0:0,0:0:0:0:
304,80,95275,1,8,0:0:0:0:
48,192,95457,2,0,L|64:112,1,80,8|2,0:0|2:0,0:0:0:0:
176,192,95821,2,0,L|192:112,1,80,2|2,0:0|2:0,0:0:0:0:
16,48,96185,5,8,0:0:0:0:
96,48,96366,2,0,L|96:96,1,40,2|0,0:0|0:0,0:0:0:0:
48,128,96548,1,2,0:0:0:0:
160,128,96730,1,8,0:0:0:0:
416,128,96912,2,0,L|432:48,1,80,10|2,0:0|0:0,0:0:0:0:
320,48,97275,1,0,0:0:0:0:
272,48,97366,2,0,L|272:96,1,40,0|2,0:0|0:0,0:0:0:0:
448,192,97639,5,8,0:0:0:0:
336,192,97821,1,2,0:0:0:0:
448,192,98003,1,2,0:0:0:0:
496,192,98094,2,0,L|496:144,1,40,0|8,0:0|0:0,0:0:0:0:
240,192,98366,2,0,L|128:192,1,100,10|10,0:0|0:0,0:0:0:0:
240,128,98730,2,0,L|352:128,1,100,8|10,0:0|0:0,0:0:0:0:
96,128,99094,5,12,0:0:0:0:
16,128,99275,2,0,L|16:80,1,40,2|0,0:0|0:0,0:0:0:0:
64,64,99457,1,2,0:0:0:0:
176,64,99639,1,8,0:0:0:0:
432,192,99821,2,0,L|480:128,1,80,10|2,0:0|0:0,0:0:0:0:
480,80,100094,1,0,0:0:0:0:
448,80,100185,1,0,0:0:0:0:
368,80,100366,1,2,0:0:0:0:
192,80,100548,5,8,0:0:0:0:
272,80,100730,2,0,L|320:80,2,40,2|0|2,0:0|0:0|0:0,0:0:0:0:
160,80,101094,1,8,0:0:0:0:
416,192,101275,2,0,L|432:112,1,80,8|2,0:0|2:0,0:0:0:0:
320,112,101639,1,2,0:0:0:0:
432,112,101821,1,2,2:0:0:0:
256,112,102003,5,8,0:0:0:0:
176,112,102185,2,0,L|176:160,1,40,2|0,0:0|0:0,0:0:0:0:
224,192,102366,1,2,0:0:0:0:
112,192,102548,1,8,0:0:0:0:
368,192,102730,2,0,L|384:112,1,80,10|2,0:0|0:0,0:0:0:0:
272,112,103094,1,0,0:0:0:0:
224,112,103185,1,0,0:0:0:0:
272,112,103275,1,2,0:0:0:0:
384,192,103457,5,8,0:0:0:0:
272,192,103639,1,2,0:0:0:0:
384,192,103821,1,2,0:0:0:0:
432,192,103912,2,0,L|432:144,1,40,0|8,0:0|0:0,0:0:0:0:
176,192,104185,2,0,L|96:192,1,80,10|0,0:0|0:0,0:0:0:0:
272,128,104548,2,0,L|352:128,1,80,10|0,0:0|0:0,0:0:0:0:
80,128,104912,6,0,L|80:80,1,40,12|0,0:0|0:0,0:0:0:0:
128,64,105094,1,2,0:0:0:0:
304,64,105275,2,0,L|384:64,1,80,8|0,0:0|0:0,0:0:0:0:
128,192,105639,1,8,0:0:0:0:
48,128,105821,1,2,0:0:0:0:
128,128,105912,1,2,0:0:0:0:
176,128,106003,1,8,0:0:0:0:
64,128,106185,1,2,0:0:0:0:
320,128,106366,6,0,L|368:128,2,40,8|0|2,0:0|0:0|0:0,0:0:0:0:
144,128,106730,1,8,0:0:0:0:
96,144,106821,2,0,L|96:192,1,40,0|2,0:0|0:0,0:0:0:0:
352,192,107094,2,0,L|368:112,1,80,8|2,0:0|0:0,0:0:0:0:
320,80,107366,1,2,0:0:0:0:
240,80,107457,1,8,0:0:0:0:
352,80,107639,1,2,0:0:0:0:
96,192,107821,5,8,0:0:0:0:
16,192,108003,2,0,L|16:144,1,40,2|0,0:0|0:0,0:0:0:0:
96,144,108185,1,8,0:0:0:0:
16,144,108366,1,0,0:0:0:0:
272,144,108548,1,8,0:0:0:0:
320,144,108639,1,0,0:0:0:0:
272,144,108730,1,2,0:0:0:0:
160,144,108912,2,0,L|240:144,1,80,8|2,0:0|0:0,0:0:0:0:
496,192,109275,6,0,L|496:144,1,40,8|0,0:0|0:0,0:0:0:0:
448,128,109457,1,2,0:0:0:0:
272,176,109639,2,0,L|304:144,1,40,8|0,0:0|0:0,0:0:0:0:
352,128,109821,1,2,0:0:0:0:
96,128,110003,1,8,0:0:0:0:
48,128,110094,1,0,0:0:0:0:
96,128,110185,1,2,0:0:0:0:
272,128,110366,1,8,0:0:0:0:
224,128,110457,1,0,0:0:0:0:
176,128,110548,1,2,0:0:0:0:
448,128,110730,6,0,L|448:80,1,40,12|0,0:0|0:0,0:0:0:0:
400,64,110912,1,2,0:0:0:0:
224,64,111094,2,0,L|144:64,1,80,8|0,0:0|0:0,0:0:0:0:
400,192,111457,1,8,0:0:0:0:
480,128,111639,1,2,0:0:0:0:
400,128,111730,1,2,0:0:0:0:
352,128,111821,1,8,0:0:0:0:
464,128,112003,1,2,0:0:0:0:
208,192,112185,6,0,L|128:192,1,80,8|2,0:0|0:0,0:0:0:0:
304,96,112548,2,0,L|384:96,1,80,8|2,0:0|0:0,0:0:0:0:
128,192,112912,2,0,L|112:272,1,80,8|2,0:0|0:0,0:0:0:0:
160,304,113185,1,2,0:0:0:0:
240,304,113275,1,8,0:0:0:0:
128,304,113457,1,2,0:0:0:0:
384,192,113639,5,8,0:0:0:0:
464,192,113821,2,0,L|464:144,1,40,2|0,0:0|0:0,0:0:0:0:
384,144,114003,1,8,0:0:0:0:
464,144,114185,1,2,0:0:0:0:
208,144,114366,1,8,0:0:0:0:
128,144,114548,1,2,0:0:0:0:
176,144,114639,1,0,0:0:0:0:
256,144,114730,1,8,0:0:0:0:
144,144,114912,1,2,0:0:0:0:
400,256,115094,5,8,0:0:0:0:
448,256,115185,1,0,0:0:0:0:
400,256,115275,1,2,0:0:0:0:
224,256,115457,1,8,0:0:0:0:
176,224,115548,2,0,L|176:176,1,40,0|2,0:0|0:0,0:0:0:0:
432,192,115821,2,0,L|432:152,1,40,8|0,0:0|0:0,0:0:0:0:
384,120,116003,1,2,0:0:0:0:
208,128,116185,1,8,0:0:0:0:
256,128,116275,1,0,0:0:0:0:
304,128,116366,1,2,0:0:0:0:
48,192,116548,5,12,0:0:0:0:
256,192,116730,12,2,119457,0:0:0:0:
312,192,122366,6,0,L|328:112,1,80,2|0,0:0|0:0,0:0:0:0:
232,192,122730,2,0,L|248:112,1,80,2|0,0:0|0:0,0:0:0:0:
408,112,123275,1,2,0:0:0:0:
328,113,123457,1,2,0:0:0:0:
168,192,123821,6,0,L|152:112,1,80,2|0,0:0|0:0,0:0:0:0:
256,192,124185,2,0,L|240:112,1,80,2|0,0:0|0:0,0:0:0:0:
64,112,124730,1,0,0:0:0:0:
152,112,124912,1,2,0:0:0:0:
336,192,125275,6,0,L|352:112,1,80,2|0,0:0|0:0,0:0:0:0:
240,192,125639,2,0,L|256:112,1,80,2|0,0:0|0:0,0:0:0:0:
448,112,126185,1,2,0:0:0:0:
352,112,126366,1,2,0:0:0:0:
144,192,126730,6,0,L|128:112,1,80,2|0,0:0|0:0,0:0:0:0:
248,192,127094,2,0,L|232:112,1,80,2|0,0:0|0:0,0:0:0:0:
112,112,127457,2,0,L|192:112,1,80,2|2,0:0|0:0,0:0:0:0:
48,112,127821,1,2,0:0:0:0:
192,112,128003,1,2,0:0:0:0:
368,112,128185,5,12,0:0:0:0:
288,112,128366,2,0,L|240:112,2,40,2|0|8,0:0|0:0|0:0,0:0:0:0:
368,112,128730,1,2,0:0:0:0:
496,192,128912,2,0,L|496:144,1,40,2|0,3:0|0:0,0:0:0:0:
448,112,129094,1,2,0:0:0:0:
368,112,129275,1,8,0:0:0:0:
448,112,129457,1,2,0:0:0:0:
272,192,129639,6,0,L|272:144,1,40,2|0,3:0|0:0,0:0:0:0:
320,128,129821,1,2,0:0:0:0:
432,192,130003,1,8,0:0:0:0:
384,192,130094,1,0,0:0:0:0:
336,192,130185,1,2,0:0:0:0:
448,192,130366,2,0,L|448:144,1,40,2|0,3:0|0:0,0:0:0:0:
400,128,130548,1,2,0:0:0:0:
288,128,130730,2,0,L|368:128,1,80,10|10,0:0|0:0,0:0:0:0:
192,128,131094,5,2,3:0:0:0:
112,128,131275,2,0,L|112:176,1,40,2|0,0:0|0:0,0:0:0:0:
160,192,131457,1,8,0:0:0:0:
80,192,131639,1,2,0:0:0:0:
192,192,131821,2,0,L|192:240,1,40,2|0,3:0|0:0,0:0:0:0:
144,272,132003,1,2,0:0:0:0:
64,272,132185,1,8,0:0:0:0:
144,272,132366,1,2,0:0:0:0:
320,272,132548,5,2,3:0:0:0:
240,272,132730,1,2,0:0:0:0:
320,272,132912,2,0,L|368:272,2,40,8|0|2,0:0|0:0|0:0,0:0:0:0:
208,192,133275,2,0,L|288:192,1,80,2|2,3:0|0:0,0:0:0:0:
400,112,133639,2,0,L|320:112,1,80,10|10,0:0|0:0,0:0:0:0:
144,112,134003,5,2,3:0:0:0:
224,112,134185,2,0,L|272:112,2,40,2|0|8,0:0|0:0|0:0,0:0:0:0:
144,112,134548,1,2,0:0:0:0:
64,192,134730,1,2,3:0:0:0:
144,192,134912,2,0,L|192:192,2,40,2|0|8,0:0|0:0|0:0,0:0:0:0:
64,192,135275,1,2,0:0:0:0:
240,192,135457,6,0,L|240:240,1,40,2|0,3:0|0:0,0:0:0:0:
192,256,135639,1,2,0:0:0:0:
80,192,135821,1,8,0:0:0:0:
128,192,135912,1,0,0:0:0:0:
176,192,136003,1,2,0:0:0:0:
288,112,136185,1,2,3:0:0:0:
240,112,136275,1,0,0:0:0:0:
192,112,136366,1,2,0:0:0:0:
80,112,136548,1,10,0:0:0:0:
192,112,136730,1,10,0:0:0:0:
368,112,136912,5,2,3:0:0:0:
448,112,137094,2,0,L|448:160,1,40,2|0,0:0|0:0,0:0:0:0:
400,176,137275,1,8,0:0:0:0:
320,176,137457,1,2,0:0:0:0:
432,176,137639,2,0,L|416:224,1,40,2|0,3:0|0:0,0:0:0:0:
368,256,137821,1,2,0:0:0:0:
288,256,138003,1,8,0:0:0:0:
368,256,138185,1,2,0:0:0:0:
192,192,138366,5,2,3:0:0:0:
112,112,138548,2,0,L|104:72,1,40,8|2,0:0|0:0,0:0:0:0:
216,64,138821,2,0,L|256:64,1,40,2|10,0:0|0:0,0:0:0:0:
144,192,139094,1,2,3:0:0:0:
224,192,139275,1,10,0:0:0:0:
48,192,139457,1,10,0:0:0:0:
160,192,139639,1,10,0:0:0:0:
416,192,139821,5,12,0:0:0:0:
256,192,140003,12,0,143457,0:0:0:0:
