osu file format v14

[General]
AudioFilename: audio.mp3
AudioLeadIn: 0
PreviewTime: 23457
Countdown: 0
SampleSet: Soft
StackLeniency: 0.7
Mode: 2
LetterboxInBreaks: 0
WidescreenStoryboard: 0

[Editor]
Bookmarks: 185,23457,46730,70003,81639,93275,116548
DistanceSpacing: 1
BeatDivisor: 8
GridSize: 16
TimelineZoom: 3.22

[Metadata]
Title:Wildflower
TitleUnicode:Wildflower
Artist:Kenneyon and Kara
ArtistUnicode:Kenneyon and Kara
Creator:Deif
Version:Overdose
Source:
Tags:Wild Flower Kawaii Future Bass Piano Electronic Instrumental
BeatmapID:3949366
BeatmapSetID:1914385

[Difficulty]
HPDrainRate:6
CircleSize:4.5
OverallDifficulty:9.3
ApproachRate:9.3
SliderMultiplier:2.2
SliderTickRate:2

[Events]
//Background and Video events
0,0,"BG.jpg",0,0
//Break Periods
//Storyboard Layer 0 (Background)
//Storyboard Layer 1 (Fail)
//Storyboard Layer 2 (Pass)
//Storyboard Layer 3 (Foreground)
//Storyboard Layer 4 (Overlay)
//Storyboard Sound Samples

[TimingPoints]
185,363.636363636364,4,2,0,50,1,0
7457,-100,4,2,0,55,0,0
8912,-100,4,2,0,60,0,0
10366,-100,4,2,0,65,0,0
10730,-100,4,2,0,70,0,0
11094,-100,4,2,0,75,0,0
11457,-100,4,2,0,80,0,0
11821,-100,4,1,1,80,0,0
17821,-100,4,1,0,70,0,0
17912,-100,4,1,1,80,0,0
18003,-100,4,1,0,70,0,0
18094,-100,4,1,1,80,0,0
18366,-100,4,1,0,70,0,0
18457,-100,4,1,1,80,0,0
19275,-100,4,1,0,70,0,0
19366,-100,4,1,1,80,0,0
19457,-100,4,1,0,70,0,0
19548,-100,4,1,1,80,0,0
19821,-100,4,1,0,70,0,0
19912,-100,4,1,1,80,0,0
20639,-100,4,1,0,70,0,0
21094,-100,4,1,1,80,0,0
21185,-100,4,1,0,70,0,0
21457,-100,4,1,1,80,0,0
21548,-100,4,1,0,70,0,0
21639,-100,4,1,1,80,0,0
22094,-100,4,1,0,70,0,0
22548,-100,4,1,1,80,0,0
22639,-100,4,1,0,70,0,0
22730,-100,4,2,0,60,0,0
22912,-100,4,2,0,30,0,0
23094,-100,4,2,0,60,0,0
23276,-100,4,2,0,30,0,0
23457,-100,4,3,1,80,0,0
24185,-100,4,3,2,80,0,0
24275,-100,4,3,1,80,0,0
25275,-62.5,4,3,1,80,0,0
25639,-76.9230769230769,4,3,2,80,0,0
25730,-76.9230769230769,4,3,1,80,0,0
26003,-100,4,3,1,80,0,0
27094,-100,4,3,2,80,0,0
27184,-100,4,3,1,80,0,0
28548,-100,4,3,2,80,0,0
28638,-100,4,3,1,80,0,0
30003,-100,4,3,2,80,0,0
30093,-100,4,3,1,80,0,0
31094,-62.5,4,3,1,80,0,0
31457,-76.9230769230769,4,3,2,80,0,0
31548,-100,4,3,1,80,0,0
31821,-62.5,4,3,1,80,0,0
32185,-100,4,3,1,80,0,0
32912,-100,4,3,2,80,0,0
33002,-100,4,3,1,80,0,0
34366,-100,4,3,2,80,0,0
34456,-100,4,3,1,80,0,0
35094,-76.9230769230769,4,3,3,90,0,1
35821,-76.9230769230769,4,1,0,80,0,1
35912,-76.9230769230769,4,3,3,90,0,1
37275,-76.9230769230769,4,1,0,80,0,1
37366,-76.9230769230769,4,3,3,90,0,1
38730,-76.9230769230769,4,1,0,80,0,1
38821,-76.9230769230769,4,3,3,90,0,1
40185,-76.9230769230769,4,1,0,80,0,1
40366,-76.9230769230769,4,3,3,90,0,1
40457,-76.9230769230769,4,1,0,80,0,1
40548,-76.9230769230769,4,3,3,90,0,1
40639,-76.9230769230769,4,1,0,80,0,1
40730,-76.9230769230769,4,3,3,90,0,1
40821,-76.9230769230769,4,1,0,80,0,1
40912,-76.9230769230769,4,3,3,90,0,1
41639,-76.9230769230769,4,1,0,80,0,1
41730,-76.9230769230769,4,3,3,90,0,1
43093,-76.9230769230769,4,1,0,80,0,1
43184,-76.9230769230769,4,3,3,90,0,1
43457,-40.3225806451613,4,3,3,90,0,1
43639,-76.9230769230769,4,3,3,90,0,1
44548,-76.9230769230769,4,1,0,80,0,1
44639,-76.9230769230769,4,3,3,90,0,1
46003,-76.9230769230769,4,1,0,80,0,1
46184,-76.9230769230769,4,3,3,90,0,1
46275,-76.9230769230769,4,1,0,80,0,1
46366,-76.9230769230769,4,3,3,90,0,1
46457,-76.9230769230769,4,1,0,80,0,1
46548,-76.9230769230769,4,3,3,90,0,1
46639,-76.9230769230769,4,1,0,80,0,1
46730,-100,4,1,2,80,0,0
46912,-100,4,2,0,50,0,0
51094,-100,4,2,0,55,0,0
52548,-100,4,2,0,60,0,0
54003,-100,4,2,0,65,0,0
55457,-100,4,2,0,70,0,0
56912,-100,4,2,0,75,0,0
57639,-100,4,2,0,80,0,0
58003,-100,4,2,0,85,0,0
58366,-100,4,1,1,80,0,0
58548,-100,4,2,1,60,0,0
69275,-100,4,2,1,70,0,0
69639,-100,4,2,1,80,0,0
70003,-100,4,1,1,80,0,0
70185,-100,4,2,1,50,0,0
70548,-100,4,3,0,50,0,0
71457,-100,4,2,1,50,0,0
72003,-100,4,3,0,50,0,0
72912,-100,4,2,1,60,0,0
73457,-100,4,3,0,50,0,0
74366,-100,4,2,1,60,0,0
74912,-100,4,3,0,50,0,0
75094,-100,4,2,1,60,0,0
75275,-100,4,3,0,50,0,0
75457,-100,4,2,1,60,0,0
75639,-100,4,3,0,50,0,0
75821,-100,4,2,1,70,0,0
76003,-100,4,3,0,50,0,0
76185,-100,4,2,1,70,0,0
76366,-100,4,3,0,50,0,0
76548,-100,4,2,1,70,0,0
76730,-100,4,3,0,50,0,0
76912,-100,4,2,1,70,0,0
77094,-100,4,3,0,50,0,0
77275,-100,4,2,1,70,0,0
77457,-100,4,3,0,50,0,0
77639,-100,4,2,1,70,0,0
77820,-100,4,3,0,50,0,0
78002,-100,4,2,1,70,0,0
78184,-100,4,3,0,50,0,0
78366,-100,4,2,1,70,0,0
78548,-100,4,3,0,50,0,0
78730,-100,4,2,1,75,0,0
78912,-100,4,3,0,50,0,0
79094,-100,4,2,1,75,0,0
79275,-100,4,3,0,50,0,0
79457,-100,4,2,1,75,0,0
79639,-100,4,3,0,50,0,0
79821,-100,4,2,1,75,0,0
80003,-100,4,3,0,50,0,0
80185,-100,4,2,1,75,0,0
80367,-100,4,3,0,50,0,0
80549,-100,4,2,1,75,0,0
80730,-100,4,3,0,50,0,0
80912,-100,4,2,1,80,0,0
81094,-100,4,3,0,50,0,0
81276,-100,4,2,1,80,0,0
81458,-100,4,3,0,50,0,0
81639,-100,4,1,1,80,0,0
87639,-100,4,1,0,70,0,0
87730,-100,4,1,1,80,0,0
87821,-100,4,1,0,70,0,0
87912,-100,4,1,1,80,0,0
88184,-100,4,1,0,70,0,0
88275,-100,4,1,1,80,0,0
89093,-100,4,1,0,70,0,0
89184,-100,4,1,1,80,0,0
89275,-100,4,1,0,70,0,0
89366,-100,4,1,1,80,0,0
89639,-100,4,1,0,70,0,0
89730,-100,4,1,1,80,0,0
90457,-100,4,1,0,70,0,0
90912,-100,4,1,1,80,0,0
91003,-100,4,1,0,70,0,0
91275,-100,4,1,1,80,0,0
91366,-100,4,1,0,70,0,0
91457,-100,4,1,1,80,0,0
91912,-100,4,1,0,70,0,0
92366,-100,4,1,1,80,0,0
92457,-100,4,1,0,70,0,0
92548,-100,4,2,0,60,0,0
92594,-100,4,2,0,30,0,0
92730,-100,4,2,0,60,0,0
92776,-100,4,2,0,30,0,0
92912,-100,4,2,0,60,0,0
92958,-100,4,2,0,30,0,0
93094,-100,4,2,0,60,0,0
93140,-100,4,2,0,30,0,0
93275,-100,4,3,1,80,0,0
94003,-100,4,3,2,80,0,0
94093,-100,4,3,1,80,0,0
95094,-62.5,4,3,1,80,0,0
95457,-76.9230769230769,4,3,2,80,0,0
95548,-100,4,3,1,80,0,0
95821,-100,4,3,1,80,0,0
96912,-100,4,3,2,80,0,0
97002,-100,4,3,1,80,0,0
98366,-100,4,3,2,80,0,0
98456,-100,4,3,1,80,0,0
99821,-100,4,3,2,80,0,0
99911,-100,4,3,1,80,0,0
100912,-62.5,4,3,1,80,0,0
101275,-76.9230769230769,4,3,2,80,0,0
101366,-100,4,3,1,80,0,0
101639,-40.650406504065,4,3,1,80,0,0
102003,-100,4,3,1,80,0,0
102730,-100,4,3,2,80,0,0
102820,-100,4,3,1,80,0,0
104184,-100,4,3,2,80,0,0
104274,-100,4,3,1,80,0,0
104912,-76.9230769230769,4,3,3,90,0,1
105639,-76.9230769230769,4,1,0,80,0,1
105730,-76.9230769230769,4,3,3,90,0,1
107093,-76.9230769230769,4,1,0,80,0,1
107184,-76.9230769230769,4,3,3,90,0,1
108548,-76.9230769230769,4,1,0,80,0,1
108639,-76.9230769230769,4,3,3,90,0,1
110003,-76.9230769230769,4,1,0,80,0,1
110184,-76.9230769230769,4,3,3,90,0,1
110275,-76.9230769230769,4,1,0,80,0,1
110366,-76.9230769230769,4,3,3,90,0,1
110457,-76.9230769230769,4,1,0,80,0,1
110548,-76.9230769230769,4,3,3,90,0,1
110639,-76.9230769230769,4,1,0,80,0,1
110730,-76.9230769230769,4,3,3,90,0,1
111457,-76.9230769230769,4,1,0,80,0,1
111548,-76.9230769230769,4,3,3,90,0,1
112911,-76.9230769230769,4,1,0,80,0,1
113002,-76.9230769230769,4,3,3,90,0,1
113275,-40.3225806451613,4,3,3,90,0,1
113457,-76.9230769230769,4,3,3,90,0,1
114366,-76.9230769230769,4,1,0,80,0,1
114457,-76.9230769230769,4,3,3,90,0,1
115821,-76.9230769230769,4,1,0,80,0,1
116002,-76.9230769230769,4,3,3,90,0,1
116093,-76.9230769230769,4,1,0,80,0,1
116184,-76.9230769230769,4,3,3,90,0,1
116275,-76.9230769230769,4,1,0,80,0,1
116366,-76.9230769230769,4,3,3,90,0,1
116457,-76.9230769230769,4,1,0,80,0,1
116548,-100,4,1,2,80,0,0
116730,-100,4,2,0,50,0,0
120912,-100,4,2,0,55,0,0
122366,-100,4,2,0,60,0,0
123821,-100,4,2,0,65,0,0
125275,-100,4,2,0,70,0,0
126730,-100,4,2,0,75,0,0
127457,-100,4,2,0,80,0,0
127821,-100,4,2,0,85,0,0
128184,-100,4,1,1,80,0,0
128366,-100,4,2,1,60,0,0
139093,-100,4,2,1,70,0,0
139457,-100,4,2,1,80,0,0
139821,-100,4,1,1,80,0,0
140003,-100,4,2,1,50,0,0
140548,-100,4,2,1,45,0,0
140912,-100,4,2,1,40,0,0
141275,-100,4,2,1,35,0,0
141639,-100,4,2,1,30,0,0
142003,-100,4,2,1,25,0,0
142366,-100,4,2,1,20,0,0
142730,-100,4,2,1,15,0,0
143094,-100,4,2,1,10,0,0
143457,-100,4,2,1,5,0,0

[Colours]
Combo1 : 159,64,255
Combo2 : 243,89,34
Combo3 : 255,96,255
Combo4 : 255,255,0

[HitObjects]
32,192,6003,5,2,0:0:0:0:
256,192,6366,1,0,0:0:0:0:
32,192,6730,1,2,0:0:0:0:
256,192,7094,1,0,0:0:0:0:
480,192,7457,5,2,0:0:0:0:
256,192,7821,1,0,0:0:0:0:
480,192,8185,1,2,0:0:0:0:
256,192,8548,1,0,0:0:0:0:
32,192,8912,6,0,L|144:192,2,110,2|0|0,0:0|0:0|0:0,0:0:0:0:
256,192,9639,2,0,L|368:192,2,110,2|0|0,0:0|0:0|0:0,0:0:0:0:
480,192,10366,6,0,L|368:192,1,110,2|0,0:0|0:0,0:0:0:0:
256,96,10730,2,0,L|368:96,1,110,2|0,0:0|0:0,0:0:0:0:
272,192,11094,2,0,L|160:192,1,110,2|0,0:0|0:0,0:0:0:0:
304,192,11457,1,2,0:0:0:0:
128,192,11639,1,2,0:0:0:0:
400,192,11821,5,14,0:0:0:0:
256,192,12003,2,0,L|320:192,2,55,0|0|0,0:0|0:0|0:0,0:0:0:0:
432,192,12366,2,0,P|468:144|432:0,1,220,2|2,0:0|0:0,0:0:0:0:
376,0,12821,1,0,0:0:0:0:
432,0,12912,1,2,0:0:0:0:
288,0,13094,1,2,0:0:0:0:
32,192,13275,6,0,L|80:160,1,55,10|0,0:0|0:0,0:0:0:0:
176,160,13457,1,0,0:0:0:0:
32,192,13639,1,0,0:0:0:0:
96,192,13730,1,0,0:0:0:0:
160,192,13821,1,2,0:0:0:0:
96,192,13912,1,0,0:0:0:0:
160,192,14003,2,0,L|48:192,1,110,0|2,0:0|0:0,0:0:0:0:
192,192,14366,2,0,L|128:192,2,55,2|0|2,0:0|0:0|0:0,0:0:0:0:
240,192,14639,2,0,L|224:168,1,27.5
112,192,14730,5,10,0:0:0:0:
256,192,14912,2,0,L|192:192,2,55,0|0|0,0:0|0:0|0:0,0:0:0:0:
80,192,15275,2,0,P|44:144|80:0,1,220,2|2,0:0|0:0,0:0:0:0:
136,0,15730,1,0,0:0:0:0:
80,0,15821,1,2,0:0:0:0:
224,0,16003,1,2,0:0:0:0:
480,192,16185,6,0,L|432:160,1,55,10|0,0:0|0:0,0:0:0:0:
336,160,16366,1,0,0:0:0:0:
480,192,16548,1,0,0:0:0:0:
416,192,16639,1,0,0:0:0:0:
352,192,16730,1,2,0:0:0:0:
416,192,16821,1,0,0:0:0:0:
352,128,16912,1,0,0:0:0:0:
416,128,17003,1,0,0:0:0:0:
448,80,17094,1,2,0:0:0:0:
416,32,17185,1,0,0:0:0:0:
352,32,17275,1,2,0:0:0:0:
272,32,17366,1,0,0:0:0:0:
352,32,17457,1,2,0:0:0:0:
272,32,17548,1,0,0:0:0:0:
112,192,17639,5,10,0:0:0:0:
256,192,17821,2,0,L|256:128,1,55,0|0,0:0|0:0,0:0:0:0:
192,112,18003,1,0,0:0:0:0:
368,192,18185,2,0,L|400:80,2,110,2|0|2,0:0|0:0|0:0,0:0:0:0:
312,0,18639,1,0,0:0:0:0:
368,0,18730,1,2,0:0:0:0:
224,0,18912,1,2,0:0:0:0:
480,192,19094,6,0,L|432:160,1,55,10|0,0:0|0:0,0:0:0:0:
336,160,19275,1,0,0:0:0:0:
480,192,19457,1,0,0:0:0:0:
416,192,19548,1,0,0:0:0:0:
352,192,19639,1,2,0:0:0:0:
416,192,19730,1,0,0:0:0:0:
352,192,19821,2,0,L|464:192,1,110,0|2,0:0|0:0,0:0:0:0:
320,144,20185,2,0,L|368:112,1,55,2|0,0:0|0:0,0:0:0:0:
464,112,20366,1,2,0:0:0:0:
208,192,20548,6,0,L|208:128,1,55,10|0,0:0|0:0,0:0:0:0:
272,96,20730,1,0,0:0:0:0:
208,64,20821,1,0,0:0:0:0:
112,192,20912,2,0,L|112:128,1,55,0|0,0:0|0:0,0:0:0:0:
208,192,21094,2,0,L|208:128,1,55,2|0,0:0|0:0,0:0:0:0:
144,96,21275,1,0,0:0:0:0:
288,96,21457,2,0,L|224:96,2,55,2|0|2,0:0|0:0|0:0,0:0:0:0:
144,96,21821,1,2,0:0:0:0:
416,192,22003,5,10,0:0:0:0:
352,192,22094,1,0,0:0:0:0:
256,160,22185,2,0,L|256:224,1,55
416,192,22366,1,0,0:0:0:0:
352,192,22457,1,0,0:0:0:0:
288,192,22548,1,2,0:0:0:0:
352,192,22639,1,0,0:0:0:0:
416,192,22730,6,0,L|432:80,3,110,2|2|2|2,0:0|0:0|0:0|0:0,0:0:0:0:
112,80,23457,5,12,0:0:0:0:
256,80,23639,2,0,L|192:80,2,55,2|0|2,0:0|0:0|0:0,0:0:0:0:
80,192,24003,1,8,0:0:0:0:
352,192,24185,2,0,L|368:80,1,110,10|2,0:0|0:0,0:0:0:0:
336,64,24457,1,0,0:0:0:0:
272,64,24548,1,0,0:0:0:0:
416,64,24730,1,2,0:0:0:0:
144,192,24912,5,8,0:0:0:0:
208,192,25003,1,0,0:0:0:0:
144,192,25094,1,2,0:0:0:0:
208,192,25185,1,0,0:0:0:0:
304,128,25275,2,0,L|128:128,1,176,2|8,0:0|0:0,0:0:0:0:
400,128,25639,2,0,L|256:128,1,142.99999345398,8|2,0:0|2:0,0:0:0:0:
400,192,26003,2,0,L|288:192,1,110,2|2,0:0|2:0,0:0:0:0:
16,192,26366,5,8,0:0:0:0:
80,192,26457,1,0,0:0:0:0:
144,192,26548,1,2,0:0:0:0:
80,192,26639,1,0,0:0:0:0:
144,192,26730,1,2,0:0:0:0:
320,192,26912,1,8,0:0:0:0:
48,128,27094,1,10,0:0:0:0:
192,128,27275,1,2,0:0:0:0:
464,192,27457,1,0,0:0:0:0:
400,192,27548,1,0,0:0:0:0:
240,192,27639,1,2,0:0:0:0:
304,192,27730,1,0,0:0:0:0:
464,96,27821,5,8,0:0:0:0:
320,96,28003,1,2,0:0:0:0:
464,192,28185,1,2,0:0:0:0:
400,192,28275,1,0,0:0:0:0:
464,192,28366,1,8,0:0:0:0:
400,192,28457,1,0,0:0:0:0:
240,192,28548,1,10,0:0:0:0:
352,192,28730,1,10,0:0:0:0:
208,256,28912,1,8,0:0:0:0:
384,256,29094,1,10,0:0:0:0:
112,80,29275,5,12,0:0:0:0:
256,80,29457,2,0,L|192:80,2,55,2|0|2,0:0|0:0|0:0,0:0:0:0:
320,80,29730,1,0,0:0:0:0:
416,192,29821,1,8,0:0:0:0:
144,192,30003,2,0,L|128:80,1,110,10|2,0:0|0:0,0:0:0:0:
192,64,30275,1,0,0:0:0:0:
224,64,30366,1,0,0:0:0:0:
80,64,30548,1,2,0:0:0:0:
352,192,30730,5,8,0:0:0:0:
288,192,30821,1,0,0:0:0:0:
352,192,30912,1,2,0:0:0:0:
288,192,31003,1,0,0:0:0:0:
192,128,31094,2,0,L|368:128,1,176,2|8,0:0|0:0,0:0:0:0:
96,128,31457,2,0,L|240:128,1,142.99999345398,8|2,0:0|2:0,0:0:0:0:
384,192,31821,2,0,L|208:192,1,176,2|2,0:0|2:0,0:0:0:0:
480,192,32185,5,8,0:0:0:0:
416,192,32275,1,0,0:0:0:0:
352,192,32366,1,2,0:0:0:0:
416,192,32457,1,0,0:0:0:0:
352,192,32548,1,2,0:0:0:0:
176,192,32730,1,8,0:0:0:0:
448,128,32912,1,10,0:0:0:0:
304,128,33094,1,2,0:0:0:0:
32,192,33275,1,0,0:0:0:0:
96,192,33366,1,0,0:0:0:0:
256,192,33457,1,2,0:0:0:0:
192,192,33548,1,0,0:0:0:0:
32,96,33639,5,8,0:0:0:0:
176,96,33821,1,2,0:0:0:0:
32,192,34003,1,2,0:0:0:0:
96,192,34094,1,0,0:0:0:0:
32,192,34185,1,8,0:0:0:0:
96,192,34275,1,0,0:0:0:0:
256,192,34366,2,0,L|272:272,1,82.5,10|2,0:0|2:0,0:0:0:0:
176,272,34639,1,2,2:0:0:0:
256,192,34730,2,0,L|240:272,1,82.5,10|2,0:0|2:0,0:0:0:0:
336,272,35003,1,2,2:0:0:0:
128,192,35094,6,0,L|112:112,1,71.4999967269899,12|0,0:0|0:0,0:0:0:0:
208,128,35275,1,2,0:0:0:0:
480,128,35457,2,0,L|336:128,1,142.99999345398,8|0,0:0|0:0,0:0:0:0:
64,128,35821,1,8,0:0:0:0:
208,128,36003,1,2,0:0:0:0:
112,128,36094,1,2,0:0:0:0:
304,128,36185,2,0,L|320:272,1,142.99999345398,8|2,0:0|0:0,0:0:0:0:
48,272,36548,6,0,L|128:272,1,71.4999967269899,8|0,0:0|0:0,0:0:0:0:
48,272,36730,2,0,L|48:192,1,71.4999967269899,2|0,0:0|0:0,0:0:0:0:
240,192,36912,1,8,0:0:0:0:
304,192,37003,1,0,0:0:0:0:
240,192,37094,1,2,0:0:0:0:
304,192,37185,1,0,0:0:0:0:
112,192,37275,2,0,L|96:48,1,142.99999345398,8|2,0:0|0:0,0:0:0:0:
160,32,37548,1,2,0:0:0:0:
352,32,37639,2,0,L|208:32,1,142.99999345398,8|2,0:0|0:0,0:0:0:0:
209,32,37912,1,0,0:0:0:0:
400,192,38003,5,8,0:0:0:0:
256,192,38185,2,0,L|240:112,1,71.4999967269899,2|0,0:0|0:0,0:0:0:0:
432,192,38366,2,0,L|448:48,1,142.99999345398,8|0,0:0|0:0,0:0:0:0:
176,192,38730,2,0,L|192:112,1,71.4999967269899,8|0,0:0|0:0,0:0:0:0:
288,112,38912,1,2,0:0:0:0:
16,128,39094,2,0,L|160:128,1,142.99999345398,8|2,0:0|0:0,0:0:0:0:
96,128,39366,1,0,0:0:0:0:
288,192,39457,6,0,L|304:224,2,35.749998363495,8|0|0,0:0|0:0|0:0,0:0:0:0:
192,256,39639,1,2,0:0:0:0:
272,256,39730,1,0,0:0:0:0:
464,112,39821,1,8,0:0:0:0:
432,112,39866,1,0,0:0:0:0:
400,112,39912,1,0,0:0:0:0:
464,48,40003,1,2,0:0:0:0:
400,48,40094,1,0,0:0:0:0:
208,192,40185,6,0,L|192:224,2,35.749998363495,8|0|0,0:0|0:0|0:0,0:0:0:0:
304,256,40366,2,0,L|320:176,1,71.4999967269899,2|0,0:0|0:0,0:0:0:0:
128,112,40548,2,0,L|48:112,1,71.4999967269899,8|0,0:0|0:0,0:0:0:0:
248,192,40730,2,0,L|320:192,1,71.4999967269899,2|0,0:0|0:0,0:0:0:0:
128,192,40912,6,0,L|128:112,1,71.4999967269899,12|0,0:0|0:0,0:0:0:0:
224,192,41094,2,0,L|224:120,1,71.4999967269899,2|0,0:0|0:0,0:0:0:0:
32,128,41275,2,0,L|176:128,1,142.99999345398,8|0,0:0|0:0,0:0:0:0:
448,128,41639,1,8,0:0:0:0:
304,128,41821,1,2,0:0:0:0:
400,128,41912,1,2,0:0:0:0:
208,128,42003,2,0,L|192:272,1,142.99999345398,8|2,0:0|0:0,0:0:0:0:
464,272,42366,6,0,L|480:192,1,71.4999967269899,8|0,0:0|0:0,0:0:0:0:
272,208,42548,2,0,L|192:208,1,71.4999967269899,2|0,0:0|0:0,0:0:0:0:
416,208,42730,2,0,L|496:208,1,71.4999967269899,8|0,0:0|0:0,0:0:0:0:
272,208,42912,2,0,L|256:128,1,71.4999967269899,2|0,0:0|0:0,0:0:0:0:
464,192,43094,2,0,L|480:48,1,142.99999345398,8|2,0:0|0:0,0:0:0:0:
416,32,43366,1,2,0:0:0:0:
224,32,43457,2,0,L|496:32,1,272.799989177247,8|2,0:0|0:0,0:0:0:0:
336,32,43730,1,0,0:0:0:0:
176,288,43821,6,0,L|160:144,1,142.99999345398,8|2,0:0|0:0,0:0:0:0:
224,128,44094,1,0,0:0:0:0:
416,128,44185,2,0,L|432:272,1,142.99999345398,8|2,0:0|0:0,0:0:0:0:
160,128,44548,1,8,0:0:0:0:
304,128,44730,2,0,L|224:128,1,71.4999967269899,2|0,0:0|0:0,0:0:0:0:
48,128,44912,2,0,L|32:272,1,142.99999345398,8|2,0:0|0:0,0:0:0:0:
96,288,45185,1,0,0:0:0:0:
288,192,45275,6,0,L|272:272,1,71.4999967269899,8|0,0:0|0:0,0:0:0:0:
176,192,45457,1,2,0:0:0:0:
448,272,45639,1,8,0:0:0:0:
352,272,45730,1,0,0:0:0:0:
304,208,45821,1,2,0:0:0:0:
304,144,45912,1,0,0:0:0:0:
496,160,46003,1,8,0:0:0:0:
496,96,46094,1,0,0:0:0:0:
448,32,46185,1,2,0:0:0:0:
352,32,46275,1,0,0:0:0:0:
160,192,46366,1,8,0:0:0:0:
64,192,46457,1,0,0:0:0:0:
256,32,46548,1,2,0:0:0:0:
448,32,46639,1,0,0:0:0:0:
256,32,46730,5,12,0:0:0:0:
256,192,46912,12,0,49275,0:0:0:0:
112,240,49639,6,0,L|96:128,1,110,2|0,0:0|0:0,0:0:0:0:
208,176,50003,2,0,L|192:64,1,110,2|0,0:0|0:0,0:0:0:0:
192,64,50548,1,2,0:0:0:0:
304,176,50730,2,0,L|288:64,1,110,2|0,0:0|0:0,0:0:0:0:
400,240,51094,6,0,L|416:128,1,110,2|0,0:0|0:0,0:0:0:0:
304,176,51457,2,0,L|320:64,1,110,2|0,0:0|0:0,0:0:0:0:
208,64,51821,1,2,0:0:0:0:
448,64,52185,1,10,0:0:0:0:
32,192,52548,6,0,L|144:192,1,110,2|0,0:0|0:0,0:0:0:0:
32,112,52912,2,0,L|144:112,1,110,2|0,0:0|0:0,0:0:0:0:
144,192,53457,1,2,0:0:0:0:
256,192,53639,2,0,L|144:192,1,110,2|0,0:0|0:0,0:0:0:0:
320,192,54003,6,0,L|432:192,1,110,2|0,0:0|0:0,0:0:0:0:
320,112,54366,2,0,L|432:112,1,110,2|0,0:0|0:0,0:0:0:0:
320,192,54730,2,0,L|208:192,1,110,2|0,0:0|0:0,0:0:0:0:
320,112,55094,2,0,L|208:112,1,110,2|0,0:0|0:0,0:0:0:0:
480,192,55457,6,0,L|368:192,1,110,2|0,0:0|0:0,0:0:0:0:
480,112,55821,2,0,L|368:112,1,110,2|0,0:0|0:0,0:0:0:0:
368,192,56366,1,2,0:0:0:0:
256,192,56548,2,0,L|368:192,1,110,2|0,0:0|0:0,0:0:0:0:
192,192,56912,6,0,L|80:192,1,110,2|0,0:0|0:0,0:0:0:0:
192,112,57275,2,0,L|80:112,1,110,2|0,0:0|0:0,0:0:0:0:
256,272,57639,2,0,L|368:272,1,110,2|2,0:0|0:0,0:0:0:0:
224,192,58003,1,2,0:0:0:0:
400,192,58185,1,2,0:0:0:0:
128,192,58366,5,12,0:0:0:0:
240,144,58548,2,0,L|304:144,2,55,2|0|8,0:0|0:0|0:0,0:0:0:0:
128,112,58912,1,2,0:0:0:0:
272,192,59094,1,2,3:0:0:0:
336,192,59185,1,0,0:0:0:0:
272,192,59275,2,0,L|224:240,2,55,2|0|8,0:0|0:0|0:0,0:0:0:0:
384,192,59639,1,2,0:0:0:0:
240,192,59821,6,0,L|192:144,2,55,2|0|2,3:0|0:0|0:0,0:0:0:0:
352,192,60185,2,0,L|288:192,2,55,8|0|2,0:0|0:0|0:0,0:0:0:0:
208,192,60548,2,0,L|160:240,2,55,2|0|2,3:0|0:0|0:0,0:0:0:0:
384,192,60912,1,10,0:0:0:0:
240,192,61094,1,10,0:0:0:0:
384,192,61275,5,2,3:0:0:0:
272,144,61457,2,0,L|272:80,1,55,2|0,0:0|0:0,0:0:0:0:
336,64,61639,1,8,0:0:0:0:
448,64,61821,1,2,0:0:0:0:
304,64,62003,1,2,3:0:0:0:
240,64,62094,1,0,0:0:0:0:
208,96,62185,1,2,0:0:0:0:
208,144,62275,1,0,0:0:0:0:
240,176,62366,1,8,0:0:0:0:
352,192,62548,1,2,0:0:0:0:
208,192,62730,5,2,3:0:0:0:
352,192,62912,1,2,0:0:0:0:
208,192,63094,1,8,0:0:0:0:
144,176,63185,2,0,L|144:112,1,55,0|2,0:0|0:0,0:0:0:0:
288,112,63457,2,0,L|176:112,1,110,2|2,3:0|0:0,0:0:0:0:
352,160,63821,1,10,0:0:0:0:
208,160,64003,1,10,0:0:0:0:
384,192,64185,5,2,3:0:0:0:
272,144,64366,2,0,L|208:144,2,55,2|0|8,0:0|0:0|0:0,0:0:0:0:
384,112,64730,1,2,0:0:0:0:
272,192,64912,1,2,3:0:0:0:
160,192,65094,2,0,L|112:240,2,55,2|0|8,0:0|0:0|0:0,0:0:0:0:
272,192,65457,1,2,0:0:0:0:
128,192,65639,6,0,L|80:144,2,55,2|0|2,3:0|0:0|0:0,0:0:0:0:
240,192,66003,2,0,L|176:192,2,55,8|0|2,0:0|0:0|0:0,0:0:0:0:
96,192,66366,1,2,3:0:0:0:
32,192,66457,1,0,0:0:0:0:
96,192,66548,1,2,0:0:0:0:
272,192,66730,1,10,0:0:0:0:
96,192,66912,1,10,0:0:0:0:
272,192,67094,5,2,3:0:0:0:
160,240,67275,2,0,L|160:304,1,55,2|0,0:0|0:0,0:0:0:0:
224,320,67457,1,8,0:0:0:0:
336,320,67639,1,2,0:0:0:0:
192,320,67821,1,2,3:0:0:0:
128,320,67912,1,0,0:0:0:0:
96,288,68003,1,2,0:0:0:0:
96,240,68094,1,0,0:0:0:0:
128,208,68185,1,8,0:0:0:0:
240,192,68366,1,2,0:0:0:0:
96,192,68548,5,2,3:0:0:0:
240,112,68730,1,8,0:0:0:0:
176,112,68821,1,2,0:0:0:0:
320,192,69003,1,2,0:0:0:0:
416,192,69094,1,10,0:0:0:0:
272,272,69275,1,2,3:0:0:0:
416,272,69457,1,10,0:0:0:0:
240,192,69639,1,10,0:0:0:0:
416,192,69821,1,10,0:0:0:0:
139,192,70003,5,12,0:0:0:0:
374,192,70366,1,8,0:0:0:0:
256,192,70548,1,8,3:0:0:0:
139,192,70912,1,0,3:0:0:0:
139,192,71094,1,0,3:0:0:0:
139,192,71275,1,0,3:0:0:0:
387,192,71457,5,8,0:0:0:0:
127,192,71821,1,8,0:0:0:0:
256,192,72003,1,8,0:0:0:0:
387,192,72366,1,0,0:0:0:0:
387,192,72548,1,0,0:0:0:0:
387,192,72730,1,0,0:0:0:0:
115,192,72912,5,8,0:0:0:0:
399,192,73275,1,8,0:0:0:0:
256,192,73457,1,8,0:0:0:0:
115,192,73821,1,0,0:0:0:0:
115,192,74003,1,0,0:0:0:0:
115,192,74185,1,0,0:0:0:0:
414,192,74366,5,8,0:0:0:0:
104,192,74730,1,8,0:0:0:0:
256,192,74912,1,8,0:0:0:0:
16,192,75094,1,8,0:0:0:0:
174,192,75275,1,8,0:0:0:0:
413,256,75457,1,8,0:0:0:0:
256,256,75639,1,8,0:0:0:0:
496,48,75821,6,0,L|384:48,1,110,10|0,0:0|0:0,0:0:0:0:
240,128,76185,2,0,L|352:128,1,110,10|0,0:0|0:0,0:0:0:0:
496,208,76548,2,0,L|480:96,1,110,2|0,0:0|0:0,0:0:0:0:
336,208,76912,2,0,L|320:96,1,110,2|0,0:0|0:0,0:0:0:0:
48,48,77275,6,0,L|160:48,1,110,10|0,0:0|0:0,0:0:0:0:
304,128,77639,2,0,L|192:128,1,110,10|0,0:0|0:0,0:0:0:0:
48,208,78003,1,2,0:0:0:0:
192,208,78185,1,0,0:0:0:0:
48,208,78366,1,2,0:0:0:0:
192,208,78548,1,0,0:0:0:0:
464,48,78730,6,0,L|352:48,1,110,10|0,0:0|0:0,0:0:0:0:
208,128,79094,2,0,L|320:128,1,110,10|0,0:0|0:0,0:0:0:0:
208,208,79457,1,2,0:0:0:0:
352,208,79639,1,0,0:0:0:0:
208,208,79821,1,2,0:0:0:0:
352,208,80003,1,0,0:0:0:0:
80,48,80185,6,0,L|192:48,1,110,10|0,0:0|0:0,0:0:0:0:
336,128,80548,2,0,L|224:128,1,110,10|0,0:0|0:0,0:0:0:0:
368,208,80912,2,0,L|480:208,1,110,10|0,0:0|0:0,0:0:0:0:
208,272,81275,1,10,0:0:0:0:
480,272,81457,1,2,0:0:0:0:
112,192,81639,5,14,0:0:0:0:
256,192,81821,2,0,L|192:192,2,55,0|0|0,0:0|0:0|0:0,0:0:0:0:
80,192,82185,2,0,P|44:144|80:0,1,220,2|2,0:0|0:0,0:0:0:0:
136,0,82639,1,0,0:0:0:0:
80,0,82730,1,2,0:0:0:0:
224,0,82912,1,2,0:0:0:0:
480,192,83094,6,0,L|432:160,1,55,10|0,0:0|0:0,0:0:0:0:
336,160,83275,1,0,0:0:0:0:
480,192,83457,1,0,0:0:0:0:
416,192,83548,1,0,0:0:0:0:
352,192,83639,1,2,0:0:0:0:
416,192,83730,1,0,0:0:0:0:
352,192,83821,2,0,L|464:192,1,110,0|2,0:0|0:0,0:0:0:0:
320,192,84185,2,0,L|384:192,2,55,2|0|2,0:0|0:0|0:0,0:0:0:0:
272,192,84457,2,0,L|288:168,1,27.5
400,192,84548,5,10,0:0:0:0:
256,192,84730,2,0,L|320:192,2,55,0|0|0,0:0|0:0|0:0,0:0:0:0:
432,192,85094,2,0,P|468:144|432:0,1,220,2|2,0:0|0:0,0:0:0:0:
376,0,85548,1,0,0:0:0:0:
432,0,85639,1,2,0:0:0:0:
288,0,85821,1,2,0:0:0:0:
32,192,86003,6,0,L|80:160,1,55,10|0,0:0|0:0,0:0:0:0:
176,160,86185,1,0,0:0:0:0:
32,192,86366,1,0,0:0:0:0:
96,192,86457,1,0,0:0:0:0:
160,192,86548,1,2,0:0:0:0:
96,192,86639,1,0,0:0:0:0:
160,128,86730,1,0,0:0:0:0:
96,128,86821,1,0,0:0:0:0:
64,80,86912,1,2,0:0:0:0:
96,32,87003,1,0,0:0:0:0:
160,32,87094,1,2,0:0:0:0:
240,32,87185,1,0,0:0:0:0:
160,32,87275,1,2,0:0:0:0:
240,32,87366,1,0,0:0:0:0:
400,192,87457,5,10,0:0:0:0:
256,192,87639,2,0,L|256:128,1,55,0|0,0:0|0:0,0:0:0:0:
320,112,87821,1,0,0:0:0:0:
144,192,88003,2,0,L|112:80,2,110,2|0|2,0:0|0:0|0:0,0:0:0:0:
200,0,88457,1,0,0:0:0:0:
144,0,88548,1,2,0:0:0:0:
288,0,88730,1,2,0:0:0:0:
32,192,88912,6,0,L|80:160,1,55,10|0,0:0|0:0,0:0:0:0:
176,160,89094,1,0,0:0:0:0:
32,192,89275,1,0,0:0:0:0:
96,192,89366,1,0,0:0:0:0:
160,192,89457,1,2,0:0:0:0:
96,192,89548,1,0,0:0:0:0:
160,192,89639,2,0,L|48:192,1,110,0|2,0:0|0:0,0:0:0:0:
192,144,90003,2,0,L|144:112,1,55,2|0,0:0|0:0,0:0:0:0:
48,112,90185,1,2,0:0:0:0:
304,192,90366,6,0,L|304:128,1,55,10|0,0:0|0:0,0:0:0:0:
240,96,90548,1,0,0:0:0:0:
304,64,90639,1,0,0:0:0:0:
400,192,90730,2,0,L|400:128,1,55,0|0,0:0|0:0,0:0:0:0:
304,192,90912,2,0,L|304:128,1,55,2|0,0:0|0:0,0:0:0:0:
368,96,91094,1,0,0:0:0:0:
224,96,91275,2,0,L|288:96,2,55,2|0|2,0:0|0:0|0:0,0:0:0:0:
368,96,91639,1,2,0:0:0:0:
96,192,91821,5,10,0:0:0:0:
160,192,91912,1,0,0:0:0:0:
256,160,92003,2,0,L|256:224,1,55
96,192,92185,1,0,0:0:0:0:
160,192,92275,1,0,0:0:0:0:
224,192,92366,1,2,0:0:0:0:
160,192,92457,1,0,0:0:0:0:
96,192,92548,5,2,0:0:0:0:
48,192,92594,1,0,0:0:0:0:
48,112,92730,1,2,0:0:0:0:
96,112,92775,1,0,0:0:0:0:
96,192,92912,1,2,0:0:0:0:
48,192,92957,1,0,0:0:0:0:
48,272,93094,1,2,0:0:0:0:
96,272,93139,1,0,0:0:0:0:
400,80,93275,5,12,0:0:0:0:
256,80,93457,2,0,L|320:80,2,55,2|0|2,0:0|0:0|0:0,0:0:0:0:
432,192,93821,1,8,0:0:0:0:
160,192,94003,2,0,L|144:80,1,110,10|2,0:0|0:0,0:0:0:0:
176,64,94275,1,0,0:0:0:0:
240,64,94366,1,0,0:0:0:0:
96,64,94548,1,2,0:0:0:0:
368,192,94730,5,8,0:0:0:0:
304,192,94821,1,0,0:0:0:0:
368,192,94912,1,2,0:0:0:0:
304,192,95003,1,0,0:0:0:0:
208,128,95094,2,0,L|384:128,1,176,2|8,0:0|0:0,0:0:0:0:
112,128,95457,2,0,L|256:128,1,142.99999345398,8|2,0:0|2:0,0:0:0:0:
112,192,95821,2,0,L|224:192,1,110,2|2,0:0|2:0,0:0:0:0:
496,192,96185,5,8,0:0:0:0:
432,192,96275,1,0,0:0:0:0:
368,192,96366,1,2,0:0:0:0:
432,192,96457,1,0,0:0:0:0:
368,192,96548,1,2,0:0:0:0:
192,192,96730,1,8,0:0:0:0:
464,128,96912,1,10,0:0:0:0:
320,128,97094,1,2,0:0:0:0:
48,192,97275,1,0,0:0:0:0:
112,192,97366,1,0,0:0:0:0:
272,192,97457,1,2,0:0:0:0:
208,192,97548,1,0,0:0:0:0:
48,96,97639,5,8,0:0:0:0:
192,96,97821,1,2,0:0:0:0:
128,96,97912,1,0,0:0:0:0:
32,192,98003,1,2,0:0:0:0:
96,192,98094,1,0,0:0:0:0:
32,192,98185,1,8,0:0:0:0:
96,192,98275,1,0,0:0:0:0:
256,192,98366,1,10,0:0:0:0:
112,192,98548,1,10,0:0:0:0:
288,256,98730,1,8,0:0:0:0:
112,256,98912,1,10,0:0:0:0:
384,80,99094,5,12,0:0:0:0:
240,80,99275,2,0,L|304:80,2,55,2|0|2,0:0|0:0|0:0,0:0:0:0:
96,192,99639,1,8,0:0:0:0:
368,192,99821,2,0,L|384:80,1,110,10|2,0:0|0:0,0:0:0:0:
320,64,100094,1,0,0:0:0:0:
288,64,100185,1,0,0:0:0:0:
432,64,100366,1,2,0:0:0:0:
160,192,100548,5,8,0:0:0:0:
224,192,100639,1,0,0:0:0:0:
160,192,100730,1,2,0:0:0:0:
224,192,100821,1,0,0:0:0:0:
320,128,100912,2,0,L|144:128,1,176,2|8,0:0|0:0,0:0:0:0:
416,128,101275,1,8,0:0:0:0:
304,128,101412,1,2,2:0:0:0:
192,128,101548,1,2,2:0:0:0:
33,192,101639,2,0,L|304:192,1,270.600004129028,2|2,0:0|2:0,0:0:0:0:
32,192,102003,5,8,0:0:0:0:
96,192,102094,1,0,0:0:0:0:
160,192,102185,1,2,0:0:0:0:
96,192,102275,1,0,0:0:0:0:
160,192,102366,1,2,0:0:0:0:
336,192,102548,1,8,0:0:0:0:
64,128,102730,1,10,0:0:0:0:
208,128,102912,1,2,0:0:0:0:
480,192,103094,1,0,0:0:0:0:
416,192,103185,1,0,0:0:0:0:
256,192,103275,1,2,0:0:0:0:
320,192,103366,1,0,0:0:0:0:
480,96,103457,5,8,0:0:0:0:
336,96,103639,1,2,0:0:0:0:
480,192,103821,1,2,0:0:0:0:
416,192,103912,1,0,0:0:0:0:
480,192,104003,1,8,0:0:0:0:
416,192,104094,1,0,0:0:0:0:
256,192,104185,1,10,0:0:0:0:
368,192,104321,1,2,2:0:0:0:
256,192,104457,1,2,2:0:0:0:
160,192,104548,1,10,0:0:0:0:
272,192,104685,1,2,2:0:0:0:
160,192,104821,1,2,2:0:0:0:
384,192,104912,6,0,L|400:112,1,71.4999967269899,12|0,0:0|0:0,0:0:0:0:
304,128,105094,1,2,0:0:0:0:
32,128,105275,2,0,L|176:128,1,142.99999345398,8|0,0:0|0:0,0:0:0:0:
448,128,105639,1,8,0:0:0:0:
304,128,105821,1,2,0:0:0:0:
400,128,105912,1,2,0:0:0:0:
208,128,106003,2,0,L|192:272,1,142.99999345398,8|2,0:0|0:0,0:0:0:0:
464,272,106366,6,0,L|384:272,1,71.4999967269899,8|0,0:0|0:0,0:0:0:0:
464,272,106548,2,0,L|464:192,1,71.4999967269899,2|0,0:0|0:0,0:0:0:0:
272,192,106730,1,8,0:0:0:0:
208,192,106821,1,0,0:0:0:0:
272,192,106912,1,2,0:0:0:0:
208,192,107003,1,0,0:0:0:0:
400,192,107094,2,0,L|416:48,1,142.99999345398,8|2,0:0|0:0,0:0:0:0:
352,32,107366,1,2,0:0:0:0:
160,32,107457,2,0,L|304:32,1,142.99999345398,8|2,0:0|0:0,0:0:0:0:
303,32,107730,1,0,0:0:0:0:
112,192,107821,5,8,0:0:0:0:
256,192,108003,2,0,L|272:112,1,71.4999967269899,2|0,0:0|0:0,0:0:0:0:
80,192,108185,2,0,L|64:48,1,142.99999345398,8|0,0:0|0:0,0:0:0:0:
336,192,108548,2,0,L|320:112,1,71.4999967269899,8|0,0:0|0:0,0:0:0:0:
224,112,108730,1,2,0:0:0:0:
496,128,108912,2,0,L|352:128,1,142.99999345398,8|2,0:0|0:0,0:0:0:0:
416,128,109185,1,0,0:0:0:0:
224,192,109275,6,0,L|224:272,1,71.4999967269899,8|0,0:0|0:0,0:0:0:0:
320,256,109457,1,2,0:0:0:0:
48,112,109639,1,8,0:0:0:0:
112,112,109730,1,0,0:0:0:0:
48,48,109821,1,2,0:0:0:0:
112,48,109912,1,0,0:0:0:0:
304,192,110003,6,0,L|384:192,1,71.4999967269899,8|0,0:0|0:0,0:0:0:0:
192,256,110185,2,0,L|192:176,1,71.4999967269899,2|0,0:0|0:0,0:0:0:0:
384,112,110366,2,0,L|464:112,1,71.4999967269899,8|0,0:0|0:0,0:0:0:0:
264,192,110548,2,0,L|192:192,1,71.4999967269899,2|0,0:0|0:0,0:0:0:0:
384,192,110730,6,0,L|464:192,1,71.4999967269899,12|0,0:0|0:0,0:0:0:0:
360,128,110912,2,0,L|288:128,1,71.4999967269899,2|0,0:0|0:0,0:0:0:0:
480,128,111094,2,0,L|336:128,1,142.99999345398,8|0,0:0|0:0,0:0:0:0:
64,128,111457,1,8,0:0:0:0:
208,128,111639,1,2,0:0:0:0:
112,128,111730,1,2,0:0:0:0:
304,128,111821,2,0,L|320:272,1,142.99999345398,8|2,0:0|0:0,0:0:0:0:
48,272,112185,6,0,L|32:192,1,71.4999967269899,8|0,0:0|0:0,0:0:0:0:
240,208,112366,2,0,L|320:208,1,71.4999967269899,2|0,0:0|0:0,0:0:0:0:
96,208,112548,2,0,L|16:208,1,71.4999967269899,8|0,0:0|0:0,0:0:0:0:
240,208,112730,2,0,L|256:128,1,71.4999967269899,2|0,0:0|0:0,0:0:0:0:
48,192,112912,2,0,L|32:48,1,142.99999345398,8|2,0:0|0:0,0:0:0:0:
96,32,113185,1,2,0:0:0:0:
288,32,113275,2,0,L|16:32,1,272.799989177247,8|2,0:0|0:0,0:0:0:0:
176,32,113548,1,0,0:0:0:0:
336,288,113639,6,0,L|352:144,1,142.99999345398,8|2,0:0|0:0,0:0:0:0:
288,128,113912,1,0,0:0:0:0:
96,128,114003,2,0,L|80:272,1,142.99999345398,8|2,0:0|0:0,0:0:0:0:
352,128,114366,1,8,0:0:0:0:
208,128,114548,2,0,L|288:128,1,71.4999967269899,2|0,0:0|0:0,0:0:0:0:
464,128,114730,2,0,L|480:272,1,142.99999345398,8|2,0:0|0:0,0:0:0:0:
416,288,115003,1,0,0:0:0:0:
224,192,115094,6,0,L|240:272,1,71.4999967269899,8|0,0:0|0:0,0:0:0:0:
336,192,115275,1,2,0:0:0:0:
64,272,115457,1,8,0:0:0:0:
160,272,115548,1,0,0:0:0:0:
208,208,115639,1,2,0:0:0:0:
208,144,115730,1,0,0:0:0:0:
16,160,115821,1,8,0:0:0:0:
16,96,115912,1,0,0:0:0:0:
64,32,116003,1,2,0:0:0:0:
160,32,116094,1,0,0:0:0:0:
352,192,116185,1,8,0:0:0:0:
448,192,116275,1,0,0:0:0:0:
256,32,116366,1,2,0:0:0:0:
64,32,116457,1,0,0:0:0:0:
256,32,116548,5,12,0:0:0:0:
256,192,116730,12,0,119094,0:0:0:0:
400,240,119457,6,0,L|416:128,1,110,2|0,0:0|0:0,0:0:0:0:
304,176,119821,2,0,L|320:64,1,110,2|0,0:0|0:0,0:0:0:0:
320,64,120366,1,2,0:0:0:0:
208,176,120548,2,0,L|224:64,1,110,2|0,0:0|0:0,0:0:0:0:
112,240,120912,6,0,L|96:128,1,110,2|0,0:0|0:0,0:0:0:0:
208,176,121275,2,0,L|192:64,1,110,2|0,0:0|0:0,0:0:0:0:
304,64,121639,1,2,0:0:0:0:
32,64,122003,1,10,0:0:0:0:
480,192,122366,6,0,L|368:192,1,110,2|0,0:0|0:0,0:0:0:0:
480,112,122730,2,0,L|368:112,1,110,2|0,0:0|0:0,0:0:0:0:
368,192,123275,1,2,0:0:0:0:
256,192,123457,2,0,L|368:192,1,110,2|0,0:0|0:0,0:0:0:0:
192,192,123821,6,0,L|80:192,1,110,2|0,0:0|0:0,0:0:0:0:
192,112,124185,2,0,L|80:112,1,110,2|0,0:0|0:0,0:0:0:0:
192,192,124548,2,0,L|304:192,1,110,2|0,0:0|0:0,0:0:0:0:
192,112,124912,2,0,L|304:112,1,110,2|0,0:0|0:0,0:0:0:0:
32,192,125275,6,0,L|144:192,1,110,2|0,0:0|0:0,0:0:0:0:
32,112,125639,2,0,L|144:112,1,110,2|0,0:0|0:0,0:0:0:0:
144,192,126185,1,2,0:0:0:0:
256,192,126366,2,0,L|144:192,1,110,2|0,0:0|0:0,0:0:0:0:
320,192,126730,6,0,L|432:192,1,110,2|0,0:0|0:0,0:0:0:0:
320,112,127094,2,0,L|432:112,1,110,2|0,0:0|0:0,0:0:0:0:
256,272,127457,2,0,L|144:272,1,110,2|2,0:0|0:0,0:0:0:0:
288,192,127821,1,2,0:0:0:0:
112,192,128003,1,2,0:0:0:0:
384,192,128185,5,12,0:0:0:0:
272,144,128366,2,0,L|208:144,2,55,2|0|8,0:0|0:0|0:0,0:0:0:0:
384,112,128730,1,2,0:0:0:0:
240,192,128912,1,2,3:0:0:0:
176,192,129003,1,0,0:0:0:0:
240,192,129094,2,0,L|288:240,2,55,2|0|8,0:0|0:0|0:0,0:0:0:0:
128,192,129457,1,2,0:0:0:0:
272,192,129639,6,0,L|320:144,2,55,2|0|2,3:0|0:0|0:0,0:0:0:0:
160,192,130003,2,0,L|224:192,2,55,8|0|2,0:0|0:0|0:0,0:0:0:0:
304,192,130366,2,0,L|352:240,2,55,2|0|2,3:0|0:0|0:0,0:0:0:0:
128,192,130730,1,10,0:0:0:0:
272,192,130912,1,10,0:0:0:0:
128,192,131094,5,2,3:0:0:0:
240,144,131275,2,0,L|240:80,1,55,2|0,0:0|0:0,0:0:0:0:
176,64,131457,1,8,0:0:0:0:
64,64,131639,1,2,0:0:0:0:
208,64,131821,1,2,3:0:0:0:
272,64,131912,1,0,0:0:0:0:
304,96,132003,1,2,0:0:0:0:
304,144,132094,1,0,0:0:0:0:
272,176,132185,1,8,0:0:0:0:
160,192,132366,1,2,0:0:0:0:
304,192,132548,5,2,3:0:0:0:
160,192,132730,1,2,0:0:0:0:
304,192,132912,1,8,0:0:0:0:
368,176,133003,2,0,L|368:112,1,55,0|2,0:0|0:0,0:0:0:0:
224,112,133275,2,0,L|336:112,1,110,2|2,3:0|0:0,0:0:0:0:
160,160,133639,1,10,0:0:0:0:
304,160,133821,1,10,0:0:0:0:
128,192,134003,5,2,3:0:0:0:
240,144,134185,2,0,L|304:144,2,55,2|0|8,0:0|0:0|0:0,0:0:0:0:
128,112,134548,1,2,0:0:0:0:
240,192,134730,1,2,3:0:0:0:
352,192,134912,2,0,L|400:240,2,55,2|0|8,0:0|0:0|0:0,0:0:0:0:
240,192,135275,1,2,0:0:0:0:
384,192,135457,6,0,L|432:144,2,55,2|0|2,3:0|0:0|0:0,0:0:0:0:
272,192,135821,2,0,L|336:192,2,55,8|0|2,0:0|0:0|0:0,0:0:0:0:
416,192,136185,1,2,3:0:0:0:
480,192,136275,1,0,0:0:0:0:
416,192,136366,1,2,0:0:0:0:
240,192,136548,1,10,0:0:0:0:
416,192,136730,1,10,0:0:0:0:
240,192,136912,5,2,3:0:0:0:
352,240,137094,2,0,L|352:304,1,55,2|0,0:0|0:0,0:0:0:0:
288,320,137275,1,8,0:0:0:0:
176,320,137457,1,2,0:0:0:0:
320,320,137639,1,2,3:0:0:0:
384,320,137730,1,0,0:0:0:0:
416,288,137821,1,2,0:0:0:0:
416,240,137912,1,0,0:0:0:0:
384,208,138003,1,8,0:0:0:0:
272,192,138185,1,2,0:0:0:0:
416,192,138366,5,2,3:0:0:0:
272,112,138548,1,8,0:0:0:0:
336,112,138639,1,2,0:0:0:0:
192,192,138821,1,2,0:0:0:0:
96,192,138912,1,10,0:0:0:0:
240,272,139094,1,2,3:0:0:0:
96,272,139275,1,10,0:0:0:0:
272,192,139457,1,10,0:0:0:0:
96,192,139639,1,10,0:0:0:0:
368,192,139821,6,0,L|384:160,4,27.5,12|0|0|0|0,0:0|0:0|0:0|0:0|0:0,0:0:0:0:
256,192,140094,12,0,143457,0:0:0:0:
