osu file format v14

[General]
AudioFilename: audio.mp3
AudioLeadIn: 0
PreviewTime: 23457
Countdown: 0
SampleSet: Drum
StackLeniency: 0.7
Mode: 2
LetterboxInBreaks: 0
WidescreenStoryboard: 1

[Editor]
Bookmarks: 185,23457,46730,70003,81639,93275,116548
DistanceSpacing: 1
BeatDivisor: 4
GridSize: 16
TimelineZoom: 0.7

[Metadata]
Title:Wildflower
TitleUnicode:Wildflower
Artist:Kenneyon and Kara
ArtistUnicode:Kenneyon and Kara
Creator:Deif
Version:Cup
Source:
Tags:Wild Flower Kawaii Future Bass Piano Electronic Instrumental
BeatmapID:3949365
BeatmapSetID:1914385

[Difficulty]
HPDrainRate:2
CircleSize:2.5
OverallDifficulty:6
ApproachRate:6
SliderMultiplier:0.999999999999999
SliderTickRate:2

[Events]
//Background and Video events
0,0,"BG.jpg",0,0
//Break Periods
2,49839,51498
2,70203,74771
2,119657,121316
//Storyboard Layer 0 (Background)
//Storyboard Layer 1 (Fail)
//Storyboard Layer 2 (Pass)
//Storyboard Layer 3 (Foreground)
//Storyboard Layer 4 (Overlay)
//Storyboard Sound Samples

[TimingPoints]
185,363.636363636364,4,2,0,50,1,0
7457,-100,4,2,0,55,0,0
8912,-100,4,2,0,60,0,0
10366,-100,4,2,0,65,0,0
10730,-100,4,2,0,70,0,0
11094,-100,4,2,0,75,0,0
11457,-100,4,2,0,80,0,0
11821,-100,4,1,1,80,0,0
17821,-100,4,1,0,70,0,0
17912,-100,4,1,1,80,0,0
18003,-100,4,1,0,70,0,0
18094,-100,4,1,1,80,0,0
18366,-100,4,1,0,70,0,0
18457,-100,4,1,1,80,0,0
19275,-100,4,1,0,70,0,0
19366,-100,4,1,1,80,0,0
19457,-100,4,1,0,70,0,0
19548,-100,4,1,1,80,0,0
19821,-100,4,1,0,70,0,0
19912,-100,4,1,1,80,0,0
20639,-100,4,1,0,70,0,0
21094,-100,4,1,1,80,0,0
21185,-100,4,1,0,70,0,0
21457,-100,4,1,1,80,0,0
21548,-100,4,1,0,70,0,0
21639,-100,4,1,1,80,0,0
22094,-100,4,1,0,70,0,0
22548,-100,4,1,1,80,0,0
22639,-100,4,1,0,70,0,0
22730,-100,4,2,0,60,0,0
22912,-100,4,1,0,30,0,0
23094,-100,4,1,0,60,0,0
23276,-100,4,2,0,30,0,0
23457,-100,4,3,1,80,0,0
24185,-100,4,3,2,80,0,0
24275,-100,4,3,1,80,0,0
25275,-100,4,3,1,80,0,0
25639,-100,4,3,2,80,0,0
25730,-100,4,3,1,80,0,0
26003,-100,4,3,1,80,0,0
27094,-100,4,3,2,80,0,0
27184,-100,4,3,1,80,0,0
28548,-100,4,3,2,80,0,0
28638,-100,4,3,1,80,0,0
30003,-100,4,3,2,80,0,0
30093,-100,4,3,1,80,0,0
31094,-100,4,3,1,80,0,0
31457,-100,4,3,2,80,0,0
31548,-100,4,3,1,80,0,0
31821,-100,4,3,1,80,0,0
32185,-100,4,3,1,80,0,0
32912,-100,4,3,2,80,0,0
33002,-100,4,3,1,80,0,0
34366,-100,4,3,2,80,0,0
34456,-100,4,3,1,80,0,0
35094,-100,4,3,3,90,0,1
35821,-100,4,1,0,80,0,1
35912,-100,4,3,3,90,0,1
37275,-100,4,1,0,80,0,1
37366,-100,4,3,3,90,0,1
38730,-100,4,1,0,80,0,1
38821,-100,4,3,3,90,0,1
40185,-100,4,1,0,80,0,1
40366,-100,4,3,3,90,0,1
40457,-100,4,1,0,80,0,1
40548,-100,4,3,3,90,0,1
40639,-100,4,1,0,80,0,1
40730,-100,4,3,3,90,0,1
40821,-100,4,1,0,80,0,1
40912,-100,4,3,3,90,0,1
41639,-100,4,1,0,80,0,1
41730,-100,4,3,3,90,0,1
43093,-100,4,1,0,80,0,1
43184,-100,4,3,3,90,0,1
43457,-100,4,3,3,90,0,1
43639,-100,4,3,3,90,0,1
44548,-100,4,1,0,80,0,1
44639,-100,4,3,3,90,0,1
46003,-100,4,1,0,80,0,1
46184,-100,4,3,3,90,0,1
46275,-100,4,1,0,80,0,1
46366,-100,4,3,3,90,0,1
46457,-100,4,1,0,80,0,1
46548,-100,4,3,3,90,0,1
46639,-100,4,1,0,80,0,1
46730,-100,4,1,2,80,0,0
46912,-100,4,2,0,50,0,0
51094,-100,4,2,0,55,0,0
52548,-100,4,2,0,60,0,0
54003,-100,4,2,0,65,0,0
55457,-100,4,2,0,70,0,0
56912,-100,4,2,0,75,0,0
57639,-100,4,2,0,80,0,0
58003,-100,4,2,0,85,0,0
58366,-100,4,1,1,80,0,0
58548,-100,4,2,1,60,0,0
69275,-100,4,2,1,70,0,0
69639,-100,4,2,1,80,0,0
70003,-100,4,1,1,80,0,0
70185,-100,4,2,1,50,0,0
70548,-100,4,3,0,50,0,0
71457,-100,4,2,1,50,0,0
72003,-100,4,3,0,50,0,0
72912,-100,4,2,1,60,0,0
73457,-100,4,3,0,50,0,0
74366,-100,4,2,1,60,0,0
74912,-100,4,3,0,50,0,0
75094,-100,4,2,1,60,0,0
75275,-100,4,3,0,50,0,0
75457,-100,4,2,1,60,0,0
75639,-100,4,3,0,50,0,0
75821,-100,4,2,1,70,0,0
76003,-100,4,3,0,50,0,0
76185,-100,4,2,1,70,0,0
76366,-100,4,3,0,50,0,0
76548,-100,4,2,1,70,0,0
76730,-100,4,3,0,50,0,0
76912,-100,4,2,1,70,0,0
77094,-100,4,3,0,50,0,0
77275,-100,4,2,1,70,0,0
77457,-100,4,3,0,50,0,0
77639,-100,4,2,1,70,0,0
77820,-100,4,3,0,50,0,0
78002,-100,4,2,1,70,0,0
78184,-100,4,3,0,50,0,0
78366,-100,4,2,1,70,0,0
78548,-100,4,3,0,50,0,0
78730,-100,4,2,1,75,0,0
78912,-100,4,3,0,50,0,0
79094,-100,4,2,1,75,0,0
79275,-100,4,3,0,50,0,0
79457,-100,4,2,1,75,0,0
79639,-100,4,3,0,50,0,0
79821,-100,4,2,1,75,0,0
80003,-100,4,3,0,50,0,0
80185,-100,4,2,1,75,0,0
80367,-100,4,3,0,50,0,0
80549,-100,4,2,1,75,0,0
80730,-100,4,3,0,50,0,0
80912,-100,4,2,1,80,0,0
81094,-100,4,3,0,50,0,0
81276,-100,4,2,1,80,0,0
81458,-100,4,3,0,50,0,0
81639,-100,4,1,1,80,0,0
87639,-100,4,1,0,70,0,0
87730,-100,4,1,1,80,0,0
87821,-100,4,1,0,70,0,0
87912,-100,4,1,1,80,0,0
88184,-100,4,1,0,70,0,0
88275,-100,4,1,1,80,0,0
89093,-100,4,1,0,70,0,0
89184,-100,4,1,1,80,0,0
89275,-100,4,1,0,70,0,0
89366,-100,4,1,1,80,0,0
89639,-100,4,1,0,70,0,0
89730,-100,4,1,1,80,0,0
90457,-100,4,1,0,70,0,0
90912,-100,4,1,1,80,0,0
91003,-100,4,1,0,70,0,0
91275,-100,4,1,1,80,0,0
91366,-100,4,1,0,70,0,0
91457,-100,4,1,1,80,0,0
91912,-100,4,1,0,70,0,0
92366,-100,4,1,1,80,0,0
92457,-100,4,1,0,70,0,0
92548,-100,4,2,0,60,0,0
92594,-100,4,2,0,30,0,0
92730,-100,4,1,0,60,0,0
92776,-100,4,2,0,30,0,0
92912,-100,4,1,0,60,0,0
92958,-100,4,2,0,30,0,0
93094,-100,4,2,0,60,0,0
93140,-100,4,2,0,30,0,0
93275,-100,4,3,1,80,0,0
94003,-100,4,3,2,80,0,0
94093,-100,4,3,1,80,0,0
95094,-100,4,3,1,80,0,0
95457,-100,4,3,2,80,0,0
95548,-100,4,3,1,80,0,0
95821,-100,4,3,1,80,0,0
96912,-100,4,3,2,80,0,0
97002,-100,4,3,1,80,0,0
98366,-100,4,3,2,80,0,0
98456,-100,4,3,1,80,0,0
99821,-100,4,3,2,80,0,0
99911,-100,4,3,1,80,0,0
100912,-100,4,3,1,80,0,0
101275,-100,4,3,2,80,0,0
101366,-100,4,3,1,80,0,0
101639,-100,4,3,1,80,0,0
102003,-100,4,3,1,80,0,0
102730,-100,4,3,2,80,0,0
102820,-100,4,3,1,80,0,0
104184,-100,4,3,2,80,0,0
104274,-100,4,3,1,80,0,0
104912,-100,4,3,3,90,0,1
105639,-100,4,1,0,80,0,1
105730,-100,4,3,3,90,0,1
107093,-100,4,1,0,80,0,1
107184,-100,4,3,3,90,0,1
108548,-100,4,1,0,80,0,1
108639,-100,4,3,3,90,0,1
110003,-100,4,1,0,80,0,1
110184,-100,4,3,3,90,0,1
110275,-100,4,1,0,80,0,1
110366,-100,4,3,3,90,0,1
110457,-100,4,1,0,80,0,1
110548,-100,4,3,3,90,0,1
110639,-100,4,1,0,80,0,1
110730,-100,4,3,3,90,0,1
111457,-100,4,1,0,80,0,1
111548,-100,4,3,3,90,0,1
112911,-100,4,1,0,80,0,1
113002,-100,4,3,3,90,0,1
113275,-100,4,3,3,90,0,1
113457,-100,4,3,3,90,0,1
114366,-100,4,1,0,80,0,1
114457,-100,4,3,3,90,0,1
115821,-100,4,1,0,80,0,1
116002,-100,4,3,3,90,0,1
116093,-100,4,1,0,80,0,1
116184,-100,4,3,3,90,0,1
116275,-100,4,1,0,80,0,1
116366,-100,4,3,3,90,0,1
116457,-100,4,1,0,80,0,1
116548,-100,4,1,2,80,0,0
116730,-100,4,2,0,50,0,0
120912,-100,4,2,0,55,0,0
122366,-100,4,2,0,60,0,0
123821,-100,4,2,0,65,0,0
125275,-100,4,2,0,70,0,0
126730,-100,4,2,0,75,0,0
127457,-100,4,2,0,80,0,0
127821,-100,4,2,0,85,0,0
128184,-100,4,1,1,80,0,0
128366,-100,4,2,1,60,0,0
139093,-100,4,2,1,70,0,0
139457,-100,4,2,1,80,0,0
139821,-100,4,1,1,80,0,0
140003,-100,4,2,1,50,0,0
140548,-100,4,2,1,45,0,0
140912,-100,4,2,1,40,0,0
141275,-100,4,2,1,35,0,0
141639,-100,4,2,1,30,0,0
142003,-100,4,2,1,25,0,0
142366,-100,4,2,1,20,0,0
142730,-100,4,2,1,15,0,0
143094,-100,4,2,1,10,0,0
143457,-100,4,2,1,5,0,0

[Colours]
Combo1 : 159,64,255
Combo2 : 243,89,34
Combo3 : 255,96,255
Combo4 : 255,255,0

[HitObjects]
128,192,6003,5,2,0:0:0:0:
128,192,6366,1,0,0:0:0:0:
128,192,6730,1,2,0:0:0:0:
128,192,7094,1,0,0:0:0:0:
256,192,7457,5,2,0:0:0:0:
256,192,7821,1,0,0:0:0:0:
256,192,8185,1,2,0:0:0:0:
256,192,8548,1,0,0:0:0:0:
384,192,8912,5,2,0:0:0:0:
384,192,9275,1,0,0:0:0:0:
384,192,9639,1,2,0:0:0:0:
384,192,10003,1,0,0:0:0:0:
256,192,10366,12,2,11457,0:0:0:0:
224,192,11821,5,14,0:0:0:0:
112,192,12185,1,0,0:0:0:0:
176,192,12366,1,2,0:0:0:0:
64,192,12730,1,2,0:0:0:0:
64,192,12912,1,2,0:0:0:0:
176,192,13275,5,10,0:0:0:0:
288,192,13639,2,0,L|352:192,2,50,0|2|0,0:0|0:0|0:0,0:0:0:0:
176,192,14366,1,2,0:0:0:0:
288,192,14730,5,10,0:0:0:0:
400,192,15094,1,0,0:0:0:0:
336,192,15275,1,2,0:0:0:0:
448,192,15639,1,2,0:0:0:0:
448,192,15821,1,2,0:0:0:0:
336,192,16185,5,10,0:0:0:0:
224,192,16548,2,0,L|160:192,2,50,0|2|0,0:0|0:0|0:0,0:0:0:0:
288,192,17094,1,2,0:0:0:0:
352,192,17275,1,2,0:0:0:0:
288,128,17457,1,2,0:0:0:0:
224,128,17639,5,10,0:0:0:0:
112,128,18003,1,0,0:0:0:0:
176,128,18185,1,2,0:0:0:0:
288,128,18548,1,2,0:0:0:0:
288,128,18730,1,2,0:0:0:0:
176,192,19094,5,10,0:0:0:0:
64,192,19457,1,0,0:0:0:0:
120,192,19639,1,2,0:0:0:0:
176,192,19821,1,0,0:0:0:0:
64,192,20185,1,2,0:0:0:0:
176,192,20548,6,0,L|192:144,1,50,10|0,0:0|0:0,0:0:0:0:
128,96,20912,1,0,0:0:0:0:
192,96,21094,1,2,0:0:0:0:
304,96,21457,1,2,0:0:0:0:
240,96,21639,1,2,0:0:0:0:
352,192,22003,5,10,0:0:0:0:
416,192,22185,1,0,0:0:0:0:
352,192,22366,2,0,L|304:144,1,50,0|2,0:0|0:0,0:0:0:0:
352,192,22730,6,0,L|352:32,1,150,2|2,0:0|0:0,0:0:0:0:
288,32,23457,5,12,0:0:0:0:
256,80,23639,1,2,0:0:0:0:
288,128,23821,1,2,0:0:0:0:
416,128,24185,1,10,0:0:0:0:
464,128,24366,1,2,0:0:0:0:
464,128,24548,1,0,0:0:0:0:
352,192,24912,5,8,0:0:0:0:
240,192,25275,1,2,0:0:0:0:
304,192,25457,1,8,0:0:0:0:
240,192,25639,2,0,L|224:144,1,50,8|2,0:0|2:0,0:0:0:0:
288,192,26003,2,0,L|304:144,1,50,2|2,0:0|2:0,0:0:0:0:
240,192,26366,5,8,0:0:0:0:
176,192,26548,1,2,0:0:0:0:
240,192,26730,1,2,0:0:0:0:
352,192,27094,1,10,0:0:0:0:
288,192,27275,1,2,0:0:0:0:
224,192,27457,1,0,0:0:0:0:
336,192,27821,6,0,L|384:144,2,50,8|2|2,0:0|0:0|0:0,0:0:0:0:
224,192,28548,1,10,0:0:0:0:
160,192,28730,1,10,0:0:0:0:
96,192,28912,1,8,0:0:0:0:
160,192,29094,1,10,0:0:0:0:
224,32,29275,5,12,0:0:0:0:
256,80,29457,1,2,0:0:0:0:
224,128,29639,1,2,0:0:0:0:
112,128,30003,1,10,0:0:0:0:
48,128,30185,1,2,0:0:0:0:
48,128,30366,1,0,0:0:0:0:
160,192,30730,5,8,0:0:0:0:
272,192,31094,1,2,0:0:0:0:
208,192,31275,1,8,0:0:0:0:
272,192,31457,2,0,L|288:144,1,50,8|2,0:0|2:0,0:0:0:0:
224,192,31821,1,2,0:0:0:0:
160,192,32003,1,2,2:0:0:0:
224,192,32185,5,8,0:0:0:0:
288,192,32366,1,2,0:0:0:0:
224,192,32548,1,2,0:0:0:0:
112,192,32912,1,10,0:0:0:0:
176,192,33094,1,2,0:0:0:0:
240,192,33275,1,0,0:0:0:0:
128,192,33639,6,0,L|80:144,2,50,8|2|2,0:0|0:0|0:0,0:0:0:0:
240,192,34366,2,0,L|256:144,1,50,10|0,0:0|0:0,0:0:0:0:
192,192,34730,2,0,L|208:144,1,50,10|0,0:0|0:0,0:0:0:0:
288,144,35094,5,12,0:0:0:0:
416,192,35457,1,8,0:0:0:0:
288,240,35821,1,8,0:0:0:0:
216,240,36003,1,2,0:0:0:0:
288,240,36185,1,8,0:0:0:0:
360,240,36366,1,2,0:0:0:0:
288,144,36548,5,8,0:0:0:0:
160,192,36912,1,8,0:0:0:0:
288,240,37275,2,0,L|296:184,1,50,8|2,0:0|0:0,0:0:0:0:
224,144,37639,1,8,0:0:0:0:
152,144,37821,1,2,0:0:0:0:
224,144,38003,5,8,0:0:0:0:
352,192,38366,1,8,0:0:0:0:
224,240,38730,1,8,0:0:0:0:
152,240,38912,1,2,0:0:0:0:
224,240,39094,2,0,L|232:184,1,50,8|2,0:0|0:0,0:0:0:0:
160,192,39457,5,8,0:0:0:0:
32,192,39821,1,8,0:0:0:0:
160,192,40185,2,0,L|152:136,1,50,8|2,0:0|0:0,0:0:0:0:
80,144,40548,1,8,0:0:0:0:
152,142,40730,1,2,0:0:0:0:
224,144,40912,5,12,0:0:0:0:
96,192,41275,1,8,0:0:0:0:
224,240,41639,1,8,0:0:0:0:
296,240,41821,1,2,0:0:0:0:
224,240,42003,1,8,0:0:0:0:
152,240,42185,1,2,0:0:0:0:
224,144,42366,5,8,0:0:0:0:
352,192,42730,1,8,0:0:0:0:
224,240,43094,2,0,L|216:184,1,50,8|2,0:0|0:0,0:0:0:0:
288,144,43457,1,8,0:0:0:0:
360,144,43639,1,2,0:0:0:0:
288,144,43821,5,8,0:0:0:0:
160,192,44185,1,8,0:0:0:0:
288,240,44548,1,8,0:0:0:0:
360,240,44730,1,2,0:0:0:0:
288,240,44912,2,0,L|280:184,1,50,8|2,0:0|0:0,0:0:0:0:
352,192,45275,5,8,0:0:0:0:
480,192,45639,1,8,0:0:0:0:
352,192,46003,2,0,L|360:136,1,50,8|2,0:0|0:0,0:0:0:0:
432,144,46366,1,8,0:0:0:0:
360,142,46548,1,2,0:0:0:0:
272,144,46730,5,12,0:0:0:0:
256,192,47094,12,2,49639,0:0:0:0:
384,192,52548,5,2,0:0:0:0:
352,192,52912,1,2,0:0:0:0:
352,192,53275,1,0,0:0:0:0:
384,192,53639,1,2,0:0:0:0:
256,192,54003,5,2,0:0:0:0:
192,192,54366,1,2,0:0:0:0:
192,192,54730,1,2,0:0:0:0:
256,192,55094,1,2,0:0:0:0:
128,192,55457,5,2,0:0:0:0:
32,192,55821,1,2,0:0:0:0:
32,192,56185,1,0,0:0:0:0:
128,192,56548,1,2,0:0:0:0:
256,192,56912,12,2,58003,0:0:0:0:
288,192,58366,5,12,0:0:0:0:
176,192,58912,1,2,0:0:0:0:
64,192,59275,2,0,L|64:128,1,50,2|8,0:0|0:0,0:0:0:0:
128,112,59639,1,2,0:0:0:0:
192,112,59821,5,2,3:0:0:0:
80,112,60366,1,2,0:0:0:0:
192,112,60730,1,2,0:0:0:0:
256,112,60912,1,10,0:0:0:0:
192,112,61094,1,10,0:0:0:0:
128,112,61275,5,2,3:0:0:0:
240,192,61821,1,2,0:0:0:0:
304,192,62003,2,0,L|336:240,2,50,2|2|8,3:0|0:0|0:0,0:0:0:0:
240,192,62548,1,2,0:0:0:0:
176,192,62730,5,2,3:0:0:0:
288,144,63275,1,2,0:0:0:0:
352,144,63457,1,2,3:0:0:0:
288,80,63639,1,2,0:0:0:0:
224,80,63821,1,10,0:0:0:0:
288,144,64003,1,10,0:0:0:0:
224,192,64185,5,2,3:0:0:0:
336,192,64730,1,2,0:0:0:0:
448,192,65094,2,0,L|448:128,1,50,2|8,0:0|0:0,0:0:0:0:
384,112,65457,1,2,0:0:0:0:
320,112,65639,5,2,3:0:0:0:
432,112,66185,1,2,0:0:0:0:
320,112,66548,1,2,0:0:0:0:
256,112,66730,1,10,0:0:0:0:
320,112,66912,1,10,0:0:0:0:
384,112,67094,5,2,3:0:0:0:
272,192,67639,1,2,0:0:0:0:
208,192,67821,2,0,L|176:240,2,50,2|2|8,3:0|0:0|0:0,0:0:0:0:
272,192,68366,1,2,0:0:0:0:
336,192,68548,5,2,3:0:0:0:
224,144,69094,1,10,0:0:0:0:
160,144,69275,1,2,3:0:0:0:
224,80,69457,1,10,0:0:0:0:
304,80,69639,1,10,0:0:0:0:
224,144,69821,1,10,0:0:0:0:
144,192,70003,5,12,0:0:0:0:
384,192,75821,5,10,0:0:0:0:
368,192,76185,1,10,0:0:0:0:
400,192,76548,1,2,0:0:0:0:
384,192,76912,1,2,0:0:0:0:
256,192,77275,5,10,0:0:0:0:
224,192,77639,1,10,0:0:0:0:
288,192,78003,1,2,0:0:0:0:
256,192,78366,1,2,0:0:0:0:
128,192,78730,5,10,0:0:0:0:
80,192,79094,1,10,0:0:0:0:
176,192,79457,1,2,0:0:0:0:
128,192,79821,1,2,0:0:0:0:
256,192,80185,12,10,81275,0:0:0:0:
288,192,81639,5,14,0:0:0:0:
400,192,82003,1,0,0:0:0:0:
336,192,82185,1,2,0:0:0:0:
448,192,82548,1,2,0:0:0:0:
448,192,82730,1,2,0:0:0:0:
336,192,83094,5,10,0:0:0:0:
224,192,83457,2,0,L|160:192,2,50,0|2|0,0:0|0:0|0:0,0:0:0:0:
336,192,84185,1,2,0:0:0:0:
224,192,84548,5,10,0:0:0:0:
112,192,84912,1,0,0:0:0:0:
176,192,85094,1,2,0:0:0:0:
64,192,85457,1,2,0:0:0:0:
64,192,85639,1,2,0:0:0:0:
176,192,86003,5,10,0:0:0:0:
288,192,86366,2,0,L|352:192,2,50,0|2|0,0:0|0:0|0:0,0:0:0:0:
224,192,86912,1,2,0:0:0:0:
160,192,87094,1,2,0:0:0:0:
224,128,87275,1,2,0:0:0:0:
288,128,87457,5,10,0:0:0:0:
400,128,87821,1,0,0:0:0:0:
336,128,88003,1,2,0:0:0:0:
224,128,88366,1,2,0:0:0:0:
224,128,88548,1,2,0:0:0:0:
336,192,88912,5,10,0:0:0:0:
448,192,89275,1,0,0:0:0:0:
392,192,89457,1,2,0:0:0:0:
336,192,89639,1,0,0:0:0:0:
448,192,90003,1,2,0:0:0:0:
336,192,90366,6,0,L|320:144,1,50,10|0,0:0|0:0,0:0:0:0:
384,96,90730,1,0,0:0:0:0:
320,96,90912,1,2,0:0:0:0:
208,96,91275,1,2,0:0:0:0:
272,96,91457,1,2,0:0:0:0:
160,192,91821,5,10,0:0:0:0:
96,192,92003,1,0,0:0:0:0:
160,192,92185,2,0,L|208:144,1,50,0|2,0:0|0:0,0:0:0:0:
160,192,92548,6,0,B|85:192|85:192|160:192,1,150,2|2,0:0|0:0,0:0:0:0:
224,32,93275,5,12,0:0:0:0:
256,80,93457,1,2,0:0:0:0:
224,128,93639,1,2,0:0:0:0:
112,128,94003,1,10,0:0:0:0:
48,128,94185,1,2,0:0:0:0:
48,128,94366,1,0,0:0:0:0:
160,192,94730,5,8,0:0:0:0:
272,192,95094,1,2,0:0:0:0:
208,192,95275,1,8,0:0:0:0:
272,192,95457,2,0,L|288:144,1,50,8|2,0:0|2:0,0:0:0:0:
224,192,95821,2,0,L|208:144,1,50,2|2,0:0|2:0,0:0:0:0:
272,192,96185,5,8,0:0:0:0:
336,192,96366,1,2,0:0:0:0:
272,192,96548,1,2,0:0:0:0:
160,192,96912,1,10,0:0:0:0:
224,192,97094,1,2,0:0:0:0:
288,192,97275,1,0,0:0:0:0:
176,192,97639,6,0,L|128:144,2,50,8|2|2,0:0|0:0|0:0,0:0:0:0:
288,192,98366,1,10,0:0:0:0:
352,192,98548,1,10,0:0:0:0:
416,192,98730,1,8,0:0:0:0:
352,192,98912,1,10,0:0:0:0:
288,32,99094,5,12,0:0:0:0:
224,32,99275,1,2,0:0:0:0:
224,128,99457,1,2,0:0:0:0:
336,128,99821,1,10,0:0:0:0:
400,128,100003,1,2,0:0:0:0:
464,128,100185,1,0,0:0:0:0:
352,192,100548,5,8,0:0:0:0:
240,192,100912,1,2,0:0:0:0:
304,192,101094,1,8,0:0:0:0:
240,192,101275,2,0,L|224:144,1,50,8|0,0:0|0:0,0:0:0:0:
288,192,101639,1,2,0:0:0:0:
352,192,101821,1,2,2:0:0:0:
288,192,102003,5,8,0:0:0:0:
224,192,102185,1,2,0:0:0:0:
288,192,102366,1,2,0:0:0:0:
400,192,102730,1,10,0:0:0:0:
336,192,102912,1,2,0:0:0:0:
272,192,103094,1,0,0:0:0:0:
384,192,103457,6,0,L|432:144,2,50,8|2|2,0:0|0:0|0:0,0:0:0:0:
272,192,104185,2,0,L|256:144,1,50,10|0,0:0|0:0,0:0:0:0:
320,192,104548,2,0,L|304:144,1,50,10|0,0:0|0:0,0:0:0:0:
224,144,104912,5,12,0:0:0:0:
96,192,105275,1,8,0:0:0:0:
224,240,105639,1,8,0:0:0:0:
296,240,105821,1,2,0:0:0:0:
224,240,106003,1,8,0:0:0:0:
152,240,106185,1,2,0:0:0:0:
224,144,106366,5,8,0:0:0:0:
352,192,106730,1,8,0:0:0:0:
224,240,107094,2,0,L|216:184,1,50,8|2,0:0|0:0,0:0:0:0:
288,144,107457,1,8,0:0:0:0:
360,144,107639,1,2,0:0:0:0:
288,144,107821,5,8,0:0:0:0:
160,192,108185,1,8,0:0:0:0:
288,240,108548,1,8,0:0:0:0:
360,240,108730,1,2,0:0:0:0:
288,240,108912,2,0,L|280:184,1,50,8|2,0:0|0:0,0:0:0:0:
352,192,109275,5,8,0:0:0:0:
480,192,109639,1,8,0:0:0:0:
352,192,110003,2,0,L|360:136,1,50,8|2,0:0|0:0,0:0:0:0:
432,144,110366,1,8,0:0:0:0:
360,142,110548,1,2,0:0:0:0:
288,144,110730,5,12,0:0:0:0:
416,192,111094,1,8,0:0:0:0:
288,240,111457,1,8,0:0:0:0:
216,240,111639,1,2,0:0:0:0:
288,240,111821,1,8,0:0:0:0:
360,240,112003,1,2,0:0:0:0:
288,144,112185,5,8,0:0:0:0:
160,192,112548,1,8,0:0:0:0:
288,240,112912,2,0,L|296:184,1,50,8|2,0:0|0:0,0:0:0:0:
224,144,113275,1,8,0:0:0:0:
152,144,113457,1,2,0:0:0:0:
224,144,113639,5,8,0:0:0:0:
352,192,114003,1,8,0:0:0:0:
224,240,114366,1,8,0:0:0:0:
152,240,114548,1,2,0:0:0:0:
224,240,114730,2,0,L|232:184,1,50,8|2,0:0|0:0,0:0:0:0:
160,192,115094,5,8,0:0:0:0:
32,192,115457,1,8,0:0:0:0:
160,192,115821,2,0,L|152:136,1,50,8|2,0:0|0:0,0:0:0:0:
80,144,116185,1,8,0:0:0:0:
152,142,116366,1,2,0:0:0:0:
240,144,116548,5,12,0:0:0:0:
256,192,116912,12,2,119457,0:0:0:0:
128,192,122366,5,2,0:0:0:0:
160,192,122730,1,2,0:0:0:0:
160,192,123094,1,0,0:0:0:0:
128,192,123457,1,2,0:0:0:0:
256,192,123821,5,2,0:0:0:0:
320,192,124185,1,2,0:0:0:0:
320,192,124548,1,2,0:0:0:0:
256,192,124912,1,2,0:0:0:0:
384,192,125275,5,2,0:0:0:0:
480,192,125639,1,2,0:0:0:0:
480,192,126003,1,0,0:0:0:0:
384,192,126366,1,2,0:0:0:0:
256,192,126730,12,2,127821,0:0:0:0:
224,192,128185,5,12,0:0:0:0:
336,192,128730,1,2,0:0:0:0:
448,192,129094,2,0,L|448:128,1,50,2|8,0:0|0:0,0:0:0:0:
384,112,129457,1,2,0:0:0:0:
320,112,129639,5,2,3:0:0:0:
432,112,130185,1,2,0:0:0:0:
320,112,130548,1,2,0:0:0:0:
256,112,130730,1,10,0:0:0:0:
320,112,130912,1,10,0:0:0:0:
384,112,131094,5,2,3:0:0:0:
272,192,131639,1,2,0:0:0:0:
208,192,131821,2,0,L|176:240,2,50,2|2|8,3:0|0:0|0:0,0:0:0:0:
272,192,132366,1,2,0:0:0:0:
336,192,132548,5,2,3:0:0:0:
224,144,133094,1,2,0:0:0:0:
160,144,133275,1,2,3:0:0:0:
224,80,133457,1,2,0:0:0:0:
288,80,133639,1,10,0:0:0:0:
224,144,133821,1,10,0:0:0:0:
288,192,134003,5,2,3:0:0:0:
176,192,134548,1,2,0:0:0:0:
64,192,134912,2,0,L|64:128,1,50,2|8,0:0|0:0,0:0:0:0:
128,112,135275,1,2,0:0:0:0:
192,112,135457,5,2,3:0:0:0:
80,112,136003,1,2,0:0:0:0:
192,112,136366,1,2,0:0:0:0:
256,112,136548,1,10,0:0:0:0:
192,112,136730,1,10,0:0:0:0:
128,112,136912,5,2,3:0:0:0:
240,192,137457,1,2,0:0:0:0:
304,192,137639,2,0,L|336:240,2,50,2|2|8,3:0|0:0|0:0,0:0:0:0:
240,192,138185,1,2,0:0:0:0:
176,192,138366,5,2,3:0:0:0:
288,144,138912,1,10,0:0:0:0:
352,144,139094,1,2,3:0:0:0:
288,80,139275,1,10,0:0:0:0:
208,80,139457,1,10,0:0:0:0:
288,144,139639,1,10,0:0:0:0:
368,192,139821,5,12,0:0:0:0:
256,192,140185,12,0,143457,0:0:0:0:
