osu file format v14

[General]
AudioFilename: audio.mp3
AudioLeadIn: 0
PreviewTime: 2243
Countdown: 0
SampleSet: Normal
StackLeniency: 0.3
Mode: 0
LetterboxInBreaks: 0
WidescreenStoryboard: 0

[Editor]
Bookmarks: 2243,57957,105957
DistanceSpacing: 0.7
BeatDivisor: 4
GridSize: 4
TimelineZoom: 2.883998

[Metadata]
Title:SECTOR 8i
TitleUnicode:SECTOR 8i
Artist:Kenkotaiji vs sHimaU
ArtistUnicode:Kenkotaiji vs sHimaU
Creator:Kobold84
Version:Insane
Source:
Tags:breakcore
BeatmapID:1845701
BeatmapSetID:882858

[Difficulty]
HPDrainRate:5
CircleSize:4
OverallDifficulty:8
ApproachRate:9.8
SliderMultiplier:1.6
SliderTickRate:1

[Events]
//Background and Video events
0,0,"f67230abc505e9ad0e3a1d5438b78ffe.jpg",0,0
//Break Periods
//Storyboard Layer 0 (Background)
//Storyboard Layer 1 (Fail)
//Storyboard Layer 2 (Pass)
//Storyboard Layer 3 (Foreground)
//Storyboard Sound Samples

[TimingPoints]
3100.1736865795,214.285714285714,4,1,0,50,1,0
5671,-142.857142857143,4,1,0,50,0,0
6528,-100,4,1,0,50,0,0
8457,-125,4,1,0,50,0,0
9100,-100,4,1,0,50,0,0
12528,-142.857142857143,4,1,0,50,0,0
13278,-111.111111111111,4,1,0,50,0,0
13600,-100,4,1,0,50,0,0
15957,-111.111111111111,4,1,0,50,0,0
16814,-100,4,1,0,50,0,0
25385,-111.111111111111,4,1,0,50,0,0
27100,-200,4,1,0,50,0,0
27957,-142.857142857143,4,1,0,50,0,0
28814,-125,4,1,0,50,0,0
29671,-111.111111111111,4,1,0,50,0,0
30528,-100,4,1,0,50,0,0
33100,-142.857142857143,4,1,0,50,0,0
33957,-111.111111111111,4,1,0,50,0,0
34814,-100,4,1,0,50,0,0
36100,-142.857142857143,4,1,0,50,0,0
37385,-111.111111111111,4,1,0,50,0,0
38243,-100,4,1,0,50,0,0
41671,-142.857142857143,4,1,0,50,0,0
42528,-111.111111111111,4,1,0,50,0,0
42957,-100,4,1,0,50,0,0
47671,-111.111111111111,4,1,0,50,0,0
48528,-100,4,1,0,50,0,0
49385,-142.857142857143,4,1,0,50,0,0
49814,-100,4,1,0,50,0,0
50457,-111.111111111111,4,1,0,50,0,0
51100,-100,4,1,0,50,0,0
57957,428.571428571429,4,1,0,50,1,0

[HitObjects]
36,186,3100,6,0,L|41:90,1,80
127,307,3314,2,0,L|122:211,1,80
126,65,3528,1,0,0:0:0:0:
40,106,3635,1,0,0:0:0:0:
167,151,3743,1,0,0:0:0:0:
167,151,3850,1,0,0:0:0:0:
228,271,3957,6,0,P|304:298|341:286,1,120
328,284,4171,1,0,0:0:0:0:
438,300,4278,6,0,P|362:273|325:285,1,120
338,287,4492,1,0,0:0:0:0:
256,182,4600,2,0,B|241:146|241:146|241:105,1,80
333,15,4814,1,0,0:0:0:0:
333,15,4868,1,0,0:0:0:0:
333,15,4921,1,0,0:0:0:0:
408,139,5028,6,0,L|462:128,2,40
138,308,5243,2,0,L|127:254,2,40
280,97,5457,2,0,L|226:108,3,40
136,139,5671,6,0,P|88:144|29:104,1,111.999996582031
209,201,5993,1,0,0:0:0:0:
209,201,6100,2,0,P|178:238|108:251,1,111.999996582031
34,112,6421,1,0,0:0:0:0:
37,63,6528,1,0,0:0:0:0:
435,235,6743,5,0,0:0:0:0:
438,284,6850,1,0,0:0:0:0:
341,168,6957,2,0,L|344:106,2,40
271,222,7171,2,0,P|232:231|193:224,1,80
40,247,7385,6,0,L|98:233,1,40
279,261,7600,2,0,L|265:200,1,40
292,21,7814,2,0,L|231:33,1,40
53,8,8028,2,0,L|65:66,1,40
192,117,8243,6,0,L|231:109,3,40
338,134,8457,2,0,B|424:114|424:114|375:106,1,128
262,214,8778,1,0,0:0:0:0:
269,245,8832,1,0,0:0:0:0:
276,275,8885,1,0,0:0:0:0:
116,192,8993,5,0,0:0:0:0:
116,192,9100,2,0,B|41:180|41:180|25:135,1,120
78,52,9314,1,0,0:0:0:0:
265,78,9421,5,0,0:0:0:0:
340,125,9528,2,0,L|423:109,1,80
116,192,9743,2,0,L|33:176,1,80
298,316,9957,5,0,0:0:0:0:
261,166,10171,1,0,0:0:0:0:
150,274,10278,1,0,0:0:0:0:
150,274,10332,1,0,0:0:0:0:
150,274,10385,2,0,L|204:268,2,40
298,316,10600,2,0,B|327:323|327:323|377:306,1,80
409,208,10814,5,0,0:0:0:0:
409,208,10868,1,0,0:0:0:0:
409,208,10921,2,0,L|355:214,2,40
499,108,11135,1,0,0:0:0:0:
499,108,11189,1,0,0:0:0:0:
499,108,11243,2,0,L|394:117,1,80
306,37,11457,5,0,0:0:0:0:
369,212,11564,1,0,0:0:0:0:
297,265,11671,2,0,L|269:271,10,20
369,212,11993,5,0,0:0:0:0:
384,175,12046,1,0,0:0:0:0:
385,135,12100,1,0,0:0:0:0:
370,98,12153,1,0,0:0:0:0:
343,70,12207,1,0,0:0:0:0:
307,53,12260,1,0,0:0:0:0:
267,52,12314,2,0,B|228:64|228:64|165:56,1,80
81,21,12528,6,0,P|32:46|10:96,1,111.999996582031
65,178,12850,1,0,0:0:0:0:
65,178,12957,2,0,P|48:230|68:281,1,111.999996582031
231,330,13278,5,0,0:0:0:0:
231,330,13385,2,0,L|328:322,1,71.9999978027344
439,247,13600,2,0,L|403:239,8,20
267,162,13921,1,0,0:0:0:0:
294,153,14028,1,0,0:0:0:0:
77,360,14243,6,0,L|65:259,1,80
49,152,14457,1,0,0:0:0:0:
32,162,14511,1,0,0:0:0:0:
15,171,14564,1,0,0:0:0:0:
74,56,14671,2,0,B|37:34|37:34|49:160,1,160
144,248,14993,5,0,0:0:0:0:
213,314,15100,2,0,P|253:312|290:286,1,80
298,69,15314,2,0,P|259:71|226:93,1,80
368,135,15528,1,0,0:0:0:0:
298,69,15635,5,0,0:0:0:0:
298,69,15689,1,0,0:0:0:0:
298,69,15743,2,0,L|336:46,2,40
156,118,15957,6,0,P|108:106|65:23,1,143.999995605469
299,198,16278,1,0,0:0:0:0:
299,198,16385,2,0,P|273:155|301:66,1,143.999995605469
66,331,16814,6,0,L|154:315,1,80
182,200,17028,1,0,0:0:0:0:
313,316,17135,2,0,L|297:228,1,80
182,200,17349,1,0,0:0:0:0:
298,69,17457,2,0,L|210:85,1,80
396,131,17671,6,0,P|437:129|474:116,2,80
182,200,17993,2,0,P|141:198|103:185,2,80
242,131,18314,1,0,0:0:0:0:
336,200,18421,1,0,0:0:0:0:
243,318,18528,6,0,P|202:336|96:299,1,160
14,176,18850,1,0,0:0:0:0:
104,185,18957,1,0,0:0:0:0:
104,185,19064,1,0,0:0:0:0:
278,111,19171,1,0,0:0:0:0:
188,120,19278,1,0,0:0:0:0:
233,263,19385,6,0,L|223:315,2,40
305,346,19600,2,0,P|347:345|386:321,1,80
366,224,19814,5,0,0:0:0:0:
449,252,19921,1,0,0:0:0:0:
394,140,20028,1,0,0:0:0:0:
477,169,20135,1,0,0:0:0:0:
440,79,20243,6,0,B|363:114|363:114|290:93,1,160
290,93,20564,1,0,0:0:0:0:
208,137,20671,2,0,L|131:116,2,80
70,54,21100,5,0,0:0:0:0:
94,90,21153,1,0,0:0:0:0:
97,134,21207,1,0,0:0:0:0:
78,173,21260,1,0,0:0:0:0:
42,198,21314,1,0,0:0:0:0:
236,281,21421,5,0,0:0:0:0:
200,256,21475,1,0,0:0:0:0:
181,217,21528,1,0,0:0:0:0:
184,173,21582,1,0,0:0:0:0:
208,137,21635,1,0,0:0:0:0:
334,65,21743,6,0,P|371:79|410:78,1,80
466,12,21957,5,0,0:0:0:0:
466,12,22064,1,0,0:0:0:0:
214,1,22278,5,0,0:0:0:0:
214,1,22385,1,0,0:0:0:0:
28,171,22600,5,0,0:0:0:0:
158,131,22707,1,0,0:0:0:0:
159,256,22814,5,0,0:0:0:0:
227,194,22921,1,0,0:0:0:0:
321,254,23028,2,0,L|364:248,2,40
90,365,23243,6,0,P|76:327|82:288,1,80
167,179,23457,2,0,P|172:218|158:255,1,80
216,68,23671,5,0,0:0:0:0:
221,41,23778,1,0,0:0:0:0:
386,303,23993,5,0,0:0:0:0:
381,276,24100,2,0,L|377:246,4,20
269,264,24314,1,0,0:0:0:0:
185,339,24421,5,0,0:0:0:0:
185,339,24475,1,0,0:0:0:0:
185,339,24528,2,0,L|133:330,1,40
29,266,24635,2,0,L|68:272,1,40
118,187,24743,5,0,0:0:0:0:
114,167,24796,1,0,0:0:0:0:
111,147,24850,1,0,0:0:0:0:
107,127,24903,1,0,0:0:0:0:
104,107,24957,2,0,L|94:47,2,40
215,147,25171,2,0,L|306:161,1,80
481,112,25385,6,0,P|436:116|348:46,1,143.999995605469
263,19,25707,1,0,0:0:0:0:
263,19,25814,2,0,L|175:29,1,71.9999978027344
97,67,26028,1,0,0:0:0:0:
73,88,26135,1,0,0:0:0:0:
40,201,26243,6,0,P|85:205|173:135,1,143.999995605469
191,27,26564,1,0,0:0:0:0:
275,63,26671,2,0,P|310:65|344:54,1,71.9999978027344
419,130,26885,2,0,P|442:157|474:172,1,71.9999978027344
336,215,27100,6,0,L|256:221,1,80
101,264,27421,1,0,0:0:0:0:
101,264,27528,2,0,L|181:271,1,80
173,188,27850,5,0,0:0:0:0:
173,188,27957,2,0,P|137:168|54:190,1,111.999996582031
268,308,28278,2,0,P|304:328|387:306,1,111.999996582031
417,239,28600,1,0,0:0:0:0:
417,239,28653,1,0,0:0:0:0:
417,239,28707,1,0,0:0:0:0:
355,157,28814,6,0,L|313:152,2,32
437,74,29028,2,0,L|479:69,2,32
248,106,29243,2,0,L|159:99,1,64
80,28,29457,2,0,L|85:91,1,64
135,172,29671,5,0,0:0:0:0:
73,250,29778,1,0,0:0:0:0:
214,313,29885,2,0,L|221:234,1,71.9999978027344
323,169,30100,1,0,0:0:0:0:
305,165,30153,1,0,0:0:0:0:
287,161,30207,1,0,0:0:0:0:
409,50,30314,2,0,L|415:121,1,71.9999978027344
499,263,30528,5,0,0:0:0:0:
287,161,30635,1,0,0:0:0:0:
510,221,30743,5,0,0:0:0:0:
298,323,30850,1,0,0:0:0:0:
195,267,30957,6,0,L|136:256,2,40
79,194,31171,2,0,P|40:192|3:206,1,80
183,144,31385,2,0,P|222:146|259:132,1,80
324,27,31600,2,0,L|343:33,4,20
270,109,31814,5,0,0:0:0:0:
300,231,31921,1,0,0:0:0:0:
300,231,32028,2,0,L|316:318,1,80
233,361,32243,5,0,0:0:0:0:
147,318,32350,1,0,0:0:0:0:
107,213,32457,1,0,0:0:0:0:
127,86,32564,1,0,0:0:0:0:
127,86,32618,1,0,0:0:0:0:
126,85,32671,2,0,P|89:74|49:80,1,80
107,213,32885,5,0,0:0:0:0:
128,223,32938,1,0,0:0:0:0:
152,228,32992,1,0,0:0:0:0:
176,227,33045,1,0,0:0:0:0:
199,222,33100,2,0,P|238:207|277:149,1,111.999996582031
314,289,33421,1,0,0:0:0:0:
314,289,33528,2,0,P|352:305|420:292,1,111.999996582031
428,110,33850,5,0,0:0:0:0:
474,235,33957,1,0,0:0:0:0:
142,327,34171,6,0,B|122:295|122:295|48:274|48:274|31:239,1,143.999995605469
70,109,34493,1,0,0:0:0:0:
70,109,34600,2,0,P|82:161|111:198,1,71.9999978027344
247,63,34814,5,0,0:0:0:0:
175,229,34921,1,0,0:0:0:0:
175,229,34975,1,0,0:0:0:0:
175,229,35028,2,0,L|196:262,3,40
293,297,35243,2,0,P|281:245|252:208,1,71.9999978027344
375,358,35457,2,0,P|403:312|408:266,1,71.9999978027344
402,182,35671,6,0,L|395:162,4,20
340,98,35885,1,0,0:0:0:0:
423,83,35993,1,0,0:0:0:0:
271,229,36100,6,0,P|222:223|171:170,1,111.999996582031
145,86,36421,1,0,0:0:0:0:
145,86,36528,2,0,P|115:79|71:78,2,55.9999982910157
295,43,36850,1,0,0:0:0:0:
295,43,36957,2,0,L|369:51,1,55.9999982910157
413,126,37171,2,0,L|487:134,1,55.9999982910157
368,241,37385,6,0,L|447:229,2,71.9999978027344
274,310,37707,1,0,0:0:0:0:
274,310,37814,2,0,L|121:300,1,143.999995605469
24,230,38135,5,0,0:0:0:0:
205,201,38243,1,0,0:0:0:0:
99,131,38350,1,0,0:0:0:0:
99,131,38403,1,0,0:0:0:0:
99,131,38457,1,0,0:0:0:0:
229,121,38564,5,0,0:0:0:0:
229,121,38618,1,0,0:0:0:0:
229,121,38671,2,0,L|278:113,2,40
99,131,38885,2,0,L|49:123,2,40
205,201,39100,2,0,P|251:234|365:220,1,160
298,43,39421,5,0,0:0:0:0:
268,114,39528,1,0,0:0:0:0:
350,228,39635,5,0,0:0:0:0:
380,299,39742,1,0,0:0:0:0:
380,299,39850,1,0,0:0:0:0:
186,241,39957,6,0,P|160:209|164:92,1,160
241,33,40278,1,0,0:0:0:0:
241,33,40385,2,0,L|318:56,1,80
404,116,40600,2,0,L|442:107,2,40
303,228,40814,5,0,0:0:0:0:
272,219,40867,1,0,0:0:0:0:
240,220,40921,1,0,0:0:0:0:
209,229,40974,1,0,0:0:0:0:
182,246,41028,1,0,0:0:0:0:
161,270,41081,1,0,0:0:0:0:
146,298,41135,1,0,0:0:0:0:
256,334,41243,6,0,L|312:350,2,40
161,270,41457,2,0,B|106:254|106:254|91:236,1,80
120,56,41671,6,0,P|152:104|140:156,1,111.999996582031
266,231,41993,1,0,0:0:0:0:
266,231,42100,2,0,P|255:177|287:132,1,111.999996582031
389,77,42421,1,0,0:0:0:0:
389,77,42475,1,0,0:0:0:0:
389,77,42528,2,0,P|360:100|241:82,1,143.999995605469
93,54,42850,5,0,0:0:0:0:
141,154,42957,1,0,0:0:0:0:
145,189,43010,1,0,0:0:0:0:
149,225,43064,1,0,0:0:0:0:
167,350,43171,1,0,0:0:0:0:
88,295,43278,1,0,0:0:0:0:
88,295,43385,2,0,P|34:283|-5:292,1,80
167,350,43600,2,0,P|221:362|260:353,1,80
320,289,43814,6,0,L|312:262,4,20
391,220,44028,2,0,L|394:130,1,80
326,36,44243,2,0,L|313:73,2,40
229,140,44457,6,0,P|174:136|138:114,1,80
109,49,44671,1,0,0:0:0:0:
12,174,44778,1,0,0:0:0:0:
12,174,44832,1,0,0:0:0:0:
12,174,44885,2,0,P|67:178|103:200,1,80
201,271,45100,5,0,0:0:0:0:
277,208,45207,1,0,0:0:0:0:
249,338,45314,5,0,0:0:0:0:
249,338,45421,1,0,0:0:0:0:
229,140,45528,2,0,L|221:96,2,40
357,61,45743,2,0,L|350:101,2,40
335,198,45957,6,0,P|411:180|450:113,1,160
229,140,46278,1,0,0:0:0:0:
151,184,46385,2,0,P|103:161|84:128,1,80
41,21,46600,1,0,0:0:0:0:
36,39,46653,1,0,0:0:0:0:
31,59,46707,1,0,0:0:0:0:
81,165,46814,5,0,0:0:0:0:
88,139,46921,1,0,0:0:0:0:
57,258,47028,2,0,P|94:271|119:302,1,80
194,361,47243,2,0,P|232:370|271:364,1,80
255,179,47457,1,0,0:0:0:0:
317,291,47564,1,0,0:0:0:0:
350,148,47671,6,0,L|256:139,2,71.9999978027344
455,77,47993,1,0,0:0:0:0:
455,77,48100,2,0,L|361:68,1,71.9999978027344
245,219,48314,2,0,L|151:210,1,71.9999978027344
62,120,48528,5,0,0:0:0:0:
62,120,48582,1,0,0:0:0:0:
62,120,48635,1,0,0:0:0:0:
137,69,48743,2,0,L|176:72,2,40
84,230,48957,2,0,L|56:246,4,20
261,103,49171,6,0,L|301:100,3,40
366,28,49385,2,0,P|390:73|384:145,1,111.999996582031
289,207,49707,1,0,0:0:0:0:
425,267,49814,5,0,0:0:0:0:
401,289,49868,1,0,0:0:0:0:
372,302,49921,1,0,0:0:0:0:
340,307,49975,1,0,0:0:0:0:
308,301,50028,1,0,0:0:0:0:
187,256,50135,1,0,0:0:0:0:
126,341,50243,2,0,L|206:350,1,80
67,271,50457,6,0,P|53:237|85:115,1,143.999995605469
163,173,50778,1,0,0:0:0:0:
127,32,50885,1,0,0:0:0:0:
127,32,50939,1,0,0:0:0:0:
127,32,50993,1,0,0:0:0:0:
294,111,51100,6,0,L|333:102,2,40
399,47,51314,1,0,0:0:0:0:
414,130,51421,1,0,0:0:0:0:
251,204,51528,2,0,L|172:189,1,80
55,42,51743,5,0,0:0:0:0:
93,49,51797,1,0,0:0:0:0:
133,56,51850,1,0,0:0:0:0:
294,111,51957,6,0,L|333:102,3,40
414,130,52171,2,0,B|446:186|446:186|400:295,1,160
274,227,52493,5,0,0:0:0:0:
274,227,52546,1,0,0:0:0:0:
273,226,52600,2,0,P|234:221|197:235,1,80
76,239,52814,2,0,P|100:207|106:168,1,80
164,61,53028,2,0,P|178:97|209:122,1,80
193,261,53243,5,0,0:0:0:0:
197,235,53350,1,0,0:0:0:0:
292,355,53457,2,0,L|283:315,2,40
430,232,53671,6,0,P|353:230|303:171,1,160
82,184,53993,1,0,0:0:0:0:
81,183,54100,2,0,P|158:181|208:122,1,160
341,91,54421,5,0,0:0:0:0:
170,42,54528,1,0,0:0:0:0:
341,91,54635,1,0,0:0:0:0:
356,103,54689,1,0,0:0:0:0:
369,119,54742,1,0,0:0:0:0:
379,136,54795,1,0,0:0:0:0:
386,155,54849,1,0,0:0:0:0:
390,174,54902,1,0,0:0:0:0:
390,194,54957,2,0,B|381:223|381:223|462:252|519:160,1,160
211,240,55278,5,0,0:0:0:0:
211,240,55385,2,0,P|171:240|133:227,1,80
293,278,55600,2,0,P|265:306|229:323,1,80
91,153,55814,5,0,0:0:0:0:
104,61,55921,1,0,0:0:0:0:
280,186,56028,5,0,0:0:0:0:
293,278,56135,1,0,0:0:0:0:
365,136,56243,6,0,P|410:136|463:169,1,80
202,253,56457,2,0,P|157:253|104:220,1,80
280,186,56671,5,0,0:0:0:0:
280,186,56725,1,0,0:0:0:0:
280,186,56778,1,0,0:0:0:0:
195,121,56885,1,0,0:0:0:0:
168,110,56939,1,0,0:0:0:0:
141,99,56993,1,0,0:0:0:0:
43,65,57100,6,0,P|81:107|78:224,1,160
86,206,57421,1,0,0:0:0:0:
8,307,57528,2,0,L|46:293,3,40
144,332,57743,2,0,L|196:353,3,40
314,311,57957,1,0,0:0:0:0:
