osu file format v14

[General]
AudioFilename: audio.mp3
AudioLeadIn: 0
PreviewTime: 52220
Countdown: 0
SampleSet: Normal
StackLeniency: 0.7
Mode: 0
LetterboxInBreaks: 0
WidescreenStoryboard: 0

[Editor]
DistanceSpacing: 1
BeatDivisor: 2
GridSize: 4
TimelineZoom: 1

[Metadata]
Title:Strike
TitleUnicode:Strike
Artist:Kenji-B
ArtistUnicode:Kenji-B
Creator:Suzuki_1112
Version:Normal
Source:Bacchikoi!
Tags:バッチコイ! mikkoukun mimi neko mazjojo zamius suihara verdeleon kaenweinder howl opening bl boys love yaoi black monkey pro 1112deng
BeatmapID:1200029
BeatmapSetID:566499

[Difficulty]
HPDrainRate:4
CircleSize:3
OverallDifficulty:4
ApproachRate:5
SliderMultiplier:1.2
SliderTickRate:1

[Events]
//Background and Video events
0,0,"bg2.png",0,0
Video,0,"Bacchikoi! .avi"
//Break Periods
//Storyboard Layer 0 (Background)
//Storyboard Layer 1 (Fail)
//Storyboard Layer 2 (Pass)
//Storyboard Layer 3 (Foreground)
//Storyboard Sound Samples

[TimingPoints]
470,375,4,1,1,75,1,0
845,-100,4,1,1,5,0,0
5907,-100,4,2,2,75,0,0
6470,-100,4,2,1,75,0,0
51845,-100,4,2,2,75,0,0
52970,-100,4,1,2,75,0,1
53063,-100,4,2,1,75,0,1
76876,-100,4,2,1,75,0,0
76970,-100,4,2,1,75,0,1
88970,-100,4,2,2,55,0,0
95063,-100,4,2,2,5,0,0

[Colours]
Combo1 : 0,128,128
Combo2 : 255,128,128
Combo3 : 128,64,64
Combo4 : 255,255,128

[HitObjects]
38,62,6470,6,0,P|98:54|158:66,1,120,6|8,0:0|0:0,0:0:0:0:
257,129,7220,2,0,P|326:135|386:123,1,120,2|8,0:0|0:0,0:0:0:0:
434,116,7782,2,0,L|424:251,1,120
421,295,8345,1,8,0:0:0:0:
306,331,8720,2,0,P|208:337|161:323,1,120,2|8,0:0|0:0,0:0:0:0:
96,322,9470,6,0,P|60:234|124:82,1,240,2|0,0:0|0:0,0:0:0:0:
205,37,10595,1,8,0:0:0:0:
252,73,10782,2,0,L|394:81,1,120
413,123,11345,2,0,P|431:196|414:254,1,120,8|2,0:0|0:0,0:0:0:0:
325,309,12095,1,6,0:0:0:0:
223,353,12470,6,0,P|135:321|32:177,1,240,6|2,0:0|0:0,0:0:0:0:
22,93,13595,1,8,0:0:0:0:
76,67,13782,2,0,B|108:95|108:95|183:111,1,120
198,169,14345,2,0,B|273:185|273:185|305:213,1,120,8|2,0:0|0:0,0:0:0:0:
326,327,15095,1,8,0:0:0:0:
438,369,15470,6,0,B|433:282|433:282|450:237|450:237|437:112,1,240,6|2,0:0|0:0,0:0:0:0:
398,19,16595,1,8,0:0:0:0:
304,76,16970,2,0,L|136:88,1,120,2|8,0:0|0:0,0:0:0:0:
124,88,17532,2,0,P|94:152|96:217,1,120
114,256,18095,1,8,0:0:0:0:
216,352,18470,5,2,0:0:0:0:
331,319,18845,1,2,0:0:0:0:
449,336,19220,2,0,P|461:292|457:248,1,60,2|2,0:0|0:0,0:0:0:0:
420,233,19595,2,0,P|416:177|424:153,1,60,2|2,0:0|0:0,0:0:0:0:
424,114,19970,5,6,0:0:0:0:
311,71,20345,1,8,0:0:0:0:
191,81,20720,2,0,P|142:107|121:136,2,60,2|0|8,0:0|0:0|0:0,0:0:0:0:
188,201,21470,2,0,P|196:273|180:341,1,120,2|8,0:0|0:0,0:0:0:0:
307,325,22220,2,0,P|383:317|459:349,1,120,2|8,0:0|0:0,0:0:0:0:
444,210,22970,6,0,P|444:158|436:126,2,60,2|0|8,0:0|0:0|0:0,0:0:0:0:
344,148,23720,2,0,P|340:96|348:68,2,60,2|0|8,0:0|0:0|0:0,0:0:0:0:
240,204,24470,2,0,L|168:196,2,60,2|0|8,0:0|0:0|0:0,0:0:0:0:
254,145,25032,1,0,0:0:0:0:
213,100,25220,2,0,P|129:104|97:164,1,120,2|8,0:0|0:0,0:0:0:0:
80,232,25970,5,6,0:0:0:0:
176,303,26345,1,8,0:0:0:0:
289,263,26720,2,0,L|451:261,1,120,2|8,0:0|0:0,0:0:0:0:
463,235,27282,1,0,0:0:0:0:
498,186,27470,1,2,0:0:0:0:
406,108,27845,1,8,0:0:0:0:
291,143,28220,2,0,L|129:145,1,120,2|8,0:0|0:0,0:0:0:0:
53,102,28970,6,0,P|45:158|80:232,1,120,2|8,0:0|0:0,0:0:0:0:
115,251,29532,2,0,L|274:249,1,120
294,237,30095,1,8,0:0:0:0:
365,140,30470,2,0,P|370:106|355:63,2,60,2|0|8,0:0|0:0|0:0,0:0:0:0:
424,236,31220,2,0,P|420:284|436:316,2,60,2|2|12,0:0|0:0|0:0,0:0:0:0:
395,183,31782,1,0,0:0:0:0:
364,132,31970,6,0,L|220:132,1,120,6|8,0:0|0:0,0:0:0:0:
124,140,32720,2,0,P|140:88|164:64,2,60,2|0|8,0:0|0:0|0:0,0:0:0:0:
112,260,33470,2,0,L|180:364,1,120,2|8,0:0|0:0,0:0:0:0:
296,340,34220,2,0,L|220:228,1,120,2|8,0:0|0:0,0:0:0:0:
344,204,34970,6,0,P|400:196|468:128,1,120,2|8,0:0|0:0,0:0:0:0:
388,56,35720,2,0,L|296:72,1,60,2|0,0:0|0:0,0:0:0:0:
272,52,36095,1,8,0:0:0:0:
156,88,36470,2,0,L|132:32,2,60,2|0|8,0:0|0:0|0:0,0:0:0:0:
64,164,37220,2,0,P|56:248|92:312,1,120,2|8,0:0|0:0,0:0:0:0:
180,328,37970,5,6,0:0:0:0:
292,292,38345,2,0,L|372:324,2,60,8|0|2,0:0|0:0|0:0,0:0:0:0:
212,204,39095,1,8,0:0:0:0:
320,156,39470,1,2,0:0:0:0:
374,131,39657,1,0,0:0:0:0:
424,96,39845,2,0,L|504:112,2,60,8|0|2,0:0|0:0|0:0,0:0:0:0:
330,21,40595,1,8,0:0:0:0:
246,95,40970,6,0,P|190:115|133:102,1,120,2|8,0:0|0:0,0:0:0:0:
72,100,41532,2,0,L|72:232,1,120,0|0,0:0|0:0,0:0:0:0:
112,264,42095,1,8,0:0:0:0:
222,311,42470,2,0,L|230:387,2,60,2|0|8,0:0|0:0|0:0,0:0:0:0:
244,192,43220,2,0,P|287:187|315:195,1,60,2|2,0:0|0:0,0:0:0:0:
362,200,43595,2,0,P|397:201|429:196,1,60,10|2,0:0|0:0,0:0:0:0:
479,215,43970,6,0,P|475:119|443:71,1,120,6|8,0:0|0:0,0:0:0:0:
410,73,44532,2,0,L|282:81,1,120
230,77,45095,1,8,0:0:0:0:
135,151,45470,2,0,P|107:243|139:295,1,120,6|8,0:0|0:0,0:0:0:0:
135,316,46032,2,0,L|287:328,1,120
312,309,46595,1,8,0:0:0:0:
421,259,46970,6,0,L|417:131,1,120,6|8,0:0|0:0,0:0:0:0:
303,100,47720,2,0,L|307:252,1,120,6|8,0:0|0:0,0:0:0:0:
191,254,48470,2,0,P|127:278|47:254,1,120,6|8,0:0|0:0,0:0:0:0:
56,152,49220,1,4,0:0:0:0:
171,119,49595,1,8,0:0:0:0:
289,100,49970,6,0,P|357:96|429:148,1,120,6|8,0:0|0:0,0:0:0:0:
427,235,50720,2,0,P|419:359|419:375,1,120,6|12,0:0|0:0,0:0:0:0:
128,324,52970,6,0,P|84:268|100:168,1,120,6|8,0:0|0:0,0:0:0:0:
112,172,53532,2,0,L|256:164,1,120,2|2,0:0|0:0,0:0:0:0:
276,56,54282,2,0,L|444:44,1,120,2|2,0:0|0:0,0:0:0:0:
440,88,54845,2,0,P|476:152|456:232,1,120,8|2,0:0|0:0,0:0:0:0:
372,264,55595,6,0,P|380:300|400:332,2,60,8|0|2,0:0|0:0|0:0,0:0:0:0:
272,200,56345,1,8,0:0:0:0:
240,248,56532,2,0,P|180:272|88:244,1,120,2|2,0:0|0:0,0:0:0:0:
28,200,57282,2,0,P|24:120|56:68,1,120,2|2,0:0|0:0,0:0:0:0:
88,48,57845,2,0,L|228:40,1,120,8|2,0:0|0:0,0:0:0:0:
320,80,58595,2,0,P|328:128|316:176,1,60,8|0,0:0|0:0,0:0:0:0:
308,196,58970,6,0,L|480:180,1,120,6|8,0:0|0:0,0:0:0:0:
468,232,59532,2,0,P|480:304|440:376,1,120,2|2,0:0|0:0,0:0:0:0:
408,364,60095,1,8,0:0:0:0:
348,356,60282,2,0,P|252:352|148:332,1,180,2|8,0:0|0:0,0:0:0:0:
80,256,61220,2,0,P|134:240|248:220,1,120,2|8,0:0|0:0,0:0:0:0:
308,184,61970,6,0,P|264:128|188:108,2,120,2|8|2,0:0|0:0|0:0,0:0:0:0:
358,293,63095,2,0,P|397:279|426:249,1,60,8|8,0:0|0:0,0:0:0:0:
456,232,63470,6,0,L|468:72,1,120,6|8,0:0|0:0,0:0:0:0:
372,36,64220,2,0,B|312:28|312:28|200:56,1,120,6|8,0:0|0:0,0:0:0:0:
248,164,64970,6,0,B|188:168|188:168|128:136,1,120,6|8,0:0|0:0,0:0:0:0:
92,252,65720,2,0,P|44:252|16:260,2,60,2|0|8,0:0|0:0|0:0,0:0:0:0:
152,256,66282,1,0,0:0:0:0:
212,268,66470,2,0,P|261:280|358:258,1,120,2|8,0:0|0:0,0:0:0:0:
376,233,67032,2,0,L|364:89,1,120,2|2,0:0|0:0,0:0:0:0:
396,60,67595,1,8,0:0:0:0:
279,21,67970,6,0,L|139:33,1,120,2|8,0:0|0:0,0:0:0:0:
100,45,68532,1,0,0:0:0:0:
44,52,68720,2,0,P|55:121|-8:192,1,120,2|8,0:0|0:0,0:0:0:0:
24,288,69470,2,0,P|80:308|168:276,1,120,2|8,0:0|0:0,0:0:0:0:
192,272,70032,1,0,0:0:0:0:
248,248,70220,2,0,P|352:264|392:308,1,120,2|12,0:0|0:0,0:0:0:0:
464,212,70970,6,0,L|440:56,1,120,6|8,0:0|0:0,0:0:0:0:
336,48,71720,2,0,P|292:40|248:56,1,60,2|0,0:0|0:0,0:0:0:0:
216,52,72095,2,0,P|176:60|128:56,1,60,8|0,0:0|0:0,0:0:0:0:
97,48,72470,6,0,P|121:108|97:212,1,120,2|8,0:0|0:0,0:0:0:0:
72,200,73032,1,0,0:0:0:0:
40,251,73220,2,0,P|28:364|46:419,1,120,2|8,0:0|0:0,0:0:0:0:
89,366,73782,1,0,0:0:0:0:
148,359,73970,6,0,L|312:343,1,120,2|8,0:0|0:0,0:0:0:0:
303,299,74532,2,0,P|362:303|421:343,1,120,2|2,0:0|0:0,0:0:0:0:
469,358,75095,1,8,0:0:0:0:
484,240,75470,6,0,P|488:164|452:104,1,120,6|8,0:0|0:0,0:0:0:0:
352,140,76220,2,0,P|344:198|365:254,1,120,6|8,0:0|0:0,0:0:0:0:
248,236,76970,6,0,P|180:216|104:236,1,120,6|8,0:0|0:0,0:0:0:0:
76,116,77720,2,0,L|76:40,2,60,2|0|8,0:0|0:0|0:0,0:0:0:0:
64,176,78282,1,0,0:0:0:0:
36,228,78470,2,0,P|28:296|40:352,1,120,2|8,0:0|0:0,0:0:0:0:
96,348,79032,2,0,L|268:340,1,120,2|2,0:0|0:0,0:0:0:0:
276,336,79595,1,8,0:0:0:0:
396,332,79970,6,0,P|412:240|392:168,1,120,2|8,0:0|0:0,0:0:0:0:
396,156,80532,1,0,0:0:0:0:
380,96,80720,1,2,0:0:0:0:
260,116,81095,1,8,0:0:0:0:
156,60,81470,6,0,P|144:136|184:208,1,120,2|8,0:0|0:0,0:0:0:0:
192,224,82032,1,0,0:0:0:0:
224,272,82220,1,2,0:0:0:0:
124,340,82595,1,8,0:0:0:0:
40,252,82970,6,0,P|52:172|48:104,1,120,6|8,0:0|0:0,0:0:0:0:
152,64,83720,2,0,P|140:140|132:172,2,60,2|0|8,0:0|0:0|0:0,0:0:0:0:
212,60,84282,1,0,0:0:0:0:
272,52,84470,6,0,P|328:48|420:56,1,120,6|8,0:0|0:0,0:0:0:0:
432,96,85032,2,0,P|440:180|416:248,1,120,2|2,0:0|0:0,0:0:0:0:
416,272,85595,1,8,0:0:0:0:
316,340,85970,6,0,L|168:332,1,120,6|8,0:0|0:0,0:0:0:0:
127,235,86720,2,0,L|246:241,1,120,6|8,0:0|0:0,0:0:0:0:
326,151,87470,2,0,L|178:143,1,120,6|12,0:0|0:0,0:0:0:0:
129,52,88220,2,0,L|248:58,1,120,6|12,0:0|0:0,0:0:0:0:
256,192,88970,12,4,94970,0:0:0:0:
