osu file format v14

[General]
AudioFilename: audio.mp3
AudioLeadIn: 0
PreviewTime: 16763
Countdown: 0
SampleSet: None
StackLeniency: 0.7
Mode: 2
LetterboxInBreaks: 0
WidescreenStoryboard: 0

[Editor]
Bookmarks: 6364,8431,16699,22900,24967,33235,41503,58039
DistanceSpacing: 1
BeatDivisor: 4
GridSize: 4
TimelineZoom: 3.899998

[Metadata]
Title:Intro/Stage 5
TitleUnicode:Intro/Stage 5
Artist:Kenji Yamazaki
ArtistUnicode:山崎 憲司
Creator:Hareimu
Version:Ninja
Source:快傑ヤンチャ丸3 対決!ゾウリンゲン
Tags:Kaiketsu Yanchamaru 3: Taiketsu! Showdown! Zouringen Solingen NES irem corp. 1993
BeatmapID:1669801
BeatmapSetID:795041

[Difficulty]
HPDrainRate:6
CircleSize:4
OverallDifficulty:9.6
ApproachRate:9.6
SliderMultiplier:1.7
SliderTickRate:2

[Events]
//Background and Video events
0,0,"BG.png",0,0
//Break Periods
//Storyboard Layer 0 (Background)
//Storyboard Layer 1 (Fail)
//Storyboard Layer 2 (Pass)
//Storyboard Layer 3 (Foreground)
//Storyboard Sound Samples

[TimingPoints]
163,258.375678236155,4,2,1,75,1,0
8431,-100,4,2,1,75,0,1
16699,-100,4,2,1,75,0,0
59072,-100,4,2,1,50,0,0
60106,-100,4,2,1,25,0,0
60622,-100,4,2,1,13,0,0
61010,-100,4,2,1,5,0,0

[Colours]
Combo1 : 255,205,53
Combo2 : 0,255,0
Combo3 : 85,170,255
Combo4 : 255,0,77

[HitObjects]
116,94,163,6,0,L|-2:93,2,85,2|2|0,3:2|0:0|3:0,0:0:0:0:
396,94,679,2,0,L|479:162,2,85,2|0|2,3:2|0:0|3:2,0:0:0:0:
137,165,1196,6,0,L|110:251,2,85,2|2|0,3:2|0:0|3:0,0:0:0:0:
375,165,1713,2,0,L|379:251,1,85,2|0,3:2|0:0,0:0:0:0:
252,248,1971,1,2,3:2:0:0:
379,250,2100,1,2,0:0:0:0:
124,121,2230,5,2,3:2:0:0:
208,120,2359,1,2,0:0:0:0:
293,120,2488,1,0,3:0:0:0:
38,266,2746,1,2,3:2:0:0:
122,267,2875,1,0,0:0:0:0:
206,269,3005,1,2,3:2:0:0:
474,266,3263,5,2,3:2:0:0:
390,267,3392,1,2,0:0:0:0:
306,269,3521,1,0,3:0:0:0:
93,128,3780,2,0,L|89:214,1,85,2|0,3:2|0:0,0:0:0:0:
217,192,4038,2,0,L|127:191,1,85,2|2,3:2|0:2,0:0:0:0:
388,121,4297,5,2,3:2:0:0:
304,120,4426,1,2,0:0:0:0:
219,120,4555,1,0,3:0:0:0:
474,266,4813,1,2,3:2:0:0:
390,267,4942,1,0,0:0:0:0:
306,269,5072,1,2,3:2:0:0:
38,266,5330,5,2,3:2:0:0:
122,267,5459,1,2,0:0:0:0:
206,269,5588,1,0,3:0:0:0:
419,128,5847,2,0,L|423:214,1,85,2|0,3:2|0:0,0:0:0:0:
287,214,6105,1,2,3:2:0:0:
422,212,6234,1,2,0:2:0:0:
140,210,6364,5,0,3:0:0:0:
104,189,6428,1,2,0:0:0:0:
110,146,6493,1,0,0:0:0:0:
159,127,6557,1,2,0:0:0:0:
372,210,6622,1,0,3:0:0:0:
408,189,6686,1,2,0:0:0:0:
402,146,6751,1,0,0:0:0:0:
353,127,6816,1,2,0:0:0:0:
111,211,6880,5,0,3:0:0:0:
75,190,6945,1,2,0:0:0:0:
81,147,7009,1,0,0:0:0:0:
130,128,7074,1,2,0:0:0:0:
401,211,7139,1,0,3:0:0:0:
437,190,7203,1,2,0:0:0:0:
111,211,7268,1,0,0:0:0:0:
75,190,7332,1,2,0:0:0:0:
428,211,7397,5,0,3:0:0:0:
464,190,7462,1,2,0:0:0:0:
458,147,7526,1,0,0:0:0:0:
409,128,7591,1,2,0:0:0:0:
84,211,7655,1,0,3:0:0:0:
48,190,7720,1,2,0:0:0:0:
54,147,7785,1,0,0:0:0:0:
103,128,7849,1,2,0:0:0:0:
372,210,7914,5,0,3:0:0:0:
408,189,7978,1,2,0:0:0:0:
402,146,8043,1,0,0:0:0:0:
353,127,8108,1,2,0:0:0:0:
100,130,8172,1,0,3:0:0:0:
119,168,8237,1,2,0:0:0:0:
397,168,8301,1,0,0:0:0:0:
439,168,8366,1,2,0:0:0:0:
98,124,8431,5,2,3:2:0:0:
34,180,8560,1,0,0:0:0:0:
319,228,8689,1,2,3:2:0:0:
336,144,8818,1,0,0:0:0:0:
125,115,8947,1,2,3:2:0:0:
358,122,9076,1,2,0:0:0:0:
443,122,9205,1,0,3:0:0:0:
69,117,9335,5,2,0:0:0:0:
45,198,9464,1,0,3:0:0:0:
255,193,9593,1,2,0:0:0:0:
254,277,9722,1,0,3:0:0:0:
443,117,9852,1,2,0:0:0:0:
465,198,9981,1,0,3:0:0:0:
337,199,10110,1,2,0:0:0:0:
465,198,10239,1,2,3:2:0:0:
250,200,10368,1,2,0:2:0:0:
465,198,10498,5,2,3:2:0:0:
471,113,10627,1,0,0:0:0:0:
249,120,10756,1,2,3:2:0:0:
255,204,10885,1,0,0:0:0:0:
478,205,11014,1,2,3:2:0:0:
255,204,11143,1,2,0:2:0:0:
170,204,11272,1,0,3:0:0:0:
384,205,11402,1,2,0:0:0:0:
426,205,11466,1,0,0:0:0:0:
128,139,11531,5,2,3:2:0:0:
43,139,11660,1,0,0:0:0:0:
231,139,11789,1,2,3:2:0:0:
43,138,11919,1,2,0:2:0:0:
469,246,12048,1,2,3:2:0:0:
256,246,12177,1,2,0:2:0:0:
469,245,12306,1,2,3:2:0:0:
384,245,12435,1,0,0:0:0:0:
86,250,12565,5,2,3:2:0:0:
71,166,12694,1,0,0:0:0:0:
258,160,12823,1,2,3:2:0:0:
173,159,12952,1,0,0:0:0:0:
368,159,13081,1,2,3:2:0:0:
46,249,13210,1,2,0:0:0:0:
130,250,13339,1,0,3:0:0:0:
465,198,13469,5,2,0:0:0:0:
442,115,13598,1,0,3:0:0:0:
254,277,13727,1,2,0:0:0:0:
255,192,13856,1,0,3:0:0:0:
47,198,13986,1,2,0:0:0:0:
70,116,14115,1,0,3:0:0:0:
197,116,14244,1,2,0:0:0:0:
70,116,14373,1,2,3:2:0:0:
284,115,14502,1,2,0:2:0:0:
70,268,14632,5,2,3:2:0:0:
154,267,14761,1,0,0:0:0:0:
368,270,14890,1,2,3:2:0:0:
283,269,15019,1,0,0:0:0:0:
70,109,15148,1,2,3:2:0:0:
368,114,15277,2,0,P|425:171|371:225,1,170,2|2,3:2|3:2,0:0:0:0:
332,226,15600,1,0,0:0:0:0:
139,224,15665,5,10,0:2:0:0:
223,223,15794,1,8,0:2:0:0:
33,99,15923,1,10,0:2:0:0:
223,223,16053,1,10,0:2:0:0:
479,99,16182,1,10,0:2:0:0:
289,223,16311,1,10,0:2:0:0:
373,224,16440,1,10,0:2:0:0:
289,223,16569,1,8,0:2:0:0:
75,221,16699,5,2,3:2:0:0:
58,137,16828,1,0,0:0:0:0:
188,136,16957,2,0,L|288:136,2,85,8|0|0,0:0|0:0|0:0,0:0:0:0:
316,136,17344,1,0,0:0:0:0:
188,136,17474,1,2,3:2:0:0:
378,138,17603,1,2,0:0:0:0:
100,144,17732,5,10,0:0:0:0:
77,226,17861,1,0,0:0:0:0:
299,227,17990,1,2,0:0:0:0:
213,227,18120,1,0,3:0:0:0:
412,144,18249,1,2,0:0:0:0:
435,226,18378,1,0,0:0:0:0:
213,227,18507,1,10,0:0:0:0:
299,227,18637,1,0,0:0:0:0:
87,123,18766,5,2,3:2:0:0:
171,122,18895,1,0,0:0:0:0:
413,122,19024,2,0,L|223:122,1,170,10|2,0:0|0:0,0:0:0:0:
455,262,19411,1,2,0:0:0:0:
432,180,19540,1,0,3:0:0:0:
197,270,19670,1,2,0:0:0:0:
325,267,19799,5,8,0:0:0:0:
333,182,19928,1,0,0:0:0:0:
206,183,20057,1,0,0:0:0:0:
333,183,20187,1,0,3:0:0:0:
206,183,20316,1,0,0:0:0:0:
198,98,20445,1,0,0:0:0:0:
389,178,20574,1,8,0:0:0:0:
474,178,20703,1,0,0:0:0:0:
206,183,20833,5,2,3:2:0:0:
121,183,20962,1,0,0:0:0:0:
250,184,21091,1,8,0:0:0:0:
314,128,21220,1,0,0:0:0:0:
301,211,21349,1,0,0:0:0:0:
199,211,21478,1,0,0:0:0:0:
301,211,21608,1,2,3:2:0:0:
105,208,21737,1,2,0:0:0:0:
396,76,21866,5,10,0:0:0:0:
481,76,21995,1,0,0:0:0:0:
214,78,22124,1,2,0:0:0:0:
298,78,22254,1,0,3:0:0:0:
103,231,22383,2,0,P|57:171|119:114,1,170,2|10,0:0|0:0,0:0:0:0:
199,112,22770,1,0,0:0:0:0:
434,107,22900,5,0,3:0:0:0:
444,147,22964,1,2,0:0:0:0:
277,190,23029,1,0,0:0:0:0:
235,190,23093,1,2,0:0:0:0:
445,107,23158,1,8,0:0:0:0:
455,147,23223,1,2,0:0:0:0:
277,190,23287,1,0,0:0:0:0:
234,189,23352,1,2,0:0:0:0:
67,107,23416,5,0,0:0:0:0:
56,147,23481,1,2,0:0:0:0:
256,105,23545,1,0,0:0:0:0:
298,105,23610,1,2,0:0:0:0:
56,147,23675,1,0,3:0:0:0:
69,186,23739,1,2,0:0:0:0:
413,147,23804,1,0,0:0:0:0:
455,147,23868,1,2,0:0:0:0:
99,147,23933,5,8,0:0:0:0:
57,147,23998,1,2,0:0:0:0:
390,206,24062,1,0,0:0:0:0:
432,206,24127,1,2,0:0:0:0:
122,206,24191,1,0,0:0:0:0:
80,206,24256,1,2,0:0:0:0:
371,284,24321,1,0,3:0:0:0:
413,285,24385,1,2,0:0:0:0:
141,284,24450,5,0,0:0:0:0:
99,283,24514,1,2,0:0:0:0:
348,205,24579,1,0,0:0:0:0:
390,206,24644,1,2,0:0:0:0:
164,205,24708,1,8,0:0:0:0:
128,184,24773,1,2,0:0:0:0:
134,141,24837,1,0,0:0:0:0:
183,122,24902,1,2,0:0:0:0:
397,162,24967,5,2,3:2:0:0:
482,162,25096,1,0,0:0:0:0:
256,192,25225,1,8,0:0:0:0:
192,136,25354,1,0,0:0:0:0:
205,219,25483,1,0,0:0:0:0:
307,219,25613,1,0,0:0:0:0:
205,219,25742,1,2,3:2:0:0:
447,111,25871,1,2,0:0:0:0:
65,111,26000,5,10,0:0:0:0:
44,193,26129,1,0,0:0:0:0:
331,273,26258,1,2,0:0:0:0:
309,190,26387,1,0,3:0:0:0:
182,273,26517,1,2,0:0:0:0:
202,190,26646,1,0,0:0:0:0:
447,111,26775,1,10,0:0:0:0:
467,193,26904,1,0,0:0:0:0:
225,191,27034,5,2,3:2:0:0:
310,191,27163,1,0,0:0:0:0:
87,109,27292,2,0,L|260:109,1,170,10|2,0:0|0:0,0:0:0:0:
457,123,27680,1,2,0:0:0:0:
372,123,27809,1,0,3:0:0:0:
97,191,27938,1,2,0:0:0:0:
225,191,28067,5,8,0:0:0:0:
239,107,28196,1,0,0:0:0:0:
111,104,28325,1,0,0:0:0:0:
239,107,28455,1,0,3:0:0:0:
226,191,28584,1,0,0:0:0:0:
98,190,28713,1,0,0:0:0:0:
374,190,28842,1,8,0:0:0:0:
459,190,28971,1,0,0:0:0:0:
246,192,29101,5,2,3:2:0:0:
161,192,29230,1,0,0:0:0:0:
288,191,29359,1,8,0:0:0:0:
300,106,29488,1,0,0:0:0:0:
172,104,29617,1,0,0:0:0:0:
87,104,29747,1,0,0:0:0:0:
214,106,29876,1,2,3:2:0:0:
87,104,30005,1,2,0:0:0:0:
341,104,30134,5,10,0:0:0:0:
426,104,30263,1,0,0:0:0:0:
169,280,30392,1,2,0:0:0:0:
84,280,30521,1,0,3:0:0:0:
381,279,30651,1,2,0:0:0:0:
169,280,30780,1,2,0:0:0:0:
156,195,30909,1,8,0:0:0:0:
368,193,31038,1,2,0:0:0:0:
68,204,31168,5,0,3:0:0:0:
153,204,31297,1,0,0:0:0:0:
238,205,31426,1,2,3:2:0:0:
153,204,31555,1,2,0:0:0:0:
468,111,31684,1,2,3:2:0:0:
362,111,31813,1,0,0:0:0:0:
256,112,31943,1,2,3:2:0:0:
468,111,32072,1,2,0:0:0:0:
187,208,32201,5,2,3:2:0:0:
102,208,32330,1,0,0:0:0:0:
336,233,32459,1,2,3:2:0:0:
251,233,32588,1,0,0:0:0:0:
464,165,32718,1,10,0:0:0:0:
251,166,32847,2,0,L|336:166,2,85,10|0|10,0:0|0:0|0:0,0:0:0:0:
38,173,33235,6,0,L|134:173,2,85,0|0|0,3:0|0:0|0:0,0:0:0:0:
337,172,33622,1,2,0:0:0:0:
422,172,33751,1,0,0:0:0:0:
159,345,33881,1,2,0:0:0:0:
48,346,34010,1,0,3:0:0:0:
159,345,34139,2,0,B|31:344|8:278|32:162|103:158|177:228|290:215|300:105|247:22|157:19|103:31,1,595,0|0,3:0|0:0,0:0:0:0:
474,173,35302,6,0,L|378:173,2,85,0|0|0,3:0|0:0|0:0,0:0:0:0:
219,173,35689,1,2,0:0:0:0:
134,173,35818,1,0,0:0:0:0:
391,173,35948,1,2,0:0:0:0:
178,177,36077,1,2,3:2:0:0:
288,176,36206,1,0,3:0:0:0:
178,177,36335,5,0,0:0:0:0:
115,234,36464,1,0,0:0:0:0:
94,150,36593,1,0,3:0:0:0:
115,234,36723,1,0,3:0:0:0:
178,177,36852,1,0,0:0:0:0:
279,176,36981,1,0,0:0:0:0:
151,177,37110,1,0,0:0:0:0:
363,176,37239,1,0,0:0:0:0:
128,70,37369,6,0,L|31:70,2,85,0|0|0,3:0|0:0|0:0,0:0:0:0:
400,89,37756,1,2,0:2:0:0:
422,170,37885,1,0,0:0:0:0:
89,170,38015,1,2,0:2:0:0:
200,172,38144,1,0,3:0:0:0:
90,305,38273,2,0,P|57:245|174:126,1,255,0|0,3:0|3:0,0:0:0:0:
462,309,38790,2,0,L|288:308,1,170,2|2,3:2|0:0,0:0:0:0:
378,77,39177,1,2,0:0:0:0:
39,237,39436,5,10,0:0:0:0:
123,236,39565,1,0,3:0:0:0:
39,237,39694,1,0,3:0:0:0:
473,237,39823,1,10,0:0:0:0:
362,239,39952,1,0,3:0:0:0:
473,237,40082,1,0,3:0:0:0:
87,165,40211,5,10,0:0:0:0:
299,165,40340,1,0,3:0:0:0:
213,165,40469,1,0,3:0:0:0:
425,169,40598,1,10,0:2:0:0:
207,227,40727,1,0,3:0:0:0:
305,227,40857,1,0,3:0:0:0:
50,120,40986,5,10,0:0:0:0:
143,121,41115,1,0,0:0:0:0:
462,120,41244,1,10,0:0:0:0:
369,121,41373,1,0,0:0:0:0:
156,124,41503,6,0,L|52:124,2,85,0|0|8,3:0|0:0|0:0,0:0:0:0:
410,124,41890,1,2,0:1:0:0:
325,124,42019,1,0,0:0:0:0:
69,264,42149,2,0,L|181:263,2,85,2|0|0,0:1|3:0|0:0,0:0:0:0:
260,225,42536,6,0,L|362:225,2,85,8|0|0,0:0|0:0|0:0,0:0:0:0:
131,225,42924,2,0,P|101:152|170:110,1,170,0|0,3:0|0:0,0:0:0:0:
251,109,43311,1,8,0:0:0:0:
166,109,43440,1,0,0:0:0:0:
380,225,43570,6,0,L|474:225,2,85,0|0|8,3:0|0:0|0:0,0:0:0:0:
80,228,43957,1,2,0:1:0:0:
165,228,44086,1,0,0:0:0:0:
420,160,44216,1,2,0:1:0:0:
208,158,44345,1,2,3:1:0:0:
123,158,44474,1,0,0:0:0:0:
378,195,44603,5,8,0:0:0:0:
442,139,44732,1,0,0:0:0:0:
429,222,44861,1,0,0:0:0:0:
327,222,44991,1,0,3:0:0:0:
134,195,45120,1,0,0:0:0:0:
70,139,45249,1,0,0:0:0:0:
83,222,45378,1,8,0:0:0:0:
185,222,45507,1,0,0:0:0:0:
397,222,45637,6,0,L|296:221,2,85,0|0|8,3:0|0:0|0:0,0:0:0:0:
140,98,46024,1,2,0:1:0:0:
55,98,46153,1,0,0:0:0:0:
372,98,46283,2,0,L|461:98,2,85,2|0|0,0:1|3:0|0:0,0:0:0:0:
179,139,46670,5,8,0:0:0:0:
263,138,46799,2,0,L|434:138,1,170,0|0,0:0|3:0,0:0:0:0:
177,82,47187,2,0,P|101:115|68:191,1,170,0|8,0:0|0:0,0:0:0:0:
154,191,47574,1,0,0:0:0:0:
345,152,47704,6,0,L|456:152,2,85,0|0|8,3:0|0:0|0:0,0:0:0:0:
90,281,48091,1,2,0:1:0:0:
175,281,48220,1,0,0:0:0:0:
388,283,48350,1,2,0:1:0:0:
175,103,48479,1,2,3:1:0:0:
90,103,48608,1,0,0:0:0:0:
388,283,48737,5,10,0:0:0:0:
439,280,48802,1,2,0:0:0:0:
471,252,48866,1,2,0:0:0:0:
482,210,48931,1,0,0:0:0:0:
471,168,48996,1,2,0:0:0:0:
435,145,49060,1,0,0:0:0:0:
383,139,49125,1,2,3:2:0:0:
319,139,49189,1,0,0:0:0:0:
79,139,49318,5,2,0:0:0:0:
43,163,49383,1,2,0:0:0:0:
33,205,49448,1,0,0:0:0:0:
43,163,49512,1,10,0:0:0:0:
79,139,49577,1,0,0:0:0:0:
129,139,49641,1,2,0:0:0:0:
193,138,49706,1,0,0:0:0:0:
385,108,49771,6,0,L|480:107,2,85,0|0|8,3:0|0:0|0:0,0:0:0:0:
152,156,50158,1,2,0:1:0:0:
67,155,50287,1,0,0:0:0:0:
360,156,50417,2,0,L|444:155,2,85,2|0|0,0:1|3:0|0:0,0:0:0:0:
146,157,50804,5,8,0:0:0:0:
230,157,50933,2,0,P|260:230|191:272,1,170,0|0,0:0|3:0,0:0:0:0:
408,276,51321,2,0,P|455:211|383:156,1,170,0|8,0:0|0:0,0:0:0:0:
317,156,51708,1,0,0:0:0:0:
62,165,51838,6,0,L|155:164,2,85,0|0|8,3:0|0:0|0:0,0:0:0:0:
318,158,52225,1,2,0:1:0:0:
330,242,52354,1,0,0:0:0:0:
118,247,52484,1,2,0:1:0:0:
415,247,52613,1,2,0:1:0:0:
427,162,52742,1,0,0:0:0:0:
85,172,52871,5,8,0:0:0:0:
74,130,52935,1,2,0:0:0:0:
160,124,53000,1,0,0:0:0:0:
170,82,53064,1,2,0:0:0:0:
85,212,53130,1,0,0:0:0:0:
74,253,53194,1,2,0:0:0:0:
203,259,53259,1,0,3:0:0:0:
245,259,53323,1,2,0:0:0:0:
85,172,53388,5,0,0:0:0:0:
74,130,53452,1,2,0:0:0:0:
267,125,53517,1,2,0:0:0:0:
309,124,53581,1,2,0:0:0:0:
85,212,53646,1,8,0:0:0:0:
74,253,53710,1,2,0:0:0:0:
331,259,53775,1,2,0:0:0:0:
373,259,53839,1,2,0:0:0:0:
138,133,53905,6,0,L|53:133,2,85,0|0|8,3:0|0:0|0:0,0:0:0:0:
392,252,54292,1,2,0:1:0:0:
307,252,54421,1,0,0:0:0:0:
53,251,54551,2,0,L|138:251,2,85,2|0|0,0:1|3:0|0:0,0:0:0:0:
265,251,54938,5,8,0:0:0:0:
349,252,55067,2,0,P|425:219|458:143,1,170,0|0,0:0|3:0,0:0:0:0:
163,252,55455,2,0,P|87:219|54:143,1,170,0|8,0:0|0:0,0:0:0:0:
138,143,55842,1,0,0:0:0:0:
473,237,55972,5,10,0:0:0:0:
389,236,56101,1,0,3:0:0:0:
473,237,56230,1,0,3:0:0:0:
39,237,56359,1,10,0:0:0:0:
150,239,56488,1,0,3:0:0:0:
39,237,56618,1,0,3:0:0:0:
425,165,56747,5,10,0:0:0:0:
213,165,56876,1,0,3:0:0:0:
299,165,57005,1,0,3:0:0:0:
87,169,57134,1,10,0:2:0:0:
305,227,57263,1,0,3:0:0:0:
207,227,57393,1,0,3:0:0:0:
480,202,57522,5,10,0:0:0:0:
395,203,57651,1,0,0:0:0:0:
140,148,57780,1,10,0:0:0:0:
331,147,57909,1,0,0:0:0:0:
32,202,58039,1,2,3:2:0:0:
256,192,58168,12,0,61010,0:0:0:0:
