osu file format v14

[General]
AudioFilename: audio.mp3
AudioLeadIn: 0
PreviewTime: 54444
Countdown: 0
SampleSet: Soft
StackLeniency: 0.7
Mode: 0
LetterboxInBreaks: 0
WidescreenStoryboard: 1

[Editor]
DistanceSpacing: 0.8
BeatDivisor: 4
GridSize: 32
TimelineZoom: 2.499999

[Metadata]
Title:Hito toshite Jiku ga Bureteiru (TV Size)
TitleUnicode:人として軸がぶれている (TV Size)
Artist:Kenji Ohtsuki to Zetsubou Shoujotachi
ArtistUnicode:大槻ケンヂと絶望少女達
Creator:keevy
Version:Normal
Source:さよなら絶望先生
Tags:sayonara zetsubou sensei op 1 bure kenji ootsuki ohtsuki despair j rock jrock j-rock japanese
BeatmapID:3726586
BeatmapSetID:1815708

[Difficulty]
HPDrainRate:3.5
CircleSize:3.5
OverallDifficulty:5
ApproachRate:6
SliderMultiplier:1.2
SliderTickRate:1

[Events]
//Background and Video events
0,0,"cropped-1920-1080-73159.jpg",0,0
//Break Periods
//Storyboard Layer 0 (Background)
//Storyboard Layer 1 (Fail)
//Storyboard Layer 2 (Pass)
//Storyboard Layer 3 (Foreground)
//Storyboard Layer 4 (Overlay)
//Storyboard Sound Samples

[TimingPoints]
244,323.014804845222,4,2,1,60,1,0
244,-100,4,2,1,60,0,0
890,-100,4,2,1,60,0,0
1536,319.148936170213,4,2,1,60,1,0
2493,310.880829015544,4,2,1,60,1,0
2881,300,4,2,1,75,1,1
2881,-100,4,2,1,75,0,1
3781,324.324324324324,4,2,1,75,1,1
3781,-100,4,2,1,75,0,1
4753,337.078651685394,4,2,1,75,1,1
4753,-100,4,2,1,75,0,1
5405,315.789473684211,4,2,1,75,1,1
5405,-100,4,2,1,75,0,1
6352,326.08695652174,4,2,1,75,1,1
6352,-100,4,2,1,75,0,1
6515,-100,4,2,1,75,0,1
7982,320.855614973262,4,2,1,75,1,1
7982,-100,4,2,1,75,0,1
9907,331.491712707182,4,2,1,75,1,1
9907,-100,4,2,1,75,0,1
10569,324.324324324324,4,2,1,75,1,1
10569,-100,4,2,1,75,0,1
11541,317.460317460317,4,2,1,75,1,1
11541,-100,4,2,1,75,0,1
11699,-100,4,2,1,75,0,1
12017,-100,4,2,1,75,0,1
12493,320.855614973262,4,2,1,75,1,1
12493,-100,4,2,1,75,0,1
13134,324.324324324324,4,2,1,60,1,0
13134,-100,4,2,1,60,0,0
14431,320.855614973262,4,2,1,60,1,0
14431,-100,4,2,1,60,0,0
15714,326.086956521739,4,2,1,50,1,0
15714,-100,4,2,1,50,0,0
17018,323.450134770889,4,2,1,50,1,0
17018,-100,4,2,1,50,0,0
19605,321.71581769437,4,2,1,50,1,0
19605,-100,4,2,1,50,0,0
19926,304.568527918782,4,2,1,50,1,0
19926,-100,4,2,1,50,0,0
20535,319.148936170213,4,2,1,50,1,0
20535,-100,4,2,1,50,0,0
20854,335.195530726257,4,2,1,50,1,0
20854,-100,4,2,1,50,0,0
22194,319.148936170213,4,2,1,50,1,0
22194,-100,4,2,1,50,0,0
23470,312.5,4,2,1,50,1,0
23470,-100,4,2,1,50,0,0
24095,320.855614973262,4,2,1,50,1,0
24095,-100,4,2,1,50,0,0
24736,338.983050847458,4,2,1,50,1,0
24736,-100,4,2,1,50,0,0
25413,320.855614973262,4,2,1,50,1,0
25413,-100,4,2,1,50,0,0
26054,315.789473684211,4,2,1,50,1,0
26054,-100,4,2,1,50,0,0
26369,-100,4,2,1,50,0,0
27317,324.324324324324,4,2,1,50,1,0
27317,-100,4,2,1,50,0,0
29262,-100,4,2,1,50,0,0
31208,320.855614973262,4,2,1,60,1,0
31208,-100,4,2,1,60,0,0
33694,-100,4,2,1,5,0,0
33774,-100,4,2,1,60,0,0
35058,327.868852459016,4,2,1,50,1,0
35058,-100,4,2,1,50,0,0
36369,315.78947368421,4,2,1,50,1,0
36369,-100,4,2,1,50,0,0
37000,-100,4,2,1,50,0,0
37632,324.324324324325,4,2,1,50,1,0
37632,-100,4,2,1,50,0,0
37956,335.195530726257,4,2,1,50,1,0
37956,-100,4,2,1,50,0,0
38123,-100,4,2,1,50,0,0
38626,312.5,4,2,1,50,1,0
38626,-100,4,2,1,50,0,0
38938,322.58064516129,4,2,1,50,1,0
38938,-100,4,2,1,50,0,0
39583,312.5,4,2,1,50,1,0
39583,-100,4,2,1,50,0,0
39895,322.58064516129,4,2,1,50,1,0
39895,-100,4,2,1,50,0,0
40237,319.148936170213,4,2,1,50,1,0
40237,-100,4,2,1,50,0,0
41513,324.324324324324,4,2,1,50,1,0
41513,-100,4,2,1,50,0,0
43783,329.67032967033,4,2,1,50,1,0
43783,-100,4,2,1,50,0,0
44112,326.086956521739,4,2,1,60,1,0
44112,-100,4,2,1,60,0,0
45416,-100,4,2,1,60,0,0
46068,320.855614973262,4,2,1,65,1,0
46068,-100,4,2,1,65,0,0
46711,317.460317460317,4,2,1,65,1,0
46711,-100,4,2,1,65,0,0
48457,-100,4,2,1,65,0,0
49268,326.086956521739,4,2,1,65,1,0
49268,-100,4,2,1,65,0,0
50574,322.58064516129,4,2,1,65,1,0
50574,-100,4,2,1,65,0,0
50896,-100,4,2,1,65,0,0
51864,-100,4,2,1,65,0,0
52670,-97.0873786407767,4,2,1,65,0,0
53152,309.278350515464,4,2,1,65,1,0
53152,-100,4,2,1,65,0,0
53770,337.078651685393,4,2,1,65,1,0
53770,-100,4,2,1,65,0,0
54444,335.195530726257,4,2,1,80,1,0
54444,-100,4,2,1,80,0,1
55114,324.324324324324,4,2,1,75,1,0
55114,-100,4,2,1,75,0,0
55438,328.767123287671,4,2,1,85,1,1
55438,-100,4,2,1,85,0,0
55602,-100,4,2,1,80,0,1
56095,317.460317460317,4,2,1,80,1,1
56095,-100,4,2,1,80,0,1
57047,321.71581769437,4,2,1,80,1,1
57047,-100,4,2,1,80,0,1
58333,317.460317460317,4,2,1,80,1,1
58333,-100,4,2,1,80,0,1
59285,-100,4,2,1,80,0,1
59602,324.324324324324,4,2,1,80,1,1
59602,-100,4,2,1,80,0,1
62196,319.148936170213,4,2,1,80,1,1
62196,-100,4,2,1,80,0,1
64112,335.195530726257,4,2,1,80,1,1
64112,-100,4,2,1,80,0,1
64780,326.086956521739,4,2,1,80,1,1
64780,-100,4,2,1,80,0,1
65106,-100,4,2,1,80,0,1
65432,314.13612565445,4,2,1,75,1,1
65432,-100,4,2,1,75,0,1
65903,-100,4,2,1,80,0,1
66374,322.58064516129,4,2,1,80,1,1
66374,-100,4,2,1,80,0,1
67341,324.324324324324,4,2,1,80,1,1
67341,-100,4,2,1,80,0,1
68638,317.460317460317,4,2,1,80,1,1
68638,-100,4,2,1,80,0,1
68646,-100,4,2,1,80,0,1
69114,-100,4,2,1,80,0,1
69272,322.58064516129,4,2,1,80,1,1
69272,-100,4,2,1,80,0,1
69594,329.67032967033,4,2,1,80,1,1
69594,-100,4,2,1,80,0,1
69923,317.460317460317,4,2,1,65,1,0
69923,-100,4,2,1,65,0,0
70557,-100,4,2,1,65,0,0
71194,355.029585798817,4,2,1,65,1,0
71194,-100,4,2,1,65,0,0
71549,314.13612565445,4,2,1,65,1,0
72177,-100,4,2,1,65,0,0
72519,320.855614973262,4,2,1,65,1,0
72519,-100,4,2,1,65,0,0
73481,331.491712707182,4,2,1,65,1,0
73481,-100,4,2,1,65,0,0
74143,312.5,4,2,1,65,1,0
74143,-100,4,2,1,65,0,0
75080,329.67032967033,4,2,1,65,1,0
76728,317.460317460317,4,2,1,50,1,0
76728,-100,4,2,1,50,0,0
77680,315.789473684211,4,2,1,50,1,0
77680,-100,4,2,1,50,0,0
78627,326.086956521739,4,2,1,50,1,0
78627,-100,4,2,1,50,0,0
79442,-100,4,2,1,40,0,0
80277,324.324324324324,4,2,1,40,1,0
80277,-100,4,2,1,40,0,0
88060,-100,4,2,1,15,0,0

[Colours]
Combo1 : 236,197,228
Combo2 : 246,237,165
Combo3 : 137,193,219
Combo4 : 212,244,162

[HitObjects]
69,187,2881,6,0,B|145:163|120:203|209:178,1,120,14|0,1:2|1:2,0:0:0:0:
222,150,3331,1,12,0:0:0:0:
299,215,3631,1,0,1:2:0:0:
299,215,3781,2,0,L|285:354,1,120,12|0,0:0|1:2,0:0:0:0:
314,373,4267,1,12,0:0:0:0:
408,354,4591,1,0,1:2:0:0:
408,354,4753,2,0,L|431:283,1,60,12|0,0:0|0:0,0:0:0:0:
461,264,5090,1,8,0:0:0:0:
504,178,5405,6,0,P|465:119|394:113,1,120,12|0,0:0|1:2,0:0:0:0:
373,119,5878,1,12,0:0:0:0:
295,62,6194,1,0,1:2:0:0:
295,62,6352,2,0,L|146:112,1,120,12|0,0:0|0:0,0:0:0:0:
134,90,6841,1,12,0:0:0:0:
43,58,7167,1,0,1:2:0:0:
43,58,7330,2,0,P|31:91|34:127,1,60,12|0,0:0|0:0,0:0:0:0:
16,161,7656,2,0,P|29:194|57:218,1,60,8|0,0:0|1:2,0:0:0:0:
60,257,7982,6,0,P|129:225|205:231,1,120,12|0,0:0|1:2,0:0:0:0:
211,251,8463,1,12,0:0:0:0:
277,182,8784,1,0,1:2:0:0:
277,182,8944,2,0,L|293:54,1,120,12|0,0:0|0:0,0:0:0:0:
310,18,9425,1,12,0:0:0:0:
405,25,9746,1,0,1:2:0:0:
405,25,9907,2,0,L|477:-7,2,60,12|0|8,0:0|1:2|0:0,0:0:0:0:
394,74,10404,5,0,1:2:0:0:
394,74,10569,2,0,P|387:149|409:220,1,120,12|0,0:0|1:2,0:0:0:0:
425,230,11055,1,12,0:0:0:0:
462,323,11379,1,0,1:2:0:0:
462,323,11541,2,0,L|324:298,1,120,12|0,0:0|0:0,0:0:0:0:
304,274,12017,1,12,0:0:0:0:
225,326,12334,1,4,1:2:0:0:
225,326,12493,2,0,L|243:394,2,60,12|0|8,0:0|1:2|0:0,0:0:0:0:
182,304,12974,5,4,0:3:0:0:
182,304,13134,2,0,B|102:291|150:336|55:312,2,120,4|8|0,1:2|0:0|1:2,0:0:0:0:
237,225,14106,1,8,0:0:0:0:
185,142,14431,2,0,L|117:157,2,60,2|2|10,1:2|1:2|0:0,0:0:0:0:
211,101,14912,1,2,1:3:0:0:
211,101,15072,2,0,L|196:33,2,60,2|2|10,1:2|1:2|0:0,0:0:0:0:
295,143,15714,6,0,L|453:113,1,120,0|8,1:2|0:0,0:0:0:0:
508,127,16366,1,0,1:2:0:0:
465,40,16692,1,8,0:0:0:0:
412,120,17018,2,0,L|397:188,2,60,2|2|10,1:2|1:2|0:0,0:0:0:0:
330,70,17664,2,0,L|354:-44,2,60,2|2|10,1:2|1:2|0:0,0:0:0:0:
289,95,18150,5,2,1:2:0:0:
289,95,18311,2,0,L|131:65,1,120,0|8,1:2|0:0,0:0:0:0:
76,55,18958,1,0,1:2:0:0:
115,142,19282,1,8,0:0:0:0:
40,203,19605,6,0,P|3:259|22:340,1,120,2|10,1:2|0:0,0:0:0:0:
96,338,20230,2,0,P|133:282|114:201,1,120,2|10,1:2|0:0,0:0:0:0:
115,142,20854,6,0,B|267:188|199:88|371:142,1,240,0|0,1:2|1:2,0:0:0:0:
431,180,21859,1,8,0:0:0:0:
468,273,22194,2,0,P|400:287|255:395,1,240,2|2,1:2|1:2,0:0:0:0:
75,327,23470,6,0,L|51:188,1,120,4|10,1:2|0:0,0:0:0:0:
28,170,23938,1,0,1:2:0:0:
28,170,24095,1,2,1:2:0:0:
50,76,24415,2,0,P|98:55|122:65,1,60,10|2,0:0|0:0,0:0:0:0:
142,33,24736,2,0,P|206:61|271:58,1,120,2|10,1:2|0:0,0:0:0:0:
304,49,25244,1,2,1:2:0:0:
304,49,25413,1,2,1:2:0:0:
312,144,25733,2,0,L|291:212,1,60,10|2,0:0|1:2,0:0:0:0:
268,242,26054,6,0,B|362:266|324:290|409:300,1,120,2|10,1:2|0:0,0:0:0:0:
422,300,26527,1,0,0:0:0:0:
422,300,26685,1,0,1:2:0:0:
485,227,27001,1,8,0:0:0:0:
434,148,27317,2,0,L|369:159,2,60,0|0|8,1:2|1:2|0:0,0:0:0:0:
472,119,27803,2,0,P|458:47|389:26,1,120,2|0,1:2|1:2,0:0:0:0:
374,34,28289,1,10,0:0:0:0:
281,60,28614,5,0,1:2:0:0:
198,10,28938,2,0,P|170:13|135:43,1,60,10|2,0:0|1:2,0:0:0:0:
96,39,29262,2,0,P|68:93|79:157,1,120,2|10,1:2|0:0,0:0:0:0:
52,194,29749,1,2,0:0:0:0:
52,194,29911,1,2,1:2:0:0:
121,259,30235,1,10,0:0:0:0:
103,353,30560,2,0,P|184:333|254:352,1,120,2|10,1:2|0:0,0:0:0:0:
262,369,31046,5,2,0:0:0:0:
262,369,31208,1,2,1:2:0:0:
334,306,31528,1,10,0:0:0:0:
412,360,31849,2,0,P|455:318|461:245,1,120,0|8,1:2|0:0,0:0:0:0:
495,224,32330,1,0,1:2:0:0:
495,224,32491,1,2,1:2:0:0:
481,133,32812,1,10,0:0:0:0:
481,133,32972,2,0,B|411:108|422:151|316:115,1,120,2|2,1:2|1:2,0:0:0:0:
337,86,33453,1,14,0:0:0:0:
271,156,33774,5,4,1:2:0:0:
322,236,34095,2,0,L|337:316,1,60,10|2,0:0|1:2,0:0:0:0:
305,334,34416,2,0,B|208:325|250:363|147:368,1,120,2|10,1:2|0:0,0:0:0:0:
143,356,34897,1,0,0:0:0:0:
96,351,35058,1,2,1:2:0:0:
34,277,35385,2,0,P|23:235|14:203,1,60,10|2,0:0|1:2,0:0:0:0:
43,177,35713,2,0,P|124:155|172:168,1,120,2|10,1:2|0:0,0:0:0:0:
200,194,36205,5,2,1:2:0:0:
200,194,36369,1,2,1:2:0:0:
270,128,36684,1,10,0:0:0:0:
223,43,37000,2,0,P|158:22|89:32,1,120,0|8,1:2|0:0,0:0:0:0:
22,65,37632,1,2,1:2:0:0:
24,157,37956,1,10,0:0:0:0:
24,157,38123,2,0,P|91:172|173:128,1,120,2|2,1:2|1:2,0:0:0:0:
185,135,38626,1,10,0:0:0:0:
232,214,38938,5,2,1:2:0:0:
153,268,39260,2,0,P|145:312|158:337,1,60,10|2,0:0|1:2,0:0:0:0:
193,348,39583,2,0,B|276:330|244:373|353:356,1,120,2|10,1:2|0:0,0:0:0:0:
353,339,40056,1,2,1:2:0:0:
353,339,40237,1,2,1:2:0:0:
298,259,40556,2,0,P|289:211|286:186,1,60,10|2,0:0|1:2,0:0:0:0:
250,169,40875,2,0,P|247:122|249:107,1,60,2|2,1:2|1:2,0:0:0:0:
238,62,41194,1,10,0:0:0:0:
323,22,41513,6,0,P|407:37|455:90,1,120,2|8,1:2|0:0,0:0:0:0:
476,77,41999,1,0,1:2:0:0:
476,77,42161,1,0,1:2:0:0:
415,151,42485,1,8,0:0:0:0:
475,225,42810,1,2,1:2:0:0:
437,313,43134,1,10,0:0:0:0:
437,313,43296,2,0,P|363:291|266:302,1,120,6|10,1:2|0:0,0:0:0:0:
280,315,43783,1,8,0:3:0:0:
210,247,44112,5,4,1:2:0:0:
261,166,44438,1,10,0:0:0:0:
261,166,44601,2,0,P|251:89|204:46,1,120,2|0,0:0|0:0,0:0:0:0:
144,6,45253,2,0,L|9:34,1,120,2|0,1:2|0:0,0:0:0:0:
0,70,45742,2,0,P|0:103|17:128,1,60,10|2,0:0|1:2,0:0:0:0:
13,173,46068,1,2,1:2:0:0:
13,173,46228,1,2,1:2:0:0:
102,138,46549,6,0,B|184:121|147:158|245:145,1,120,2|0,1:2|0:0,0:0:0:0:
262,125,47028,2,0,L|273:56,1,60,10|2,0:0|1:2,0:0:0:0:
306,32,47345,1,2,1:2:0:0:
306,32,47504,1,2,1:2:0:0:
430,104,47980,2,0,P|461:166|436:222,1,120,0|8,1:2|0:0,0:0:0:0:
435,258,48457,2,0,P|435:334|375:363,1,120,2|0,1:2|1:2,0:0:0:0:
356,360,48933,1,14,0:0:0:0:
270,310,49268,5,4,0:0:0:0:
191,364,49594,2,0,P|151:369|129:363,1,60,10|2,0:0|1:2,0:0:0:0:
96,332,49920,1,2,1:2:0:0:
96,332,50083,1,0,0:0:0:0:
149,252,50409,2,0,P|176:172|160:119,1,120,2|0,1:2|1:2,0:0:0:0:
187,94,50896,2,0,P|174:62|145:37,1,60,10|2,0:0|1:2,0:0:0:0:
108,34,51219,1,2,1:2:0:0:
108,34,51380,1,2,1:2:0:0:
41,103,51703,6,0,P|29:177|44:248,1,120,2|0,1:2|0:0,0:0:0:0:
70,253,52186,2,0,P|87:294|86:327,1,60,10|2,0:0|1:2,0:0:0:0:
63,350,52509,1,2,1:2:0:0:
63,350,52670,1,2,1:2:0:0:
154,378,52993,2,0,B|234:352|186:335|289:319,1,120,2|0,1:2|1:2,0:0:0:0:
303,334,53461,2,0,P|321:353|361:368,1,60,14|2,0:0|1:2,0:0:0:0:
393,353,53770,1,10,0:0:0:0:
393,353,53938,2,0,L|418:191,1,120,10|6,0:3|0:3,0:0:0:0:
449,204,54444,5,6,1:2:0:0:
369,150,54779,1,8,0:0:0:0:
441,81,55114,1,2,1:2:0:0:
441,81,55276,2,0,P|395:42|354:42,1,60,2|8,1:2|0:0,0:0:0:0:
364,7,55602,2,0,P|286:60|228:63,1,120,6|0,1:2|0:0,0:0:0:0:
215,48,56095,1,8,0:0:0:0:
150,118,56412,1,2,1:2:0:0:
214,188,56729,1,10,0:0:0:0:
188,279,57047,6,0,P|181:309|155:328,1,60,2|2,1:2|1:2,0:0:0:0:
124,360,57368,2,0,P|83:358|62:345,1,60,10|2,0:0|1:2,0:0:0:0:
19,339,57690,2,0,P|7:307|19:277,1,60,2|2,1:2|1:2,0:0:0:0:
5,235,58012,1,10,0:0:0:0:
74,164,58333,2,0,B|164:145|121:190|219:167,1,120,2|10,1:2|0:0,0:0:0:0:
231,146,58809,1,2,0:0:0:0:
299,213,59126,1,2,1:2:0:0:
299,213,59285,2,0,L|298:286,1,60,14|0,0:0|0:0,0:0:0:0:
282,317,59602,5,6,1:2:0:0:
365,363,59926,2,0,P|408:353|426:340,1,60,8|2,0:0|0:0,0:0:0:0:
458,315,60250,1,2,1:2:0:0:
458,315,60412,2,0,L|451:248,1,60,2|10,1:2|0:0,0:0:0:0:
413,225,60737,2,0,B|438:106|458:188|493:40,1,180,6|8,1:2|0:0,0:0:0:0:
400,21,61547,1,2,1:2:0:0:
315,66,61872,1,8,0:0:0:0:
218,49,62196,5,6,1:2:0:0:
218,49,62355,2,0,P|191:93|197:127,1,60,2|8,1:2|0:0,0:0:0:0:
168,142,62674,2,0,P|173:179|197:210,1,60,2|0,0:0|1:2,0:0:0:0:
226,220,62993,1,2,1:2:0:0:
216,315,63313,1,2,1:2:0:0:
216,315,63472,2,0,P|136:327|70:344,1,120,14|10,1:2|0:0,0:0:0:0:
51,347,63951,1,10,0:0:0:0:
20,257,64279,2,0,P|12:188|63:158,1,120,10|8,0:3|0:0,0:0:0:0:
79,122,64780,5,6,1:2:0:0:
148,187,65106,2,0,P|188:178|214:152,1,60,8|2,0:0|0:0,0:0:0:0:
231,125,65432,1,2,1:2:0:0:
231,125,65589,2,0,L|224:61,1,60,2|8,1:2|0:0,0:0:0:0:
256,29,65903,2,0,B|381:7|341:46|473:28,1,180,6|8,1:2|0:0,0:0:0:0:
509,92,66696,1,2,1:2:0:0:
447,166,67019,1,10,0:0:0:0:
484,253,67341,6,0,P|478:293|457:313,1,60,2|2,1:2|1:2,0:0:0:0:
447,351,67665,2,0,P|407:367|367:352,1,60,10|2,0:0|0:0,0:0:0:0:
343,372,67989,2,0,P|300:324|308:240,1,120,2|10,1:2|0:0,0:0:0:0:
345,186,68638,2,0,L|422:170,2,60,2|2|10,1:2|1:2|0:0,0:0:0:0:
304,159,69114,2,0,P|238:130|175:138,1,120,2|10,1:2|0:3,0:0:0:0:
151,158,69594,1,8,0:0:0:0:
91,237,69923,5,4,1:2:0:0:
32,161,70240,2,0,P|21:118|31:96,1,60,2|2,0:0|0:0,0:0:0:0:
22,56,70557,2,0,P|82:22|180:41,1,120,8|10,0:0|0:0,0:0:0:0:
176,2,71034,1,6,1:2:0:0:
231,81,71371,1,8,0:0:0:0:
231,81,71549,1,0,1:2:0:0:
312,30,71863,2,0,P|396:49|436:103,1,120,10|8,0:0|0:3,0:0:0:0:
451,167,72519,6,0,B|358:280|473:256|350:395,1,240,6|8,1:2|0:0,0:0:0:0:
279,337,73481,1,8,0:0:0:0:
185,359,73812,2,0,P|161:331|172:280,1,60,2|8,1:2|0:0,0:0:0:0:
131,265,74143,1,8,0:3:0:0:
184,185,74455,2,0,L|165:113,2,60,10|8|4,0:0|0:3|0:3,0:0:0:0:
224,210,74924,5,4,0:3:0:0:
224,210,75080,2,0,B|298:191|270:230|371:202,1,120,4|2,1:2|0:0,0:0:0:0:
385,186,75574,1,2,1:2:0:0:
385,186,75739,2,0,L|395:102,1,60,10|2,0:0|1:2,0:0:0:0:
475,78,76233,2,0,P|425:27|347:34,1,120,6|8,1:2|0:2,0:0:0:0:
333,1,76728,1,0,1:2:0:0:
270,73,77045,1,10,0:0:0:0:
178,45,77362,1,10,0:3:0:0:
106,109,77680,6,0,P|113:192|180:345,1,240,6|8,1:2|0:0,0:0:0:0:
264,350,78627,1,0,0:0:0:0:
350,307,78953,2,0,L|374:197,1,60,0|8,0:0|0:0,0:0:0:0:
337,207,79279,2,0,L|323:146,1,60,8|8,0:3|0:0,0:0:0:0:
287,116,79605,2,0,L|231:71,2,60,8|8|0,0:0|0:3|0:3,0:0:0:0:
380,74,80277,5,6,1:2:0:0:
256,192,80439,12,0,88060,0:0:0:0:
